<?xml version="1.0" standalone="no"?>
<!DOCTYPE svg PUBLIC "-//W3C//DTD SVG 1.1//EN" "http://www.w3.org/Graphics/SVG/1.1/DTD/svg11.dtd" >
<svg xmlns="http://www.w3.org/2000/svg" xmlns:xlink="http://www.w3.org/1999/xlink" version="1.1">
<metadata>
Created by FontForge 20170731 at Wed Aug 11 21:25:12 2021
 By Aleksey,,,
Copyright 2019 The Work Sans Project Authors (https://github.com/weiweihuanghuang/Work-Sans)
</metadata>
<defs>
<font id="WorkSans-ExtraLight" horiz-adv-x="593" >
  <font-face 
    font-family="Work Sans ExtraLight"
    font-weight="250"
    font-stretch="normal"
    units-per-em="1000"
    panose-1="0 0 0 0 0 0 0 0 0 0"
    ascent="800"
    descent="-200"
    x-height="500"
    cap-height="660"
    bbox="-180 -330 1209 1059"
    underline-thickness="50"
    underline-position="-175"
    unicode-range="U+000D-FB02"
  />
<missing-glyph horiz-adv-x="500" 
d="M130 80h240v500h-240v-500zM50 0v660h400v-660h-400z" />
    <glyph glyph-name="fi" unicode="fi" horiz-adv-x="535" 
d="M255 735q28 0 47 -8t31 -21l-10 -22q-12 14 -28 20t-39 6q-53 0 -82.5 -33.5t-29.5 -94.5v-82v-12v-488h-28v583q0 36 9 64t27 47.5t44 30t59 10.5zM326 500v-24h-310v24h310zM434 598q-13 0 -21 8t-8 21t8 21t22 8q13 0 21 -8t8 -21t-8 -21t-22 -8zM449 500v-500h-28
v500h28z" />
    <glyph glyph-name="fl" unicode="fl" horiz-adv-x="584" 
d="M255 735q28 0 47 -8t31 -21l-10 -22q-12 14 -28 20t-39 6q-53 0 -82.5 -33.5t-29.5 -94.5v-82v-12v-488h-28v583q0 36 9 64t27 47.5t44 30t59 10.5zM326 500v-24h-310v24h310zM445 730v-619q0 -52 17 -74t53 -22q22 0 34 3t26 9l-3 -25q-11 -5 -26 -8.5t-35 -3.5
q-47 0 -70.5 29t-23.5 91v620h28z" />
    <glyph glyph-name="f_f" unicode="ff" horiz-adv-x="643" 
d="M255 735q28 0 47 -8t31 -21l-10 -22q-12 14 -28 20t-39 6q-53 0 -82.5 -33.5t-29.5 -94.5v-82v-12v-488h-28v583q0 36 9 64t27 47.5t44 30t59 10.5zM326 500v-24h-310v24h310zM564 735q28 0 47 -8t31 -21l-10 -22q-12 14 -28 20t-39 6q-53 0 -82.5 -33.5t-29.5 -94.5v-82
v-12v-488h-28v583q0 36 9 64t27 47.5t44 30t59 10.5zM635 500v-24h-310v24h310z" />
    <glyph glyph-name="f_f_i" unicode="ffi" horiz-adv-x="844" 
d="M255 735q28 0 47 -8t31 -21l-10 -22q-12 14 -28 20t-39 6q-53 0 -82.5 -33.5t-29.5 -94.5v-82v-12v-488h-28v583q0 36 9 64t27 47.5t44 30t59 10.5zM326 500v-24h-310v24h310zM564 735q28 0 47 -8t31 -21l-10 -22q-12 14 -28 20t-39 6q-53 0 -82.5 -33.5t-29.5 -94.5v-82
v-12v-488h-28v583q0 36 9 64t27 47.5t44 30t59 10.5zM635 500v-24h-310v24h310zM743 598q-13 0 -21 8t-8 21t8 21t22 8q13 0 21 -8t8 -21t-8 -21t-22 -8zM758 500v-500h-28v500h28z" />
    <glyph glyph-name="f_f_l" unicode="ffl" horiz-adv-x="893" 
d="M255 735q28 0 47 -8t31 -21l-10 -22q-12 14 -28 20t-39 6q-53 0 -82.5 -33.5t-29.5 -94.5v-82v-12v-488h-28v583q0 36 9 64t27 47.5t44 30t59 10.5zM326 500v-24h-310v24h310zM564 735q28 0 47 -8t31 -21l-10 -22q-12 14 -28 20t-39 6q-53 0 -82.5 -33.5t-29.5 -94.5v-82
v-12v-488h-28v583q0 36 9 64t27 47.5t44 30t59 10.5zM635 500v-24h-310v24h310zM754 730v-619q0 -52 17 -74t53 -22q22 0 34 3t26 9l-3 -25q-11 -5 -26 -8.5t-35 -3.5q-47 0 -70.5 29t-23.5 91v620h28z" />
    <glyph glyph-name=".notdef" horiz-adv-x="500" 
d="M130 80h240v500h-240v-500zM50 0v660h400v-660h-400z" />
    <glyph glyph-name=".null" horiz-adv-x="0" 
 />
    <glyph glyph-name="nonmarkingreturn" horiz-adv-x="333" 
 />
    <glyph glyph-name="NULL" horiz-adv-x="0" 
 />
    <glyph glyph-name="NULL" horiz-adv-x="0" 
 />
    <glyph glyph-name="CR" unicode="&#xd;" horiz-adv-x="292" 
 />
    <glyph glyph-name="space" unicode=" " horiz-adv-x="292" 
 />
    <glyph glyph-name="exclam" unicode="!" horiz-adv-x="199" 
d="M114 660v-344l-2 -139h-25l-2 139v344h29zM100 54q13 0 21.5 -8.5t8.5 -21.5t-8.5 -21.5t-22.5 -8.5q-13 0 -21.5 8.5t-8.5 21.5q0 14 8.5 22t22.5 8z" />
    <glyph glyph-name="quotedbl" unicode="&#x22;" horiz-adv-x="271" 
d="M205 682l-5 -176h-25v176h30zM99 682l-5 -176h-25v176h30z" />
    <glyph glyph-name="numbersign" unicode="#" horiz-adv-x="633" 
d="M487 660l-102 -660h-26l102 660h26zM562 231v-23h-523v23h523zM270 660l-102 -660h-26l102 660h26zM595 461v-23h-524v23h524z" />
    <glyph glyph-name="dollar" unicode="$" horiz-adv-x="588" 
d="M306 0q-63 0 -115.5 18.5t-88.5 55.5t-49 92l24 17q11 -53 43.5 -87.5t81 -52t105.5 -17.5q87 0 142 37.5t55 110.5q0 48 -33.5 79t-111.5 47l-119 25q-59 12 -96 33.5t-53.5 53t-16.5 72.5q0 47 27 87t77 64.5t118 24.5q84 0 142 -35.5t83 -110.5l-21 -18
q-22 73 -76.5 106t-131.5 33q-57 0 -100 -19.5t-66 -53.5t-23 -76q0 -35 14 -61.5t46.5 -44.5t86.5 -30l117 -24q88 -19 126.5 -55.5t38.5 -95.5q0 -53 -29 -92t-80 -61t-117 -22zM289 -100v860h24v-860h-24z" />
    <glyph glyph-name="percent" unicode="%" horiz-adv-x="774" 
d="M151 0l442 660h29l-442 -660h-29zM182 662q49 0 80.5 -24t46.5 -62.5t15 -84.5q0 -44 -15 -82.5t-46.5 -62t-80.5 -23.5t-80.5 23.5t-47 62t-15.5 82.5q0 46 15 84.5t47 62.5t81 24zM182 639q-40 0 -66 -20.5t-38 -54t-12 -73.5q0 -39 12 -72t38 -53t66 -20t66 20t38 53
t12 72q0 40 -12.5 73.5t-38 54t-65.5 20.5zM593 337q49 0 80.5 -23.5t46.5 -62.5t15 -84t-15 -83t-46.5 -62t-80.5 -24t-81 24t-47.5 62t-15.5 83t15.5 84t47.5 62.5t81 23.5zM593 314q-40 0 -66.5 -20t-38.5 -53.5t-12 -73.5q0 -39 12 -72t38.5 -53.5t66.5 -20.5t65.5 20.5
t37.5 53.5t12 72q0 40 -12 73.5t-37.5 53.5t-65.5 20z" />
    <glyph glyph-name="ampersand" unicode="&#x26;" horiz-adv-x="582" 
d="M239 -10q-56 0 -99.5 18.5t-68.5 53.5t-25 82q0 38 12 68t35 55t56 47.5t74 45.5l12 7q45 26 79 49.5t54 53.5t20 74q0 45 -30 72t-81 27q-53 0 -84.5 -31t-31.5 -81q0 -23 5.5 -42t22.5 -46t50 -70.5t88 -115.5q58 -76 97.5 -124t67 -74.5t50 -36.5t46.5 -10l-5 -22
q-27 0 -52 11t-54.5 39t-70 77t-97.5 123q-51 67 -85 111t-54 74.5t-28 54.5t-8 51q0 40 17.5 70.5t49.5 48t77 17.5q42 0 72 -15t47 -42t17 -64q0 -47 -20 -81t-56.5 -61t-86.5 -56l-10 -5q-51 -28 -89 -55.5t-58.5 -61t-20.5 -80.5q0 -41 22 -71t59.5 -45.5t83.5 -15.5
q64 0 110.5 24.5t78.5 68.5l4 5q33 48 48.5 113.5t14.5 138.5l25 -2q1 -69 -15 -140t-54 -125l-6 -7q-33 -45 -83.5 -72.5t-121.5 -27.5z" />
    <glyph glyph-name="quotesingle" unicode="'" horiz-adv-x="165" 
d="M99 682l-5 -176h-25v176h30z" />
    <glyph glyph-name="parenleft" unicode="(" horiz-adv-x="271" 
d="M243 742l15 -17q-61 -52 -100 -118t-57.5 -146.5t-18.5 -176.5t18.5 -176.5t57.5 -146t100 -118.5l-15 -17q-96 83 -142 195t-46 263q0 153 46 265t142 193z" />
    <glyph glyph-name="parenright" unicode=")" horiz-adv-x="271" 
d="M28 -174l-15 17q62 53 101 118.5t57 146t18 176.5t-18 176.5t-57 146.5t-101 118l15 17q96 -81 142.5 -193t46.5 -265q0 -151 -46.5 -263t-142.5 -195z" />
    <glyph glyph-name="asterisk" unicode="*" horiz-adv-x="522" 
d="M268 515l55 -69l77 -107l-20 -15l-78 106l-48 75l7 5zM254 515l7 -5l7 -5l-49 -75l-77 -106l-21 15l78 107zM55 590l125 -40l84 -32l-3 -8l-3 -8l-86 23l-125 41zM274 730v-132l-5 -88h-8h-9l-4 88v132h26zM467 590l7 -24l-125 -41l-85 -23l-3 8l-3 8l83 32z" />
    <glyph glyph-name="plus" unicode="+" horiz-adv-x="604" 
d="M316 549v-472h-27v472h27zM536 329v-26h-468v26h468z" />
    <glyph glyph-name="comma" unicode="," horiz-adv-x="186" 
d="M94 54q13 0 22.5 -7t14 -19.5t4.5 -28.5q0 -21 -7.5 -43t-22.5 -40t-38 -30l-18 14q22 9 37.5 27t23 39.5t2.5 38.5h-2q-3 -5 -7.5 -8t-11.5 -3q-8 0 -14 4t-10 10.5t-4 15.5q0 8 4 15t11 11t16 4z" />
    <glyph glyph-name="hyphen" unicode="-" horiz-adv-x="434" 
d="M362 283v-29h-290v29h290z" />
    <glyph glyph-name="period" unicode="." horiz-adv-x="186" 
d="M93 54q14 0 22 -8.5t8 -21.5t-8 -21.5t-22 -8.5q-13 0 -21.5 8.5t-8.5 21.5q0 14 8.5 22t21.5 8z" />
    <glyph glyph-name="slash" unicode="/" horiz-adv-x="366" 
d="M331 730l-269 -800h-28l269 800h28z" />
    <glyph glyph-name="zero" unicode="0" horiz-adv-x="596" 
d="M298 -10q-113 0 -175 88t-62 252t62 252t175 88t175 -88t62 -252t-62 -252t-175 -88zM298 15q68 0 114 36t70.5 106.5t24.5 172.5t-24.5 172.5t-70.5 106.5t-114 36q-67 0 -113.5 -36t-70.5 -106.5t-24 -172.5t24 -172.5t70.5 -106.5t113.5 -36z" />
    <glyph glyph-name="one" unicode="1" horiz-adv-x="330" 
d="M208 0v552v32v33q-30 -46 -77 -77t-97 -46l-8 24q25 9 52 22.5t52 31.5t46 40.5t34 47.5h26v-660h-28z" />
    <glyph glyph-name="two" unicode="2" horiz-adv-x="543" 
d="M58 0v24q91 73 162 134t121 113.5t76 101.5t26 100q0 80 -48 126t-131 46q-84 0 -135 -52.5t-56 -139.5l-25 13q4 62 31 107.5t74.5 71t110.5 25.5q48 0 86 -13.5t65 -39t41.5 -62t14.5 -82.5q0 -70 -43 -136t-125.5 -140.5t-201.5 -170.5v-1h13.5h15h12.5h355v-25h-439z
" />
    <glyph glyph-name="three" unicode="3" horiz-adv-x="525" 
d="M268 -10q-89 0 -150.5 41.5t-78.5 110.5l26 15q10 -43 36.5 -75t68.5 -49.5t98 -17.5q55 0 96.5 19.5t65.5 56.5t24 89q0 47 -21.5 78.5t-58 46.5t-83.5 15h-34.5t-23.5 -1v27q11 -1 25 -1h27q71 0 111.5 39.5t40.5 109.5q0 71 -44 111t-121 40q-71 0 -119.5 -33.5
t-67.5 -90.5l-26 13q15 42 45.5 72.5t73.5 47t95 16.5q60 0 103 -21.5t66 -60.5t23 -92q0 -31 -8.5 -58.5t-25 -49.5t-40 -36t-53.5 -19v-1q32 -2 58.5 -14t45.5 -32t29.5 -47.5t10.5 -61.5q0 -56 -27.5 -98t-76 -65.5t-110.5 -23.5z" />
    <glyph glyph-name="four" unicode="4" horiz-adv-x="561" 
d="M371 0v199h-332v22v0v0l323 439h37v-437h135v-24h-135v-199h-28zM70 223h301v342v34.5t1 34.5h-2q-10 -17 -23 -35t-24 -34l-253 -342v0v0z" />
    <glyph glyph-name="five" unicode="5" horiz-adv-x="544" 
d="M277 -10q-85 0 -145 36.5t-80 121.5l26 12q14 -74 66 -109.5t134 -35.5q55 0 96.5 23.5t65.5 64.5t24 95t-23 95t-63.5 63.5t-94.5 22.5q-50 0 -85.5 -11.5t-59.5 -30t-40 -39.5l-25 2l32 360h361v-25h-338l-26 -290l-2 -18h2q23 31 67 54t117 23q61 0 107 -26
t72.5 -72.5t26.5 -106.5q0 -46 -15.5 -85t-44 -66.5t-68 -42.5t-87.5 -15z" />
    <glyph glyph-name="six" unicode="6" horiz-adv-x="557" 
d="M311 670q50 0 85 -15.5t58.5 -43.5t36.5 -65l-26 -12q-14 48 -52 79.5t-103 31.5q-61 0 -103.5 -28t-69 -74.5t-38.5 -105t-12 -120.5q0 -25 2.5 -52t5.5 -52h3q3 62 32.5 103t74 62t93.5 21q66 0 112 -25.5t71 -71.5t25 -108q0 -61 -26 -107.5t-73.5 -71.5t-112.5 -25
q-76 0 -128.5 39.5t-78.5 115.5t-26 185q0 113 33 188.5t89 113.5t128 38zM297 374q-55 0 -96 -26.5t-64 -67.5t-23 -86q0 -50 22.5 -90.5t63.5 -64t93 -23.5q85 0 134.5 49.5t49.5 130.5q0 53 -22 92.5t-62.5 62.5t-95.5 23z" />
    <glyph glyph-name="seven" unicode="7" horiz-adv-x="507" 
d="M25 660h468v-25q-81 -87 -136.5 -185t-86 -209.5t-39.5 -240.5h-29q8 124 39 237.5t88 216t144 192.5l1 -11h-449v25z" />
    <glyph glyph-name="eight" unicode="8" horiz-adv-x="572" 
d="M286 670q61 0 106 -20.5t69.5 -57t24.5 -86.5q0 -61 -35.5 -102t-97.5 -56v-1q74 -14 118 -61.5t44 -114.5q0 -53 -29.5 -94t-80.5 -64t-119 -23q-67 0 -118.5 23t-81 64t-29.5 94q0 67 45 114.5t118 61.5v1q-63 15 -98.5 56t-35.5 102q0 50 24.5 86.5t70 57t105.5 20.5z
M286 644q-77 0 -124.5 -37.5t-47.5 -102.5q0 -64 47.5 -104t124.5 -40q78 0 125 40t47 104q0 65 -46.5 102.5t-125.5 37.5zM286 15q60 0 105 20t70 55t25 82q0 48 -25 84t-70.5 56.5t-104.5 20.5t-104.5 -20.5t-70.5 -56.5t-25 -84q0 -47 25 -82t70.5 -55t104.5 -20z" />
    <glyph glyph-name="nine" unicode="9" horiz-adv-x="576" 
d="M276 670q80 0 133 -40.5t79.5 -116.5t26.5 -183q0 -113 -30.5 -188.5t-83.5 -113.5t-124 -38q-82 0 -139 39t-74 103l26 13q15 -57 61.5 -93.5t125.5 -36.5q61 0 102 27t65 73t34.5 104t10.5 119q0 30 -3 58.5t-7 54.5h-2q-3 -64 -33.5 -106t-76 -63t-95.5 -21
q-65 0 -113 25t-74 71t-26 107q0 63 27 109t75.5 71.5t114.5 25.5zM277 644q-87 0 -138 -49.5t-51 -132.5q0 -79 51 -127t135 -48q55 0 97 24.5t66 66.5t24 93q0 48 -24.5 87t-66 62.5t-93.5 23.5z" />
    <glyph glyph-name="colon" unicode=":" horiz-adv-x="212" 
d="M106 502q14 0 22 -8.5t8 -21.5t-8 -21.5t-22 -8.5q-13 0 -21.5 8.5t-8.5 21.5q0 14 8.5 22t21.5 8zM106 54q14 0 22 -8.5t8 -21.5t-8 -21.5t-22 -8.5q-13 0 -21.5 8.5t-8.5 21.5q0 14 8.5 22t21.5 8z" />
    <glyph glyph-name="semicolon" unicode=";" horiz-adv-x="212" 
d="M105 54q13 0 22.5 -7t14 -19.5t4.5 -28.5q0 -21 -7.5 -43t-22.5 -40t-38 -30l-18 14q22 9 37.5 27t23 39.5t2.5 38.5h-2q-3 -5 -7.5 -8t-11.5 -3q-8 0 -14 4t-10 10.5t-4 15.5q0 8 4 15t11 11t16 4zM106 502q14 0 22 -8.5t8 -21.5t-8 -21.5t-22 -8.5q-13 0 -21.5 8.5
t-8.5 21.5q0 14 8.5 22t21.5 8z" />
    <glyph glyph-name="less" unicode="&#x3c;" horiz-adv-x="604" 
d="M536 52l-449 231v33l449 231v-30l-425 -217l425 -217v-31z" />
    <glyph glyph-name="equal" unicode="=" horiz-adv-x="604" 
d="M521 426v-26h-438v26h438zM521 222v-25h-438v25h438z" />
    <glyph glyph-name="greater" unicode="&#x3e;" horiz-adv-x="604" 
d="M68 547l449 -231v-33l-449 -231v30l425 217l-425 217v31z" />
    <glyph glyph-name="question" unicode="?" horiz-adv-x="486" 
d="M243 670q62 0 106.5 -23.5t69 -65t24.5 -94.5q0 -56 -21.5 -94t-64.5 -63t-110 -43v-126h-28v142q74 21 117 43.5t61 55t18 83.5q0 46 -21 82t-59.5 57t-92.5 21q-84 0 -129.5 -41.5t-56.5 -115.5l-24 13q9 52 35.5 90.5t70.5 58.5t105 20zM233 54q13 0 21.5 -8t8.5 -22
q0 -13 -8.5 -21.5t-21.5 -8.5q-14 0 -22 8.5t-8 21.5q0 14 8 22t22 8z" />
    <glyph glyph-name="at" unicode="@" horiz-adv-x="909" 
d="M476 -175q-93 0 -169 27.5t-130 79t-83 125.5t-29 167q0 103 33 182t91 134t133 83.5t159 28.5q95 0 165.5 -31.5t116.5 -84.5t69.5 -120t23.5 -137q0 -58 -14 -109t-38.5 -89t-57 -59.5t-70.5 -21.5q-49 0 -70.5 33t-17.5 77q-22 -43 -64.5 -71.5t-102.5 -28.5
q-55 0 -94.5 26.5t-60.5 72t-21 102.5q0 55 16.5 102.5t46.5 83.5t70.5 56.5t88.5 20.5q50 0 86 -21t56.5 -59.5t20.5 -92.5l38 163h27l-78 -330q-3 -11 -4 -21t-1 -19q0 -41 22 -56.5t45 -15.5q41 0 75.5 34t56 92t21.5 129q0 68 -22 130.5t-65.5 113t-109 79.5t-153.5 29
q-79 0 -149.5 -26.5t-125 -78t-85.5 -127.5t-31 -173q0 -88 27.5 -158t78.5 -119t122 -74.5t157 -25.5q72 0 136 22t103 58l15 -20q-28 -24 -68 -42.5t-87 -29t-99 -10.5zM423 32q57 0 100 32t67.5 87t24.5 126q0 61 -20 99t-53.5 55.5t-74.5 17.5q-40 0 -75.5 -17.5
t-62.5 -49t-42.5 -75t-15.5 -96.5q0 -55 20 -95t54 -62t78 -22z" />
    <glyph glyph-name="A" unicode="A" horiz-adv-x="600" 
d="M585 0h-29l-92 224h-328l-92 -224h-29l269 660h32zM146 250h307l-153 381z" />
    <glyph glyph-name="B" unicode="B" horiz-adv-x="617" 
d="M101 0v660h232q103 0 155 -43.5t52 -126.5q0 -61 -32 -101.5t-96 -54.5v-1q68 -10 107 -51.5t39 -109.5q0 -83 -57 -127.5t-168 -44.5h-232zM129 25h208q95 0 143.5 38t48.5 110q0 73 -48.5 110t-143.5 37h-208v-295zM129 346h204q178 0 178 143q0 146 -178 146h-204
v-289z" />
    <glyph glyph-name="C" unicode="C" horiz-adv-x="656" 
d="M616 166q-17 -55 -54 -95t-89.5 -60.5t-118.5 -20.5q-89 0 -155.5 41.5t-103.5 117.5t-37 181t37 181t103.5 117.5t154.5 41.5q69 0 120 -19t85 -57t51 -94l-27 -13q-24 79 -80 118.5t-148 39.5q-80 0 -140 -38.5t-93.5 -109t-33.5 -167.5t33.5 -167.5t93.5 -109
t140 -38.5q89 0 150.5 42.5t83.5 118.5z" />
    <glyph glyph-name="D" unicode="D" horiz-adv-x="690" 
d="M306 660q159 0 242.5 -82t83.5 -240q0 -165 -83.5 -251.5t-242.5 -86.5h-205v660h205zM307 25q145 0 220.5 80.5t75.5 232.5q0 145 -75.5 221t-220.5 76h-178v-610h178z" />
    <glyph glyph-name="E" unicode="E" 
d="M101 0v660h442v-25h-414v-286h330v-25h-330v-299h430v-25h-458z" />
    <glyph glyph-name="F" unicode="F" horiz-adv-x="565" 
d="M542 635h-413v-286h330v-25h-330v-324h-28v660h441v-25z" />
    <glyph glyph-name="G" unicode="G" horiz-adv-x="685" 
d="M359 -10q-93 0 -160.5 41.5t-104 117.5t-36.5 181t37 181t104 117.5t156 41.5q103 0 166 -42.5t91 -127.5l-25 -13q-25 79 -82 118.5t-150 39.5q-80 0 -140.5 -38.5t-94 -109t-33.5 -167.5t33 -167.5t94 -109t145 -38.5q66 0 110 22t70.5 57t38.5 74t12 74v48h-235v25
h262v-315h-25l-1 158l4 -2q-22 -76 -83 -121t-153 -45z" />
    <glyph glyph-name="H" unicode="H" horiz-adv-x="703" 
d="M602 660v-660h-28v660h28zM129 660v-660h-28v660h28zM589 349v-25h-474v25h474z" />
    <glyph glyph-name="I" unicode="I" horiz-adv-x="229" 
d="M129 660v-660h-28v660h28z" />
    <glyph glyph-name="J" unicode="J" horiz-adv-x="511" 
d="M417 660v-448q0 -102 -51 -162t-149 -60q-67 0 -111 27t-62.5 74.5t-8.5 111.5l27 10q-13 -97 27.5 -147.5t127.5 -50.5q88 0 130 54t42 147v444h28z" />
    <glyph glyph-name="K" unicode="K" horiz-adv-x="576" 
d="M551 660l-268 -274l-4 -4l-165 -167v39l399 406h38zM129 660v-660h-28v660h28zM284 406l276 -406h-35l-262 386z" />
    <glyph glyph-name="L" unicode="L" horiz-adv-x="553" 
d="M129 25h409v-25h-437v660h28v-635z" />
    <glyph glyph-name="M" unicode="M" horiz-adv-x="799" 
d="M698 660v-660h-27v549l2 79v0l-259 -628h-29l-259 628h-1l3 -79v-549h-27v660h40l239 -572l19 -55h1l19 54l239 573h40z" />
    <glyph glyph-name="N" unicode="N" horiz-adv-x="702" 
d="M601 660v-660h-37l-403 574l-34 55h-1l2 -65v-564h-27v660h36l404 -574l34 -56v0l-1 66v564h27z" />
    <glyph glyph-name="O" unicode="O" horiz-adv-x="720" 
d="M360 670q93 0 161 -41.5t104.5 -117.5t36.5 -181t-36.5 -181t-104.5 -117.5t-161 -41.5q-92 0 -160 41.5t-105 117.5t-37 181t37 181t105 117.5t160 41.5zM360 645q-83 0 -144.5 -38.5t-95 -109t-33.5 -167.5t33.5 -167.5t95 -109t144.5 -38.5q85 0 145.5 38.5t94 109
t33.5 167.5t-33.5 167.5t-94 109t-145.5 38.5z" />
    <glyph glyph-name="P" unicode="P" horiz-adv-x="570" 
d="M310 660q70 0 120 -22.5t77.5 -64.5t27.5 -101t-27.5 -100.5t-77.5 -64t-120 -22.5h-181v-285h-28v660h209zM308 310q94 0 146 43t52 119q0 77 -52 120t-146 43h-179v-325h179z" />
    <glyph glyph-name="Q" unicode="Q" horiz-adv-x="720" 
d="M536 -195q-51 0 -92.5 22.5t-66.5 66t-25 106.5v5.5t1 5.5h24v-5.5v-5.5q0 -55 21 -93t57 -56.5t81 -18.5q31 0 59.5 8.5t47.5 28.5l11 -25q-20 -19 -50.5 -29t-67.5 -10zM360 670q93 0 161 -41.5t104.5 -117.5t36.5 -181t-36.5 -181t-104.5 -117.5t-161 -41.5
q-92 0 -160 41.5t-105 117.5t-37 181t37 181t105 117.5t160 41.5zM360 645q-83 0 -144.5 -38.5t-95 -109t-33.5 -167.5t33.5 -167.5t95 -109t144.5 -38.5q85 0 145.5 38.5t94 109t33.5 167.5t-33.5 167.5t-94 109t-145.5 38.5z" />
    <glyph glyph-name="R" unicode="R" horiz-adv-x="621" 
d="M342 660q98 0 154.5 -48.5t56.5 -133.5t-57 -133.5t-154 -48.5l-4 -1h-209v-295h-28v660h241zM342 321q87 0 135 41t48 116q0 74 -48 115.5t-135 41.5h-213v-314h213zM375 318l209 -318h-32l-200 301z" />
    <glyph glyph-name="S" unicode="S" horiz-adv-x="603" 
d="M300 670q92 0 154.5 -36.5t88.5 -114.5l-23 -17q-23 74 -79.5 108.5t-142.5 34.5q-63 0 -109 -21t-71 -55.5t-25 -77.5q0 -54 36 -87.5t126 -52.5l120 -25q98 -21 138.5 -58t40.5 -98q0 -54 -30.5 -94.5t-84.5 -63t-127 -22.5q-69 0 -125 19t-93.5 57t-51.5 94l26 18
q10 -55 44.5 -91t86 -54t114.5 -18q60 0 108 17.5t76.5 52t28.5 83.5t-36 81t-123 49l-122 27q-65 14 -104.5 36t-58 53.5t-18.5 74.5q0 48 28.5 89t81 66.5t126.5 25.5z" />
    <glyph glyph-name="T" unicode="T" horiz-adv-x="555" 
d="M540 660v-25h-248v-635h-28v635h-249v25h525z" />
    <glyph glyph-name="U" unicode="U" horiz-adv-x="672" 
d="M587 660v-423q0 -120 -66 -183.5t-185 -63.5q-118 0 -184.5 63.5t-66.5 183.5v423h28v-419q0 -109 58.5 -167.5t164.5 -58.5q107 0 165 58.5t58 167.5v419h28z" />
    <glyph glyph-name="V" unicode="V" horiz-adv-x="590" 
d="M570 660l-258 -660h-35l-258 660h30l216 -551l30 -81l30 81l216 551h29z" />
    <glyph glyph-name="W" unicode="W" horiz-adv-x="919" 
d="M239 0l-214 660h30l203 -633l185 633h34l185 -634l203 634h28l-213 -660h-36l-144 488l-40 139h-1l-39 -139l-145 -488h-36z" />
    <glyph glyph-name="X" unicode="X" horiz-adv-x="540" 
d="M520 0h-33l-217 316l-221 -316h-35l240 341l-219 319h34l202 -295l206 295h35l-224 -320z" />
    <glyph glyph-name="Y" unicode="Y" horiz-adv-x="523" 
d="M508 660l-232 -404v-256h-28v256l-233 404h33l129 -226l85 -148l84 148l129 226h33z" />
    <glyph glyph-name="Z" unicode="Z" horiz-adv-x="567" 
d="M59 15l-5 10h483v-25h-503v25l459 620l5 -10h-456v25h476v-25z" />
    <glyph glyph-name="bracketleft" unicode="[" horiz-adv-x="283" 
d="M268 706h-164v-849h164v-25h-190v898h190v-24z" />
    <glyph glyph-name="backslash" unicode="\" horiz-adv-x="366" 
d="M35 730h27l270 -800h-28z" />
    <glyph glyph-name="bracketright" unicode="]" horiz-adv-x="283" 
d="M15 -143h164v849h-164v24h190v-898h-190v25z" />
    <glyph glyph-name="asciicircum" unicode="^" horiz-adv-x="538" 
d="M35 355l219 375h30l219 -375h-31l-203 349l-203 -349h-31z" />
    <glyph glyph-name="underscore" unicode="_" horiz-adv-x="507" 
d="M507 -97v-25h-507v25h507z" />
    <glyph glyph-name="grave" unicode="`" horiz-adv-x="541" 
d="M245 734l83 -151h-25l-89 151h31z" />
    <glyph glyph-name="a" unicode="a" horiz-adv-x="526" 
d="M403 334q0 70 -39 111t-112 41q-61 0 -105.5 -27t-66.5 -87l-22 15q22 61 72.5 92t122.5 31q55 0 95 -20t61.5 -59t21.5 -94v-255q0 -66 55 -66q21 0 35 8l-2 -23q-15 -9 -39 -9q-18 0 -36 8t-29.5 28t-11.5 58v39l9 4q-8 -47 -39 -78t-74 -46t-87 -15q-49 0 -85 14.5
t-56 42.5t-20 68q0 56 37.5 88.5t106.5 45.5l213 42v-24l-197 -39q-66 -12 -98.5 -39.5t-32.5 -71.5q0 -49 35 -75.5t101 -26.5q30 0 62 8.5t61 27t46.5 48t17.5 70.5v165z" />
    <glyph glyph-name="b" unicode="b" 
d="M314 -10q-50 0 -91.5 18.5t-70.5 54t-41 85.5l3 4l-1 -152h-26v730h28v-379l-3 5q19 73 74 113.5t128 40.5q68 0 118.5 -31t79 -89t28.5 -140q0 -81 -28.5 -139.5t-79.5 -89.5t-118 -31zM310 15q92 0 147 62.5t55 172.5t-54.5 173t-147.5 63q-56 0 -100.5 -29t-69.5 -82
t-25 -125t25.5 -125t69.5 -81.5t100 -28.5z" />
    <glyph glyph-name="c" unicode="c" horiz-adv-x="531" 
d="M285 510q50 0 90 -16t67.5 -46.5t40.5 -73.5l-25 -13q-16 60 -61 92.5t-113 32.5q-59 0 -105 -28.5t-72.5 -81t-26.5 -126.5q0 -73 26 -126t71.5 -81t104.5 -28q45 0 83.5 16t64 45.5t32.5 69.5l26 -9q-10 -45 -39.5 -78t-72 -51t-94.5 -18q-67 0 -118.5 31t-81.5 89.5
t-30 139.5t30.5 139.5t83 89.5t119.5 31z" />
    <glyph glyph-name="d" unicode="d" 
d="M282 -10q-67 0 -119 31t-81 89.5t-29 139.5q0 82 29 140t81.5 89t119.5 31q74 0 127 -41t71 -115l-3 -3v379h28v-730h-26l-1 152l3 -1q-10 -51 -38.5 -87t-70 -55t-91.5 -19zM285 15q57 0 100.5 28.5t68 82t24.5 125.5q0 73 -24.5 125.5t-67.5 81t-100 28.5
q-93 0 -149 -63t-56 -173t56 -172.5t148 -62.5z" />
    <glyph glyph-name="e" unicode="e" horiz-adv-x="542" 
d="M287 -10q-67 0 -120 31t-84 89.5t-31 139.5q0 82 30.5 140t81.5 89t115 31q67 0 114.5 -30t73 -84.5t25.5 -129.5v-8.5t-1 -7.5h-422v25h410l-13 -6q-1 97 -49.5 157t-137.5 60q-57 0 -102 -28.5t-71 -81t-26 -126.5t26.5 -126.5t73 -80.5t106.5 -28t107 28t72 77l22 -12
q-17 -37 -47 -63t-69 -40.5t-84 -14.5z" />
    <glyph glyph-name="f" unicode="f" horiz-adv-x="334" 
d="M255 735q28 0 47 -8t31 -21l-10 -22q-12 14 -28 20t-39 6q-53 0 -82.5 -33.5t-29.5 -94.5v-82v-12v-488h-28v583q0 36 9 64t27 47.5t44 30t59 10.5zM326 500v-24h-310v24h310z" />
    <glyph glyph-name="g" unicode="g" horiz-adv-x="503" 
d="M495 592l8 -25h-2h-2q-49 0 -75 -29t-26 -78l-20 9q0 37 14.5 64.5t40 43t59.5 15.5h2h1zM333 42q76 0 119.5 -30.5t43.5 -81.5q0 -43 -29.5 -75.5t-81.5 -51t-120 -18.5q-109 0 -170 37.5t-61 96.5q0 44 33 75t90 37l-2 -4q-31 8 -56 29t-25 59q0 42 32 67t80 26l51 -11
h-28q-45 -1 -76.5 -20.5t-31.5 -57.5q0 -39 30.5 -58t73.5 -19h128zM267 -191q59 0 104.5 15t71.5 42t26 61q0 41 -37.5 66t-103.5 25h-133q-58 0 -96 -26.5t-38 -68.5q0 -51 55 -82.5t151 -31.5zM259 510q59 0 103.5 -20t69.5 -55.5t25 -83.5t-25 -84t-69.5 -55.5
t-103.5 -19.5q-91 0 -145 43.5t-54 115.5q0 48 24.5 83.5t70 55.5t104.5 20zM259 486q-76 0 -123.5 -37t-47.5 -98t47.5 -98.5t123.5 -37.5t122.5 37.5t46.5 98.5t-46.5 98t-122.5 37z" />
    <glyph glyph-name="h" unicode="h" horiz-adv-x="582" 
d="M87 0v730h28v-351q18 59 71.5 95.5t127.5 36.5q57 0 99 -21.5t65.5 -62t23.5 -99.5v-327h-28v320q0 81 -44.5 123t-119.5 42q-54 0 -98.5 -25t-70.5 -68.5t-26 -97.5v-295h-28z" />
    <glyph glyph-name="i" unicode="i" horiz-adv-x="201" 
d="M100 598q-13 0 -21 8t-8 21t8 21t22 8q13 0 21 -8t8 -21t-8 -21t-22 -8zM115 500v-500h-28v500h28z" />
    <glyph glyph-name="j" unicode="j" horiz-adv-x="201" 
d="M101 598q-14 0 -22 8t-8 21t8 21t22 8q13 0 21 -8t8 -21t-8 -21t-21 -8zM115 500v-562q0 -49 -18 -83t-48.5 -52t-69.5 -18q-23 0 -43.5 6.5t-33.5 17.5l8 26q12 -12 30.5 -18t38.5 -6q49 0 78.5 34.5t29.5 94.5v560h28z" />
    <glyph glyph-name="k" unicode="k" horiz-adv-x="498" 
d="M478 500l-223 -209l-7 -6l-147 -140v37l338 318h39zM115 730v-730h-28v730h28zM256 306l228 -306h-35l-216 289z" />
    <glyph glyph-name="l" unicode="l" horiz-adv-x="250" 
d="M111 730v-619q0 -52 17 -74t53 -22q22 0 34 3t26 9l-3 -25q-11 -5 -26 -8.5t-35 -3.5q-47 0 -70.5 29t-23.5 91v620h28z" />
    <glyph glyph-name="m" unicode="m" horiz-adv-x="965" 
d="M87 0v500h26l1 -123q18 59 72 96t127 37t121 -36t60 -103q11 41 40 72.5t71.5 50t92.5 18.5q56 0 97.5 -21.5t65.5 -62t24 -99.5v-327h-28v324q0 78 -44.5 119.5t-118.5 41.5q-55 0 -99 -25.5t-69.5 -68.5t-25.5 -95v-298h-28v324q0 78 -44.5 120t-118.5 42
q-53 0 -97.5 -25.5t-70.5 -68.5t-26 -97v-295h-28z" />
    <glyph glyph-name="n" unicode="n" horiz-adv-x="582" 
d="M87 0v500h26l1 -135l-3 5q12 41 40.5 73t70 49.5t92.5 17.5q57 0 99 -21.5t65.5 -61.5t23.5 -100v-327h-28v320q0 81 -44.5 123.5t-119.5 42.5q-54 0 -98.5 -25.5t-70.5 -68.5t-26 -98v-294h-28z" />
    <glyph glyph-name="o" unicode="o" horiz-adv-x="575" 
d="M287 510q70 0 123 -31t83 -89.5t30 -139.5t-30 -139.5t-83 -89.5t-123 -31q-68 0 -121 31t-83.5 89.5t-30.5 139.5t30.5 139.5t83.5 89.5t121 31zM288 486q-62 0 -108.5 -28.5t-73 -81t-26.5 -126.5q0 -73 26.5 -126t73 -81.5t108.5 -28.5q61 0 108 28.5t73 81.5t26 126
q0 74 -26 126.5t-73 81t-108 28.5z" />
    <glyph glyph-name="p" unicode="p" 
d="M87 -210v710h26l1 -152l-3 4q12 50 41 85.5t71 54t91 18.5q68 0 118.5 -31t79 -89t28.5 -140q0 -81 -28.5 -139.5t-79.5 -89.5t-118 -31q-74 0 -128.5 40.5t-73.5 113.5l3 5v-359h-28zM310 15q92 0 147 62.5t55 172.5t-54.5 173t-147.5 63q-56 0 -100 -29t-69.5 -81.5
t-25.5 -125.5q0 -72 25 -125t69.5 -81.5t100.5 -28.5z" />
    <glyph glyph-name="q" unicode="q" 
d="M478 -210v363l4 -3q-11 -51 -39.5 -86.5t-70 -54.5t-90.5 -19q-67 0 -119 31t-81 89.5t-29 139.5q0 82 29 140t81.5 89t119.5 31q50 0 91 -18.5t69.5 -54.5t38.5 -86l-3 -2l1 151h26v-710h-28zM285 15q57 0 100.5 28.5t68 82t24.5 125.5q0 73 -24.5 125.5t-68 81
t-99.5 28.5q-93 0 -149 -63t-56 -173t56 -172.5t148 -62.5z" />
    <glyph glyph-name="r" unicode="r" horiz-adv-x="355" 
d="M87 0v500h25l2 -121q18 57 60.5 94t102.5 37q24 0 41 -5.5t27 -15.5l-10 -24q-10 9 -23 14.5t-40 5.5q-44 0 -79.5 -27.5t-56.5 -72.5t-21 -98v-287h-28z" />
    <glyph glyph-name="s" unicode="s" horiz-adv-x="488" 
d="M246 -10q-77 0 -133.5 30.5t-74.5 90.5l25 15q15 -55 64.5 -83t122.5 -28q75 0 118.5 30t43.5 81q0 35 -22.5 59.5t-83.5 36.5l-115 25q-70 15 -100 47.5t-30 76.5q0 40 24 71t66.5 49.5t96.5 18.5q76 0 124 -30t64 -92l-24 -15q-14 59 -56.5 86t-107.5 27
q-47 0 -82.5 -14.5t-56 -39.5t-20.5 -57q0 -35 23.5 -61.5t81.5 -39.5l118 -26q71 -16 99.5 -45.5t28.5 -74.5q0 -42 -24 -73.5t-67.5 -48t-102.5 -16.5z" />
    <glyph glyph-name="t" unicode="t" horiz-adv-x="346" 
d="M143 636v-508q0 -55 24 -84t74 -29q27 0 49 9.5t39 27.5l12 -23q-16 -17 -43 -28t-59 -11q-39 0 -67.5 15t-42.5 45.5t-14 75.5v502zM334 500v-24h-319v24h319z" />
    <glyph glyph-name="u" unicode="u" horiz-adv-x="574" 
d="M258 -10q-54 0 -94 20t-61.5 60t-21.5 98v332h28v-326q0 -79 40.5 -119t114.5 -40q49 0 86 17t61 45t36 61t12 64v298h28v-500h-26l-1 122q-18 -58 -72 -95t-130 -37z" />
    <glyph glyph-name="v" unicode="v" horiz-adv-x="488" 
d="M438 500h30l-209 -500h-29l-210 500h32l193 -469z" />
    <glyph glyph-name="w" unicode="w" horiz-adv-x="790" 
d="M731 500h30l-167 -500h-28l-171 462l-171 -462h-28l-167 500h30l151 -464l170 464h29l170 -464z" />
    <glyph glyph-name="x" unicode="x" horiz-adv-x="483" 
d="M67 500l180 -224l4 -5l218 -271h-38l-197 245l-5 6l-200 249h38zM445 500l-191 -246l-6 -7l-192 -247h-35l210 269l3 3l176 228h35z" />
    <glyph glyph-name="y" unicode="y" horiz-adv-x="488" 
d="M467 500l-246 -598q-18 -44 -38 -69.5t-45 -36.5t-56 -11q-28 0 -50 8.5t-35 24.5l11 23q13 -17 32.5 -24t41.5 -7q36 0 63 20t51 78l38 91l-55 128l-158 373h32l174 -419l20 -50l21 53l169 416h30z" />
    <glyph glyph-name="z" unicode="z" horiz-adv-x="484" 
d="M42 0v23l318 401l45 52h-72h-297v24h401v-23l-303 -385l-58 -68h85h290v-24h-409z" />
    <glyph glyph-name="braceleft" unicode="{" horiz-adv-x="276" 
d="M251 -174q-40 0 -68.5 14t-43 39.5t-14.5 61.5v236q0 46 -29.5 71t-83.5 25v24q54 0 83.5 24.5t29.5 70.5v236q0 36 14.5 61.5t43 39t68.5 13.5v-23q-47 0 -73 -24t-26 -66v-238q0 -41 -22 -68.5t-62 -37.5q40 -10 62 -38t22 -69v-238q0 -43 26 -66.5t73 -23.5v-24z" />
    <glyph glyph-name="bar" unicode="|" horiz-adv-x="181" 
d="M103 730v-898h-25v898h25z" />
    <glyph glyph-name="braceright" unicode="}" horiz-adv-x="276" 
d="M25 742q41 0 69 -13.5t42.5 -39t14.5 -61.5v-236q0 -47 29.5 -71.5t84.5 -24.5v-24q-55 0 -84.5 -25t-29.5 -71v-235q0 -36 -14.5 -61.5t-42.5 -39.5t-69 -14v24q47 0 73 23.5t26 66.5v237q0 41 22 68.5t63 37.5q-41 12 -63 39t-22 68v239q0 42 -26 66t-73 24v23z" />
    <glyph glyph-name="asciitilde" unicode="~" horiz-adv-x="490" 
d="M447 393q-6 -52 -31.5 -78t-69.5 -26q-33 0 -58 11t-46.5 26t-44 26t-51.5 11q-33 0 -51 -20t-25 -59h-27q7 52 32 78t70 26q33 0 58 -11t46.5 -26t44 -26t50.5 -11q34 0 51.5 20t24.5 59h27z" />
    <glyph glyph-name="uni00A0" unicode="&#xa0;" horiz-adv-x="292" 
 />
    <glyph glyph-name="exclamdown" unicode="&#xa1;" horiz-adv-x="191" 
d="M81 -160v345l2 138h25l2 -138v-345h-29zM95 446q-13 0 -21.5 8.5t-8.5 21.5t8.5 21.5t22.5 8.5q13 0 21.5 -8.5t8.5 -21.5q0 -14 -8.5 -22t-22.5 -8z" />
    <glyph glyph-name="cent" unicode="&#xa2;" horiz-adv-x="543" 
d="M288 -10q-72 0 -123.5 31t-79 89.5t-27.5 139.5t28 139.5t80.5 89.5t124.5 31q50 0 90 -16t67.5 -46.5t40.5 -73.5l-26 -13q-16 60 -61 92.5t-112 32.5q-95 0 -150 -62.5t-55 -173.5q0 -73 24 -126.5t69.5 -81.5t109.5 -28q45 0 83 16t64 45.5t33 70.5l25 -9
q-9 -45 -38.5 -78t-72.5 -51t-94 -18zM270 -100v700h24v-700h-24z" />
    <glyph glyph-name="sterling" unicode="&#xa3;" horiz-adv-x="582" 
d="M91 298v24h360v-24h-360zM138 -5q-45 0 -70.5 19t-25.5 51q0 21 12 37.5t34.5 25.5t50.5 9q40 0 68 -11.5t51 -29.5t45.5 -36t50.5 -30t67 -12q48 0 74 27.5t27 81.5h24q0 -46 -16 -75t-44 -43t-63 -14q-41 0 -71.5 12t-55 29.5t-47.5 36t-49.5 30.5t-61.5 12
q-31 0 -50.5 -13.5t-19.5 -36.5t19.5 -36t52.5 -13q42 0 68 17.5t38 47.5t12 67q0 39 -14 78t-44 91q-20 37 -33 64t-18.5 52t-5.5 53q0 56 25 97.5t69 64t101 22.5q75 0 121.5 -39.5t56.5 -107.5l-25 -12q-7 61 -48 97.5t-105 36.5q-77 0 -122.5 -43t-45.5 -116
q0 -25 5 -47.5t17 -48.5t32 -63q28 -53 43 -95.5t15 -80.5q0 -33 -9 -61.5t-27 -49.5t-45 -33t-63 -12z" />
    <glyph glyph-name="currency" unicode="&#xa4;" horiz-adv-x="614" 
d="M307 520q55 0 96 -23t63.5 -65.5t22.5 -99.5t-22.5 -99.5t-63.5 -66.5t-96 -24t-96 24t-64 66.5t-23 99.5t23 99.5t64 65.5t96 23zM307 495q-70 0 -112.5 -44.5t-42.5 -118.5q0 -75 42.5 -120t112.5 -45q71 0 112.5 45t41.5 120q0 74 -41.5 118.5t-112.5 44.5zM83 573
l108 -109l-19 -18l-108 108zM173 216l19 -20l-109 -110l-19 20zM439 215l111 -110l-18 -19l-110 110zM532 573l18 -18l-108 -110l-19 20z" />
    <glyph glyph-name="yen" unicode="&#xa5;" horiz-adv-x="578" 
d="M276 0v128h-204v22h204v102h-204v23h157l38 -1l-225 386h33l193 -340l20 -39h2l20 39l193 340h33l-226 -386l39 1h157v-23h-204v-102h204v-22h-204v-128h-26z" />
    <glyph glyph-name="brokenbar" unicode="&#xa6;" horiz-adv-x="181" 
d="M103 730v-365h-25v365h25zM103 197v-365h-25v365h25z" />
    <glyph glyph-name="section" unicode="&#xa7;" horiz-adv-x="548" 
d="M359 139l-15 13q36 4 69 17.5t54 37t21 57.5q0 43 -28.5 66t-98.5 38l-104 22q-59 13 -93.5 30.5t-50 43t-15.5 63.5q0 40 22 72t64 51.5t101 19.5q67 0 114.5 -21.5t67.5 -66.5l-22 -16q-16 43 -58 61.5t-102 18.5q-76 0 -117.5 -33.5t-41.5 -83.5q0 -32 12 -53.5
t42 -35.5t81 -25l103 -21q53 -10 86.5 -26.5t49 -40.5t15.5 -60t-20 -63t-55.5 -43.5t-80.5 -21.5zM274 -110q-70 0 -117.5 22t-66.5 66l22 17q15 -42 57.5 -61.5t105.5 -19.5q78 0 119.5 33.5t41.5 84.5q0 48 -31.5 73.5t-96.5 37.5l-98 19q-61 13 -97.5 30t-51.5 42
t-15 60q0 36 20.5 62.5t55 42.5t76.5 21l12 -12q-33 -5 -65 -18.5t-52 -36t-20 -56.5q0 -43 31 -68t114 -41l97 -20q75 -15 111.5 -46t36.5 -88q0 -39 -22 -72t-63.5 -52.5t-103.5 -19.5z" />
    <glyph glyph-name="dieresis" unicode="&#xa8;" horiz-adv-x="541" 
d="M177 652q13 0 21 -8t8 -21q0 -12 -8 -20t-21 -8t-20.5 8t-7.5 21t8 20.5t20 7.5zM363 652q13 0 21 -8t8 -21q0 -12 -8 -20t-21 -8t-20.5 8t-7.5 21t8 20.5t20 7.5z" />
    <glyph glyph-name="copyright" unicode="&#xa9;" horiz-adv-x="791" 
d="M396 -10q-100 0 -175.5 44.5t-117 122t-41.5 173.5q0 97 41.5 174t117 121.5t174.5 44.5q101 0 176 -44.5t116.5 -121.5t41.5 -174t-41.5 -174t-116.5 -121.5t-175 -44.5zM395 14q93 0 162 41.5t107.5 113t38.5 161.5t-39 161.5t-108 113t-161 41.5q-91 0 -160.5 -41.5
t-108 -113t-38.5 -161.5t38.5 -161.5t108 -113t160.5 -41.5zM406 143q-85 0 -133.5 49t-48.5 136t48.5 136t133.5 49q58 0 96 -25t55 -74l-22 -11q-14 44 -46.5 65.5t-83.5 21.5q-72 0 -113.5 -43t-41.5 -119t41.5 -119t113.5 -43q51 0 87 25.5t47 69.5l23 -9
q-15 -50 -57 -79.5t-99 -29.5z" />
    <glyph glyph-name="ordfeminine" unicode="&#xaa;" horiz-adv-x="377" 
d="M149 326q-46 0 -74 23t-28 62q0 38 24.5 60.5t80.5 32.5l131 23v-20l-121 -22q-50 -8 -70 -26t-20 -48q0 -28 21 -45.5t58 -17.5q26 0 56 9.5t51 33t21 63.5v100q0 42 -25 66t-71 24q-43 0 -71.5 -17t-42.5 -54l-20 10q13 38 47.5 60t86.5 22q56 0 88.5 -27.5t32.5 -81.5
v-168q0 -22 9 -31.5t24 -9.5q16 0 25 5l-1 -19q-6 -3 -12.5 -5t-16.5 -2q-19 0 -35.5 13t-16.5 49v25l7 4q-8 -32 -30.5 -52t-51 -29.5t-56.5 -9.5zM47 219v21h301v-21h-301z" />
    <glyph glyph-name="guillemotleft" unicode="&#xab;" horiz-adv-x="400" 
d="M221 461l-142 -196l142 -196h-33l-141 196l141 196h33zM350 461l-142 -196l142 -196h-33l-141 196l141 196h33z" />
    <glyph glyph-name="logicalnot" unicode="&#xac;" horiz-adv-x="604" 
d="M530 317v-149h-28v149h28zM530 329v-26h-456v26h456z" />
    <glyph glyph-name="uni00AD" unicode="&#xad;" horiz-adv-x="434" 
d="M362 283v-29h-290v29h290z" />
    <glyph glyph-name="registered" unicode="&#xae;" horiz-adv-x="791" 
d="M395 -10q-99 0 -174.5 44.5t-117 121.5t-41.5 174t41.5 174t117 121.5t174.5 44.5q101 0 176 -44.5t116.5 -121.5t41.5 -174t-41.5 -174t-116.5 -121.5t-176 -44.5zM529 143l-109 169l22 9l116 -178h-29zM395 14q93 0 162 41.5t107.5 113t38.5 161.5t-39 161.5t-108 113
t-161 41.5q-91 0 -160.5 -41.5t-108 -113t-38.5 -161.5t38.5 -161.5t108 -113t160.5 -41.5zM274 143v370h154q41 0 68 -12t41 -35t14 -57q0 -50 -31.5 -77t-91.5 -27h-129v-162h-25zM299 325h129q49 0 74 21.5t25 62.5q0 42 -25 62.5t-74 20.5h-129v-167z" />
    <glyph glyph-name="macron" unicode="&#xaf;" horiz-adv-x="541" 
d="M418 627v-24h-296v24h296z" />
    <glyph glyph-name="degree" unicode="&#xb0;" horiz-adv-x="387" 
d="M193 389q-41 0 -73 17.5t-49.5 49.5t-17.5 73q0 42 17.5 74t49.5 49.5t73 17.5q43 0 74.5 -17.5t49 -49.5t17.5 -74q0 -41 -17.5 -73t-49 -49.5t-74.5 -17.5zM193 412q53 0 84 33t31 84q0 52 -31 84.5t-84 32.5q-51 0 -82.5 -32.5t-31.5 -84.5q0 -51 31.5 -84t82.5 -33z
" />
    <glyph glyph-name="plusminus" unicode="&#xb1;" horiz-adv-x="604" 
d="M316 625v-510h-27v510h27zM530 385v-25h-456v25h456zM530 25v-25h-456v25h456z" />
    <glyph glyph-name="uni00B2" unicode="&#xb2;" horiz-adv-x="352" 
d="M46 333v21q27 23 54.5 46t54.5 46q34 28 60 55t41.5 55.5t15.5 58.5q0 44 -27 71t-74 27q-49 0 -77.5 -29t-31.5 -80l-24 7q5 54 39.5 89t93.5 35q40 0 68.5 -15t44 -42t15.5 -63q0 -32 -17.5 -64.5t-46.5 -62.5t-63 -57q-22 -19 -45 -38t-47 -37v-1h17h17h199v-22h-267z
" />
    <glyph glyph-name="uni00B3" unicode="&#xb3;" horiz-adv-x="333" 
d="M157 735q58 0 89 -30t31 -76q0 -25 -9 -44t-26 -32t-39 -19v-2q25 -2 43.5 -15t29.5 -33t11 -46q0 -34 -17.5 -59t-46.5 -38.5t-66 -13.5q-54 0 -87 24.5t-46 67.5l23 12q9 -37 35.5 -59.5t75.5 -22.5q45 0 73.5 23.5t28.5 66.5q0 45 -28 64.5t-77 19.5h-7.5t-9.5 -1v21
q6 -1 10.5 -1h7.5q41 0 67.5 22.5t26.5 62.5t-24 63t-68 23q-40 0 -65.5 -19t-32.5 -52l-24 10q11 39 44 61t77 22z" />
    <glyph glyph-name="acute" unicode="&#xb4;" horiz-adv-x="600" 
d="M326 734h31l-89 -151h-25z" />
    <glyph glyph-name="uni00B5" unicode="&#xb5;" horiz-adv-x="580" 
d="M87 -210v710h28v-326q0 -78 43 -118.5t112 -40.5q56 0 100 25t69.5 68.5t25.5 97.5v294h28v-500h-25l-1 123q-19 -58 -72.5 -95.5t-127.5 -37.5q-52 0 -92.5 24t-59.5 70v0v-294h-28z" />
    <glyph glyph-name="paragraph" unicode="&#xb6;" horiz-adv-x="542" 
d="M270 -100v342q-72 0 -125.5 26.5t-83 73.5t-29.5 109q0 63 29.5 110t83 73t125.5 26h190v-760h-27v736h-137v-736h-26zM270 266v370q-64 0 -111.5 -23t-73.5 -64.5t-26 -97.5t26 -97.5t73.5 -64.5t111.5 -23z" />
    <glyph glyph-name="periodcentered" unicode="&#xb7;" horiz-adv-x="198" 
d="M99 389q14 0 22 -8.5t8 -21.5t-8 -21.5t-22 -8.5q-13 0 -21.5 8.5t-8.5 21.5q0 14 8.5 22t21.5 8z" />
    <glyph glyph-name="cedilla" unicode="&#xb8;" horiz-adv-x="581" 
d="M265 3l25 5q52 -24 73.5 -53t21.5 -66q0 -42 -26.5 -67.5t-67.5 -25.5q-30 0 -53 9.5t-41 29.5l10 21q18 -20 38 -29t44 -9q31 0 51 19.5t20 53.5q0 31 -20 56.5t-75 55.5z" />
    <glyph glyph-name="uni00B9" unicode="&#xb9;" horiz-adv-x="219" 
d="M132 730h22v-397h-26v299q0 16 0.5 33t1.5 33q-20 -25 -50.5 -43t-60.5 -29v22q18 6 40.5 18t42.5 29t30 35z" />
    <glyph glyph-name="ordmasculine" unicode="&#xba;" horiz-adv-x="363" 
d="M182 327q-72 0 -107.5 41.5t-35.5 127.5q0 87 35.5 128t107.5 41q71 0 106.5 -41t35.5 -128q0 -86 -35.5 -127.5t-106.5 -41.5zM47 219v21h270v-21h-270zM182 349q60 0 88 36t28 111t-28 111.5t-88 36.5q-61 0 -89 -36.5t-28 -111.5t28 -111t89 -36z" />
    <glyph glyph-name="guillemotright" unicode="&#xbb;" horiz-adv-x="400" 
d="M179 69l142 196l-142 196h34l140 -196l-140 -196h-34zM50 69l142 196l-142 196h34l140 -196l-140 -196h-34z" />
    <glyph glyph-name="onequarter" unicode="&#xbc;" horiz-adv-x="696" 
d="M132 665h22v-397h-26v299q0 16 0.5 33t1.5 33q-20 -25 -50.5 -43t-60.5 -29v22q18 6 40.5 18t42.5 29t30 35zM76 0l467 660h30l-467 -660h-30zM669 133v-21h-79v-116h-24v116h-198v18l190 263h32v-260h79zM395 133h171v188q0 12 0.5 24t0.5 24h-2q-7 -11 -15.5 -23
t-16.5 -24z" />
    <glyph glyph-name="onehalf" unicode="&#xbd;" horiz-adv-x="782" 
d="M132 665h22v-397h-26v299q0 16 0.5 33t1.5 33q-20 -25 -50.5 -43t-60.5 -29v22q18 6 40.5 18t42.5 29t30 35zM76 0l467 660h30l-467 -660h-30zM476 -4v21q27 23 54.5 46t54.5 46q34 28 60 55t41.5 55.5t15.5 58.5q0 44 -27 71t-74 27q-49 0 -77.5 -29t-31.5 -80l-24 7
q5 54 39.5 89t93.5 35q40 0 68.5 -15t44 -42t15.5 -63q0 -32 -17.5 -64.5t-46.5 -62.5t-63 -57q-22 -19 -45 -38t-47 -37v-1h17h17h199v-22h-267z" />
    <glyph glyph-name="threequarters" unicode="&#xbe;" horiz-adv-x="810" 
d="M157 670q58 0 89 -30t31 -76q0 -25 -9 -44t-26 -32t-39 -19v-2q25 -2 43.5 -15t29.5 -33t11 -46q0 -34 -17.5 -59t-46.5 -38.5t-66 -13.5q-54 0 -87 24.5t-46 67.5l23 12q9 -37 35.5 -59.5t75.5 -22.5q45 0 73.5 23.5t28.5 66.5q0 45 -28 64.5t-77 19.5h-7.5t-9.5 -1v21
q6 -1 10.5 -1h7.5q41 0 67.5 22.5t26.5 62.5t-24 63t-68 23q-40 0 -65.5 -19t-32.5 -52l-24 10q11 39 44 61t77 22zM190 0l467 660h30l-467 -660h-30zM782 133v-21h-79v-116h-24v116h-198v18l190 263h32v-260h79zM508 133h171v188q0 12 0.5 24t0.5 24h-2q-7 -11 -15.5 -23
t-16.5 -24z" />
    <glyph glyph-name="questiondown" unicode="&#xbf;" horiz-adv-x="482" 
d="M241 -174q-61 0 -106 23.5t-69.5 65t-24.5 94.5q0 56 21 94t64.5 63t110.5 43v126h28v-142q-74 -21 -116.5 -43.5t-61 -55t-18.5 -83.5q0 -45 21 -81.5t59.5 -57.5t92.5 -21q84 0 130 41.5t55 115.5l25 -13q-8 -52 -35 -90t-70.5 -58.5t-105.5 -20.5zM251 442
q-13 0 -21.5 8t-8.5 22q0 13 8.5 21.5t21.5 8.5q14 0 22 -8.5t8 -21.5q0 -14 -8 -22t-22 -8z" />
    <glyph glyph-name="Agrave" unicode="&#xc0;" horiz-adv-x="600" 
d="M585 0h-29l-92 224h-328l-92 -224h-29l269 660h32zM146 250h307l-153 381zM239 893l74 -150h-24l-80 150h30z" />
    <glyph glyph-name="Aacute" unicode="&#xc1;" horiz-adv-x="600" 
d="M585 0h-29l-92 224h-328l-92 -224h-29l269 660h32zM146 250h307l-153 381zM360 893h31l-80 -150h-24z" />
    <glyph glyph-name="Acircumflex" unicode="&#xc2;" horiz-adv-x="600" 
d="M585 0h-29l-92 224h-328l-92 -224h-29l269 660h32zM146 250h307l-153 381zM426 743h-28l-98 125l-98 -125h-28l110 145h32z" />
    <glyph glyph-name="Atilde" unicode="&#xc3;" horiz-adv-x="600" 
d="M585 0h-29l-92 224h-328l-92 -224h-29l269 660h32zM146 250h307l-153 381zM463 849q-5 -31 -16.5 -52t-29.5 -31t-42 -10q-27 0 -45.5 10.5t-34 24t-31 24t-35.5 10.5q-27 0 -43 -18t-24 -52h-24q8 47 32 70t60 23q25 0 43 -10.5t33.5 -23.5t31.5 -23.5t36 -10.5
q29 0 43.5 18t21.5 51h24z" />
    <glyph glyph-name="Adieresis" unicode="&#xc4;" horiz-adv-x="600" 
d="M585 0h-29l-92 224h-328l-92 -224h-29l269 660h32zM146 250h307l-153 381zM206 812q13 0 21 -8t8 -21q0 -12 -8 -20t-21 -8t-20.5 8t-7.5 21t8 20.5t20 7.5zM392 812q13 0 21 -8t8 -21q0 -12 -8 -20t-21 -8t-20.5 8t-7.5 21t8 20.5t20 7.5z" />
    <glyph glyph-name="Aring" unicode="&#xc5;" horiz-adv-x="600" 
d="M585 0h-29l-92 224h-328l-92 -224h-29l269 660h32zM146 250h307l-153 381zM298 813q39 0 64.5 -24.5t25.5 -62.5q0 -37 -25.5 -62t-64.5 -25t-64.5 25t-25.5 62q0 38 25.5 62.5t64.5 24.5zM298 793q-29 0 -48 -19t-19 -48q0 -28 19 -47t48 -19q28 0 47.5 19t19.5 47
q0 29 -19.5 48t-47.5 19z" />
    <glyph glyph-name="AE" unicode="&#xc6;" horiz-adv-x="898" 
d="M468 25h396v-25h-424v246h-258l-153 -246h-34l413 660h440v-25h-380v-287h302v-26h-302v-297zM197 272h243v363h-18z" />
    <glyph glyph-name="Ccedilla" unicode="&#xc7;" horiz-adv-x="656" 
d="M616 166q-17 -55 -54 -95t-89.5 -60.5t-118.5 -20.5q-89 0 -155.5 41.5t-103.5 117.5t-37 181t37 181t103.5 117.5t154.5 41.5q69 0 120 -19t85 -57t51 -94l-27 -13q-24 79 -80 118.5t-148 39.5q-80 0 -140 -38.5t-93.5 -109t-33.5 -167.5t33.5 -167.5t93.5 -109
t140 -38.5q89 0 150.5 42.5t83.5 118.5zM306 3l25 5q52 -24 73.5 -53t21.5 -66q0 -42 -26.5 -67.5t-67.5 -25.5q-30 0 -53 9.5t-41 29.5l10 21q18 -20 38 -29t44 -9q31 0 51 19.5t20 53.5q0 31 -20 56.5t-75 55.5z" />
    <glyph glyph-name="Egrave" unicode="&#xc8;" 
d="M101 0v660h442v-25h-414v-286h330v-25h-330v-299h430v-25h-458zM262 893l74 -150h-24l-80 150h30z" />
    <glyph glyph-name="Eacute" unicode="&#xc9;" 
d="M101 0v660h442v-25h-414v-286h330v-25h-330v-299h430v-25h-458zM381 893h31l-80 -150h-24z" />
    <glyph glyph-name="Ecircumflex" unicode="&#xca;" 
d="M101 0v660h442v-25h-414v-286h330v-25h-330v-299h430v-25h-458zM448 743h-28l-98 125l-98 -125h-28l110 145h32z" />
    <glyph glyph-name="Edieresis" unicode="&#xcb;" 
d="M101 0v660h442v-25h-414v-286h330v-25h-330v-299h430v-25h-458zM228 812q13 0 21 -8t8 -21q0 -12 -8 -20t-21 -8t-20.5 8t-7.5 21t8 20.5t20 7.5zM414 812q13 0 21 -8t8 -21q0 -12 -8 -20t-21 -8t-20.5 8t-7.5 21t8 20.5t20 7.5z" />
    <glyph glyph-name="Igrave" unicode="&#xcc;" horiz-adv-x="229" 
d="M129 660v-660h-28v660h28zM53 893l74 -150h-24l-80 150h30z" />
    <glyph glyph-name="Iacute" unicode="&#xcd;" horiz-adv-x="229" 
d="M129 660v-660h-28v660h28zM177 893h31l-80 -150h-24z" />
    <glyph glyph-name="Icircumflex" unicode="&#xce;" horiz-adv-x="229" 
d="M129 660v-660h-28v660h28zM241 743h-28l-98 125l-98 -125h-28l110 145h32z" />
    <glyph glyph-name="Idieresis" unicode="&#xcf;" horiz-adv-x="229" 
d="M51 812q13 0 20.5 -8t7.5 -21q0 -12 -7.5 -20t-21.5 -8q-12 0 -20 8t-8 21t8 20.5t21 7.5zM179 812q13 0 20.5 -8t7.5 -21q0 -12 -7.5 -20t-20.5 -8t-21 8t-8 21t8 20.5t21 7.5zM129 660v-660h-28v660h28z" />
    <glyph glyph-name="Eth" unicode="&#xd0;" horiz-adv-x="700" 
d="M9 321v26h334v-26h-334zM315 660q160 0 243 -82t83 -240q0 -165 -83 -251.5t-243 -86.5h-205v660h205zM317 25q144 0 220 80.5t76 232.5q0 145 -76 221t-220 76h-179v-610h179z" />
    <glyph glyph-name="Ntilde" unicode="&#xd1;" horiz-adv-x="702" 
d="M601 660v-660h-37l-403 574l-34 55h-1l2 -65v-564h-27v660h36l404 -574l34 -56v0l-1 66v564h27zM519 849q-5 -31 -16.5 -52t-29.5 -31t-42 -10q-27 0 -45.5 10.5t-34 24t-31 24t-35.5 10.5q-27 0 -43 -18t-24 -52h-24q8 47 32 70t60 23q25 0 43 -10.5t33.5 -23.5
t31.5 -23.5t36 -10.5q29 0 43.5 18t21.5 51h24z" />
    <glyph glyph-name="Ograve" unicode="&#xd2;" horiz-adv-x="720" 
d="M360 670q93 0 161 -41.5t104.5 -117.5t36.5 -181t-36.5 -181t-104.5 -117.5t-161 -41.5q-92 0 -160 41.5t-105 117.5t-37 181t37 181t105 117.5t160 41.5zM360 645q-83 0 -144.5 -38.5t-95 -109t-33.5 -167.5t33.5 -167.5t95 -109t144.5 -38.5q85 0 145.5 38.5t94 109
t33.5 167.5t-33.5 167.5t-94 109t-145.5 38.5zM298 893l74 -150h-24l-80 150h30z" />
    <glyph glyph-name="Oacute" unicode="&#xd3;" horiz-adv-x="720" 
d="M360 670q93 0 161 -41.5t104.5 -117.5t36.5 -181t-36.5 -181t-104.5 -117.5t-161 -41.5q-92 0 -160 41.5t-105 117.5t-37 181t37 181t105 117.5t160 41.5zM360 645q-83 0 -144.5 -38.5t-95 -109t-33.5 -167.5t33.5 -167.5t95 -109t144.5 -38.5q85 0 145.5 38.5t94 109
t33.5 167.5t-33.5 167.5t-94 109t-145.5 38.5zM420 893h31l-80 -150h-24z" />
    <glyph glyph-name="Ocircumflex" unicode="&#xd4;" horiz-adv-x="720" 
d="M360 670q93 0 161 -41.5t104.5 -117.5t36.5 -181t-36.5 -181t-104.5 -117.5t-161 -41.5q-92 0 -160 41.5t-105 117.5t-37 181t37 181t105 117.5t160 41.5zM360 645q-83 0 -144.5 -38.5t-95 -109t-33.5 -167.5t33.5 -167.5t95 -109t144.5 -38.5q85 0 145.5 38.5t94 109
t33.5 167.5t-33.5 167.5t-94 109t-145.5 38.5zM486 743h-28l-98 125l-98 -125h-28l110 145h32z" />
    <glyph glyph-name="Otilde" unicode="&#xd5;" horiz-adv-x="720" 
d="M360 670q93 0 161 -41.5t104.5 -117.5t36.5 -181t-36.5 -181t-104.5 -117.5t-161 -41.5q-92 0 -160 41.5t-105 117.5t-37 181t37 181t105 117.5t160 41.5zM360 645q-83 0 -144.5 -38.5t-95 -109t-33.5 -167.5t33.5 -167.5t95 -109t144.5 -38.5q85 0 145.5 38.5t94 109
t33.5 167.5t-33.5 167.5t-94 109t-145.5 38.5zM523 849q-5 -31 -16.5 -52t-29.5 -31t-42 -10q-27 0 -45.5 10.5t-34 24t-31 24t-35.5 10.5q-27 0 -43 -18t-24 -52h-24q8 47 32 70t60 23q25 0 43 -10.5t33.5 -23.5t31.5 -23.5t36 -10.5q29 0 43.5 18t21.5 51h24z" />
    <glyph glyph-name="Odieresis" unicode="&#xd6;" horiz-adv-x="720" 
d="M360 670q93 0 161 -41.5t104.5 -117.5t36.5 -181t-36.5 -181t-104.5 -117.5t-161 -41.5q-92 0 -160 41.5t-105 117.5t-37 181t37 181t105 117.5t160 41.5zM360 645q-83 0 -144.5 -38.5t-95 -109t-33.5 -167.5t33.5 -167.5t95 -109t144.5 -38.5q85 0 145.5 38.5t94 109
t33.5 167.5t-33.5 167.5t-94 109t-145.5 38.5zM266 812q13 0 21 -8t8 -21q0 -12 -8 -20t-21 -8t-20.5 8t-7.5 21t8 20.5t20 7.5zM452 812q13 0 21 -8t8 -21q0 -12 -8 -20t-21 -8t-20.5 8t-7.5 21t8 20.5t20 7.5z" />
    <glyph glyph-name="multiply" unicode="&#xd7;" horiz-adv-x="604" 
d="M467 127l21 21l-352 351l-20 -20zM136 127l352 352l-21 20l-351 -351z" />
    <glyph glyph-name="Oslash" unicode="&#xd8;" horiz-adv-x="720" 
d="M181 60l-17 16l374 519l19 -14zM86 -31l78 107l17 -16l-65 -91h-30zM557 581l-19 14l67 94h29zM360 670q93 0 161 -41.5t104.5 -117.5t36.5 -181t-36.5 -181t-104.5 -117.5t-161 -41.5q-92 0 -160 41.5t-105 117.5t-37 181t37 181t105 117.5t160 41.5zM360 645
q-83 0 -144.5 -38.5t-95 -109t-33.5 -167.5t33.5 -167.5t95 -109t144.5 -38.5q85 0 145.5 38.5t94 109t33.5 167.5t-33.5 167.5t-94 109t-145.5 38.5z" />
    <glyph glyph-name="Ugrave" unicode="&#xd9;" horiz-adv-x="672" 
d="M587 660v-423q0 -120 -66 -183.5t-185 -63.5q-118 0 -184.5 63.5t-66.5 183.5v423h28v-419q0 -109 58.5 -167.5t164.5 -58.5q107 0 165 58.5t58 167.5v419h28zM317 888l74 -150h-24l-80 150h30z" />
    <glyph glyph-name="Uacute" unicode="&#xda;" horiz-adv-x="672" 
d="M587 660v-423q0 -120 -66 -183.5t-185 -63.5q-118 0 -184.5 63.5t-66.5 183.5v423h28v-419q0 -109 58.5 -167.5t164.5 -58.5q107 0 165 58.5t58 167.5v419h28zM396 856h31l-80 -150h-24z" />
    <glyph glyph-name="Ucircumflex" unicode="&#xdb;" horiz-adv-x="672" 
d="M587 660v-423q0 -120 -66 -183.5t-185 -63.5q-118 0 -184.5 63.5t-66.5 183.5v423h28v-419q0 -109 58.5 -167.5t164.5 -58.5q107 0 165 58.5t58 167.5v419h28zM462 706h-28l-98 125l-98 -125h-28l110 145h32z" />
    <glyph glyph-name="Udieresis" unicode="&#xdc;" horiz-adv-x="672" 
d="M587 660v-423q0 -120 -66 -183.5t-185 -63.5q-118 0 -184.5 63.5t-66.5 183.5v423h28v-419q0 -109 58.5 -167.5t164.5 -58.5q107 0 165 58.5t58 167.5v419h28zM242 775q13 0 21 -8t8 -21q0 -12 -8 -20t-21 -8t-20.5 8t-7.5 21t8 20.5t20 7.5zM428 775q13 0 21 -8t8 -21
q0 -12 -8 -20t-21 -8t-20.5 8t-7.5 21t8 20.5t20 7.5z" />
    <glyph glyph-name="Yacute" unicode="&#xdd;" horiz-adv-x="523" 
d="M508 660l-232 -404v-256h-28v256l-233 404h33l129 -226l85 -148l84 148l129 226h33zM322 857h31l-80 -150h-24z" />
    <glyph glyph-name="Thorn" unicode="&#xde;" horiz-adv-x="578" 
d="M300 528q118 0 177 -47.5t59 -141.5q0 -92 -59 -140t-177 -48h-184v25h193q198 0 198 163q0 82 -49.5 123t-148.5 41h-193v25h184zM129 660v-660h-28v660h28z" />
    <glyph glyph-name="germandbls" unicode="&#xdf;" horiz-adv-x="567" 
d="M337 380q58 -3 98 -27.5t60.5 -66t20.5 -97.5q0 -58 -21.5 -103t-61.5 -70.5t-97 -25.5q-41 0 -72 10t-50 27l12 23q22 -18 48.5 -27t61.5 -9q71 0 112 48.5t41 126.5q0 91 -52.5 134t-137.5 43h-47v25h45q72 0 117 45t45 124q0 71 -43.5 110.5t-117.5 39.5
q-92 0 -138 -53.5t-46 -157.5v-499h-27v512q0 72 23 121.5t70.5 75.5t119.5 26q59 0 101 -21.5t64.5 -60.5t22.5 -92q0 -51 -20 -91t-54 -63.5t-77 -25.5v-1z" />
    <glyph glyph-name="agrave" unicode="&#xe0;" horiz-adv-x="526" 
d="M403 334q0 70 -39 111t-112 41q-61 0 -105.5 -27t-66.5 -87l-22 15q22 61 72.5 92t122.5 31q55 0 95 -20t61.5 -59t21.5 -94v-255q0 -66 55 -66q21 0 35 8l-2 -23q-15 -9 -39 -9q-18 0 -36 8t-29.5 28t-11.5 58v39l9 4q-8 -47 -39 -78t-74 -46t-87 -15q-49 0 -85 14.5
t-56 42.5t-20 68q0 56 37.5 88.5t106.5 45.5l213 42v-24l-197 -39q-66 -12 -98.5 -39.5t-32.5 -71.5q0 -49 35 -75.5t101 -26.5q30 0 62 8.5t61 27t46.5 48t17.5 70.5v165zM182 734l83 -151h-25l-89 151h31z" />
    <glyph glyph-name="aacute" unicode="&#xe1;" horiz-adv-x="526" 
d="M403 334q0 70 -39 111t-112 41q-61 0 -105.5 -27t-66.5 -87l-22 15q22 61 72.5 92t122.5 31q55 0 95 -20t61.5 -59t21.5 -94v-255q0 -66 55 -66q21 0 35 8l-2 -23q-15 -9 -39 -9q-18 0 -36 8t-29.5 28t-11.5 58v39l9 4q-8 -47 -39 -78t-74 -46t-87 -15q-49 0 -85 14.5
t-56 42.5t-20 68q0 56 37.5 88.5t106.5 45.5l213 42v-24l-197 -39q-66 -12 -98.5 -39.5t-32.5 -71.5q0 -49 35 -75.5t101 -26.5q30 0 62 8.5t61 27t46.5 48t17.5 70.5v165zM316 734h31l-89 -151h-25z" />
    <glyph glyph-name="acircumflex" unicode="&#xe2;" horiz-adv-x="526" 
d="M403 334q0 70 -39 111t-112 41q-61 0 -105.5 -27t-66.5 -87l-22 15q22 61 72.5 92t122.5 31q55 0 95 -20t61.5 -59t21.5 -94v-255q0 -66 55 -66q21 0 35 8l-2 -23q-15 -9 -39 -9q-18 0 -36 8t-29.5 28t-11.5 58v39l9 4q-8 -47 -39 -78t-74 -46t-87 -15q-49 0 -85 14.5
t-56 42.5t-20 68q0 56 37.5 88.5t106.5 45.5l213 42v-24l-197 -39q-66 -12 -98.5 -39.5t-32.5 -71.5q0 -49 35 -75.5t101 -26.5q30 0 62 8.5t61 27t46.5 48t17.5 70.5v165zM373 582h-28l-97 126l-97 -126h-28l109 146h32z" />
    <glyph glyph-name="atilde" unicode="&#xe3;" horiz-adv-x="526" 
d="M403 334q0 70 -39 111t-112 41q-61 0 -105.5 -27t-66.5 -87l-22 15q22 61 72.5 92t122.5 31q55 0 95 -20t61.5 -59t21.5 -94v-255q0 -66 55 -66q21 0 35 8l-2 -23q-15 -9 -39 -9q-18 0 -36 8t-29.5 28t-11.5 58v39l9 4q-8 -47 -39 -78t-74 -46t-87 -15q-49 0 -85 14.5
t-56 42.5t-20 68q0 56 37.5 88.5t106.5 45.5l213 42v-24l-197 -39q-66 -12 -98.5 -39.5t-32.5 -71.5q0 -49 35 -75.5t101 -26.5q30 0 62 8.5t61 27t46.5 48t17.5 70.5v165zM411 689q-5 -31 -16.5 -52t-29.5 -31t-42 -10q-27 0 -45.5 10.5t-34 24t-31 24t-35.5 10.5
q-27 0 -43 -18t-24 -52h-24q8 47 32 70t60 23q25 0 43 -10.5t33.5 -23.5t31.5 -23.5t36 -10.5q29 0 43.5 18t21.5 51h24z" />
    <glyph glyph-name="adieresis" unicode="&#xe4;" horiz-adv-x="526" 
d="M403 334q0 70 -39 111t-112 41q-61 0 -105.5 -27t-66.5 -87l-22 15q22 61 72.5 92t122.5 31q55 0 95 -20t61.5 -59t21.5 -94v-255q0 -66 55 -66q21 0 35 8l-2 -23q-15 -9 -39 -9q-18 0 -36 8t-29.5 28t-11.5 58v39l9 4q-8 -47 -39 -78t-74 -46t-87 -15q-49 0 -85 14.5
t-56 42.5t-20 68q0 56 37.5 88.5t106.5 45.5l213 42v-24l-197 -39q-66 -12 -98.5 -39.5t-32.5 -71.5q0 -49 35 -75.5t101 -26.5q30 0 62 8.5t61 27t46.5 48t17.5 70.5v165zM154 652q13 0 21 -8t8 -21q0 -12 -8 -20t-21 -8t-20.5 8t-7.5 21t8 20.5t20 7.5zM340 652
q13 0 21 -8t8 -21q0 -12 -8 -20t-21 -8t-20.5 8t-7.5 21t8 20.5t20 7.5z" />
    <glyph glyph-name="aring" unicode="&#xe5;" horiz-adv-x="526" 
d="M403 334q0 70 -39 111t-112 41q-61 0 -105.5 -27t-66.5 -87l-22 15q22 61 72.5 92t122.5 31q55 0 95 -20t61.5 -59t21.5 -94v-255q0 -66 55 -66q21 0 35 8l-2 -23q-15 -9 -39 -9q-18 0 -36 8t-29.5 28t-11.5 58v39l9 4q-8 -47 -39 -78t-74 -46t-87 -15q-49 0 -85 14.5
t-56 42.5t-20 68q0 56 37.5 88.5t106.5 45.5l213 42v-24l-197 -39q-66 -12 -98.5 -39.5t-32.5 -71.5q0 -49 35 -75.5t101 -26.5q30 0 62 8.5t61 27t46.5 48t17.5 70.5v165zM246 749q39 0 64.5 -24.5t25.5 -62.5q0 -37 -25.5 -62t-64.5 -25t-64.5 25t-25.5 62q0 38 25.5 62.5
t64.5 24.5zM246 729q-29 0 -48 -19t-19 -48q0 -28 19 -47t48 -19q28 0 47.5 19t19.5 47q0 29 -19.5 48t-47.5 19z" />
    <glyph glyph-name="ae" unicode="&#xe6;" horiz-adv-x="877" 
d="M213 -10q-49 0 -85.5 14.5t-56.5 42.5t-20 68q0 56 37.5 88.5t105.5 45.5l209 39v46q0 70 -39.5 111t-111.5 41q-60 0 -104.5 -27t-67.5 -87l-22 15q16 42 43 69t65.5 40.5t85.5 13.5q77 0 124.5 -41.5t50.5 -124.5l-7 3q12 50 42 86.5t72 56.5t90 20q63 0 108.5 -29
t69.5 -81.5t24 -120.5v-8.5v-7.5h-396v-17q1 -109 53 -170t148 -61q55 0 101.5 28t70.5 77l22 -12q-17 -37 -47 -63t-67.5 -40.5t-79.5 -14.5q-83 0 -140.5 45.5t-73.5 124.5l6 2q-2 -47 -22 -80t-51 -53.5t-67 -29.5t-70 -9zM216 15q32 0 65 9t60.5 28t44.5 50.5t17 74.5
v87l-192 -36q-66 -12 -98.5 -39.5t-32.5 -71.5q0 -49 35 -75.5t101 -26.5zM432 288h368q-1 57 -22.5 101.5t-60 70.5t-94.5 26q-77 0 -129 -52.5t-62 -145.5z" />
    <glyph glyph-name="ccedilla" unicode="&#xe7;" horiz-adv-x="531" 
d="M285 510q50 0 90 -16t67.5 -46.5t40.5 -73.5l-25 -13q-16 60 -61 92.5t-113 32.5q-59 0 -105 -28.5t-72.5 -81t-26.5 -126.5q0 -73 26 -126t71.5 -81t104.5 -28q45 0 83.5 16t64 45.5t32.5 69.5l26 -9q-10 -45 -39.5 -78t-72 -51t-94.5 -18q-67 0 -118.5 31t-81.5 89.5
t-30 139.5t30.5 139.5t83 89.5t119.5 31zM242 3l25 5q52 -24 73.5 -53t21.5 -66q0 -42 -26.5 -67.5t-67.5 -25.5q-30 0 -53 9.5t-41 29.5l10 21q18 -20 38 -29t44 -9q31 0 51 19.5t20 53.5q0 31 -20 56.5t-75 55.5z" />
    <glyph glyph-name="egrave" unicode="&#xe8;" horiz-adv-x="542" 
d="M287 -10q-67 0 -120 31t-84 89.5t-31 139.5q0 82 30.5 140t81.5 89t115 31q67 0 114.5 -30t73 -84.5t25.5 -129.5v-8.5t-1 -7.5h-422v25h410l-13 -6q-1 97 -49.5 157t-137.5 60q-57 0 -102 -28.5t-71 -81t-26 -126.5t26.5 -126.5t73 -80.5t106.5 -28t107 28t72 77l22 -12
q-17 -37 -47 -63t-69 -40.5t-84 -14.5zM209 734l83 -151h-25l-89 151h31z" />
    <glyph glyph-name="eacute" unicode="&#xe9;" horiz-adv-x="542" 
d="M287 -10q-67 0 -120 31t-84 89.5t-31 139.5q0 82 30.5 140t81.5 89t115 31q67 0 114.5 -30t73 -84.5t25.5 -129.5v-8.5t-1 -7.5h-422v25h410l-13 -6q-1 97 -49.5 157t-137.5 60q-57 0 -102 -28.5t-71 -81t-26 -126.5t26.5 -126.5t73 -80.5t106.5 -28t107 28t72 77l22 -12
q-17 -37 -47 -63t-69 -40.5t-84 -14.5zM343 734h31l-89 -151h-25z" />
    <glyph glyph-name="ecircumflex" unicode="&#xea;" horiz-adv-x="542" 
d="M287 -10q-67 0 -120 31t-84 89.5t-31 139.5q0 82 30.5 140t81.5 89t115 31q67 0 114.5 -30t73 -84.5t25.5 -129.5v-8.5t-1 -7.5h-422v25h410l-13 -6q-1 97 -49.5 157t-137.5 60q-57 0 -102 -28.5t-71 -81t-26 -126.5t26.5 -126.5t73 -80.5t106.5 -28t107 28t72 77l22 -12
q-17 -37 -47 -63t-69 -40.5t-84 -14.5zM400 582h-28l-97 126l-97 -126h-28l109 146h32z" />
    <glyph glyph-name="edieresis" unicode="&#xeb;" horiz-adv-x="542" 
d="M287 -10q-67 0 -120 31t-84 89.5t-31 139.5q0 82 30.5 140t81.5 89t115 31q67 0 114.5 -30t73 -84.5t25.5 -129.5v-8.5t-1 -7.5h-422v25h410l-13 -6q-1 97 -49.5 157t-137.5 60q-57 0 -102 -28.5t-71 -81t-26 -126.5t26.5 -126.5t73 -80.5t106.5 -28t107 28t72 77l22 -12
q-17 -37 -47 -63t-69 -40.5t-84 -14.5zM181 652q13 0 21 -8t8 -21q0 -12 -8 -20t-21 -8t-20.5 8t-7.5 21t8 20.5t20 7.5zM367 652q13 0 21 -8t8 -21q0 -12 -8 -20t-21 -8t-20.5 8t-7.5 21t8 20.5t20 7.5z" />
    <glyph glyph-name="igrave" unicode="&#xec;" horiz-adv-x="201" 
d="M115 500v-500h-28v500h28zM35 734l83 -151h-25l-89 151h31z" />
    <glyph glyph-name="iacute" unicode="&#xed;" horiz-adv-x="201" 
d="M115 500v-500h-28v500h28zM169 734h31l-89 -151h-25z" />
    <glyph glyph-name="icircumflex" unicode="&#xee;" horiz-adv-x="201" 
d="M115 500v-500h-28v500h28zM226 582h-28l-97 126l-97 -126h-28l109 146h32z" />
    <glyph glyph-name="idieresis" unicode="&#xef;" horiz-adv-x="201" 
d="M156 595q-13 0 -21 8t-8 21t8 20.5t21 7.5t21 -8t8 -21q0 -12 -8 -20t-21 -8zM45 595q-13 0 -21 8t-8 21t8 20.5t21 7.5t21 -8t8 -21q0 -12 -8 -20t-21 -8zM115 500v-500h-28v500h28z" />
    <glyph glyph-name="eth" unicode="&#xf0;" horiz-adv-x="585" 
d="M289 -10q-73 0 -126 30.5t-81.5 86.5t-28.5 130q0 76 29 131.5t81 86t119 30.5q89 0 145 -43.5t70 -118.5l-6 -9q-2 84 -22.5 151t-55.5 118.5t-81 88t-99 58.5h46q50 -24 93.5 -61t76 -90.5t51 -126.5t18.5 -168q0 -97 -27.5 -162.5t-78.5 -98.5t-123 -33zM290 15
q67 0 111.5 32t66.5 87t22 121q0 64 -27 110t-73.5 71t-105.5 25q-61 0 -106.5 -28t-70.5 -78t-25 -118q0 -102 55.5 -162t152.5 -60zM224 566l-6 22l185 39l14 -18zM417 609l-14 18l125 29l6 -22z" />
    <glyph glyph-name="ntilde" unicode="&#xf1;" horiz-adv-x="582" 
d="M87 0v500h26l1 -135l-3 5q12 41 40.5 73t70 49.5t92.5 17.5q57 0 99 -21.5t65.5 -61.5t23.5 -100v-327h-28v320q0 81 -44.5 123.5t-119.5 42.5q-54 0 -98.5 -25.5t-70.5 -68.5t-26 -98v-294h-28zM461 689q-5 -31 -16.5 -52t-29.5 -31t-42 -10q-27 0 -45.5 10.5t-34 24
t-31 24t-35.5 10.5q-27 0 -43 -18t-24 -52h-24q8 47 32 70t60 23q25 0 43 -10.5t33.5 -23.5t31.5 -23.5t36 -10.5q29 0 43.5 18t21.5 51h24z" />
    <glyph glyph-name="ograve" unicode="&#xf2;" horiz-adv-x="575" 
d="M287 510q70 0 123 -31t83 -89.5t30 -139.5t-30 -139.5t-83 -89.5t-123 -31q-68 0 -121 31t-83.5 89.5t-30.5 139.5t30.5 139.5t83.5 89.5t121 31zM288 486q-62 0 -108.5 -28.5t-73 -81t-26.5 -126.5q0 -73 26.5 -126t73 -81.5t108.5 -28.5q61 0 108 28.5t73 81.5t26 126
q0 74 -26 126.5t-73 81t-108 28.5zM222 731l83 -151h-25l-89 151h31z" />
    <glyph glyph-name="oacute" unicode="&#xf3;" horiz-adv-x="575" 
d="M287 510q70 0 123 -31t83 -89.5t30 -139.5t-30 -139.5t-83 -89.5t-123 -31q-68 0 -121 31t-83.5 89.5t-30.5 139.5t30.5 139.5t83.5 89.5t121 31zM288 486q-62 0 -108.5 -28.5t-73 -81t-26.5 -126.5q0 -73 26.5 -126t73 -81.5t108.5 -28.5q61 0 108 28.5t73 81.5t26 126
q0 74 -26 126.5t-73 81t-108 28.5zM356 731h31l-89 -151h-25z" />
    <glyph glyph-name="ocircumflex" unicode="&#xf4;" horiz-adv-x="575" 
d="M287 510q70 0 123 -31t83 -89.5t30 -139.5t-30 -139.5t-83 -89.5t-123 -31q-68 0 -121 31t-83.5 89.5t-30.5 139.5t30.5 139.5t83.5 89.5t121 31zM288 486q-62 0 -108.5 -28.5t-73 -81t-26.5 -126.5q0 -73 26.5 -126t73 -81.5t108.5 -28.5q61 0 108 28.5t73 81.5t26 126
q0 74 -26 126.5t-73 81t-108 28.5zM413 579h-28l-97 126l-97 -126h-28l109 146h32z" />
    <glyph glyph-name="otilde" unicode="&#xf5;" horiz-adv-x="575" 
d="M287 510q70 0 123 -31t83 -89.5t30 -139.5t-30 -139.5t-83 -89.5t-123 -31q-68 0 -121 31t-83.5 89.5t-30.5 139.5t30.5 139.5t83.5 89.5t121 31zM288 486q-62 0 -108.5 -28.5t-73 -81t-26.5 -126.5q0 -73 26.5 -126t73 -81.5t108.5 -28.5q61 0 108 28.5t73 81.5t26 126
q0 74 -26 126.5t-73 81t-108 28.5zM451 686q-5 -31 -16.5 -52t-29.5 -31t-42 -10q-27 0 -45.5 10.5t-34 24t-31 24t-35.5 10.5q-27 0 -43 -18t-24 -52h-24q8 47 32 70t60 23q25 0 43 -10.5t33.5 -23.5t31.5 -23.5t36 -10.5q29 0 43.5 18t21.5 51h24z" />
    <glyph glyph-name="odieresis" unicode="&#xf6;" horiz-adv-x="575" 
d="M287 510q70 0 123 -31t83 -89.5t30 -139.5t-30 -139.5t-83 -89.5t-123 -31q-68 0 -121 31t-83.5 89.5t-30.5 139.5t30.5 139.5t83.5 89.5t121 31zM288 486q-62 0 -108.5 -28.5t-73 -81t-26.5 -126.5q0 -73 26.5 -126t73 -81.5t108.5 -28.5q61 0 108 28.5t73 81.5t26 126
q0 74 -26 126.5t-73 81t-108 28.5zM194 649q13 0 21 -8t8 -21q0 -12 -8 -20t-21 -8t-20.5 8t-7.5 21t8 20.5t20 7.5zM380 649q13 0 21 -8t8 -21q0 -12 -8 -20t-21 -8t-20.5 8t-7.5 21t8 20.5t20 7.5z" />
    <glyph glyph-name="divide" unicode="&#xf7;" horiz-adv-x="604" 
d="M530 329v-26h-456v26h456zM302 160q14 0 22 -8.5t8 -21.5q0 -14 -8.5 -22t-21.5 -8q-14 0 -22 8t-8 22q0 13 8.5 21.5t21.5 8.5zM302 534q14 0 22 -8.5t8 -21.5q0 -14 -8.5 -22t-21.5 -8q-14 0 -22 8t-8 22q0 13 8.5 21.5t21.5 8.5z" />
    <glyph glyph-name="oslash" unicode="&#xf8;" horiz-adv-x="575" 
d="M287 510q70 0 123 -31t83 -89.5t30 -139.5t-30 -139.5t-83 -89.5t-123 -31q-68 0 -121 31t-83.5 89.5t-30.5 139.5t30.5 139.5t83.5 89.5t121 31zM288 486q-62 0 -108.5 -28.5t-73 -81t-26.5 -126.5q0 -73 26.5 -126t73 -81.5t108.5 -28.5q61 0 108 28.5t73 81.5t26 126
q0 74 -26 126.5t-73 81t-108 28.5zM52 -30l442 560h28l-442 -560h-28z" />
    <glyph glyph-name="ugrave" unicode="&#xf9;" horiz-adv-x="574" 
d="M258 -10q-54 0 -94 20t-61.5 60t-21.5 98v332h28v-326q0 -79 40.5 -119t114.5 -40q49 0 86 17t61 45t36 61t12 64v298h28v-500h-26l-1 122q-18 -58 -72 -95t-130 -37zM219 716l83 -151h-25l-89 151h31z" />
    <glyph glyph-name="uacute" unicode="&#xfa;" horiz-adv-x="574" 
d="M258 -10q-54 0 -94 20t-61.5 60t-21.5 98v332h28v-326q0 -79 40.5 -119t114.5 -40q49 0 86 17t61 45t36 61t12 64v298h28v-500h-26l-1 122q-18 -58 -72 -95t-130 -37zM353 716h31l-89 -151h-25z" />
    <glyph glyph-name="ucircumflex" unicode="&#xfb;" horiz-adv-x="574" 
d="M258 -10q-54 0 -94 20t-61.5 60t-21.5 98v332h28v-326q0 -79 40.5 -119t114.5 -40q49 0 86 17t61 45t36 61t12 64v298h28v-500h-26l-1 122q-18 -58 -72 -95t-130 -37zM410 564h-28l-97 126l-97 -126h-28l109 146h32z" />
    <glyph glyph-name="udieresis" unicode="&#xfc;" horiz-adv-x="574" 
d="M258 -10q-54 0 -94 20t-61.5 60t-21.5 98v332h28v-326q0 -79 40.5 -119t114.5 -40q49 0 86 17t61 45t36 61t12 64v298h28v-500h-26l-1 122q-18 -58 -72 -95t-130 -37zM191 634q13 0 21 -8t8 -21q0 -12 -8 -20t-21 -8t-20.5 8t-7.5 21t8 20.5t20 7.5zM377 634q13 0 21 -8
t8 -21q0 -12 -8 -20t-21 -8t-20.5 8t-7.5 21t8 20.5t20 7.5z" />
    <glyph glyph-name="yacute" unicode="&#xfd;" horiz-adv-x="488" 
d="M467 500l-246 -598q-18 -44 -38 -69.5t-45 -36.5t-56 -11q-28 0 -50 8.5t-35 24.5l11 23q13 -17 32.5 -24t41.5 -7q36 0 63 20t51 78l38 91l-55 128l-158 373h32l174 -419l20 -50l21 53l169 416h30zM315 716h31l-89 -151h-25z" />
    <glyph glyph-name="thorn" unicode="&#xfe;" 
d="M87 -210v940h28v-382l-3 6q17 74 72.5 115t129.5 41q68 0 118.5 -31t79 -89t28.5 -140q0 -81 -28.5 -139.5t-79.5 -89.5t-118 -31q-74 0 -128.5 40.5t-73.5 113.5l3 5v-359h-28zM310 15q92 0 147 62.5t55 172.5t-54.5 173t-147.5 63q-56 0 -100 -29t-69.5 -81.5
t-25.5 -125.5q0 -72 25 -125t69.5 -81.5t100.5 -28.5z" />
    <glyph glyph-name="ydieresis" unicode="&#xff;" horiz-adv-x="488" 
d="M467 500l-246 -598q-18 -44 -38 -69.5t-45 -36.5t-56 -11q-28 0 -50 8.5t-35 24.5l11 23q13 -17 32.5 -24t41.5 -7q36 0 63 20t51 78l38 91l-55 128l-158 373h32l174 -419l20 -50l21 53l169 416h30zM153 634q13 0 21 -8t8 -21q0 -12 -8 -20t-21 -8t-20.5 8t-7.5 21
t8 20.5t20 7.5zM339 634q13 0 21 -8t8 -21q0 -12 -8 -20t-21 -8t-20.5 8t-7.5 21t8 20.5t20 7.5z" />
    <glyph glyph-name="Amacron" unicode="&#x100;" horiz-adv-x="600" 
d="M585 0h-29l-92 224h-328l-92 -224h-29l269 660h32zM146 250h307l-153 381zM448 787v-24h-296v24h296z" />
    <glyph glyph-name="amacron" unicode="&#x101;" horiz-adv-x="526" 
d="M403 334q0 70 -39 111t-112 41q-61 0 -105.5 -27t-66.5 -87l-22 15q22 61 72.5 92t122.5 31q55 0 95 -20t61.5 -59t21.5 -94v-255q0 -66 55 -66q21 0 35 8l-2 -23q-15 -9 -39 -9q-18 0 -36 8t-29.5 28t-11.5 58v39l9 4q-8 -47 -39 -78t-74 -46t-87 -15q-49 0 -85 14.5
t-56 42.5t-20 68q0 56 37.5 88.5t106.5 45.5l213 42v-24l-197 -39q-66 -12 -98.5 -39.5t-32.5 -71.5q0 -49 35 -75.5t101 -26.5q30 0 62 8.5t61 27t46.5 48t17.5 70.5v165zM396 627v-24h-296v24h296z" />
    <glyph glyph-name="Abreve" unicode="&#x102;" horiz-adv-x="600" 
d="M585 0h-29l-92 224h-328l-92 -224h-29l269 660h32zM146 250h307l-153 381zM426 866q0 -58 -33.5 -92t-92.5 -34t-92.5 34t-33.5 92h24q0 -46 26.5 -74.5t75.5 -28.5t75.5 28.5t27.5 74.5h23z" />
    <glyph glyph-name="abreve" unicode="&#x103;" horiz-adv-x="526" 
d="M403 334q0 70 -39 111t-112 41q-61 0 -105.5 -27t-66.5 -87l-22 15q22 61 72.5 92t122.5 31q55 0 95 -20t61.5 -59t21.5 -94v-255q0 -66 55 -66q21 0 35 8l-2 -23q-15 -9 -39 -9q-18 0 -36 8t-29.5 28t-11.5 58v39l9 4q-8 -47 -39 -78t-74 -46t-87 -15q-49 0 -85 14.5
t-56 42.5t-20 68q0 56 37.5 88.5t106.5 45.5l213 42v-24l-197 -39q-66 -12 -98.5 -39.5t-32.5 -71.5q0 -49 35 -75.5t101 -26.5q30 0 62 8.5t61 27t46.5 48t17.5 70.5v165zM374 706q0 -58 -33.5 -92t-92.5 -34t-92.5 34t-33.5 92h24q0 -46 26.5 -74.5t75.5 -28.5t75.5 28.5
t27.5 74.5h23z" />
    <glyph glyph-name="Aogonek" unicode="&#x104;" horiz-adv-x="600" 
d="M524 -204q-26 0 -47 9t-34 27.5t-13 45.5q0 42 30 74t104 60l21 -12q-49 -18 -77.5 -37t-40.5 -39.5t-12 -44.5q0 -30 20.5 -45.5t50.5 -15.5q24 0 39 5t25 13l8 -20q-12 -8 -30 -14t-44 -6zM585 0h-29l-92 224h-328l-92 -224h-29l269 660h32zM146 250h307l-153 381z" />
    <glyph glyph-name="aogonek" unicode="&#x105;" horiz-adv-x="526" 
d="M449 -213q-27 0 -48 9t-33.5 27.5t-12.5 45.5q0 42 31 74t106 62l27 -4q-53 -23 -83.5 -44t-43.5 -41.5t-13 -44.5q0 -31 21 -46.5t51 -15.5q25 0 41 5t27 13l7 -20q-12 -8 -30 -14t-47 -6zM403 334q0 70 -39 111t-112 41q-61 0 -105.5 -27t-66.5 -87l-22 15
q22 61 72.5 92t122.5 31q55 0 95 -20t61.5 -59t21.5 -94v-255q0 -66 55 -66q21 0 35 8l-2 -23q-15 -9 -39 -9q-18 0 -36 8t-29.5 28t-11.5 58v39l9 4q-8 -47 -39 -78t-74 -46t-87 -15q-49 0 -85 14.5t-56 42.5t-20 68q0 56 37.5 88.5t106.5 45.5l213 42v-24l-197 -39
q-66 -12 -98.5 -39.5t-32.5 -71.5q0 -49 35 -75.5t101 -26.5q30 0 62 8.5t61 27t46.5 48t17.5 70.5v165z" />
    <glyph glyph-name="Cacute" unicode="&#x106;" horiz-adv-x="656" 
d="M616 166q-17 -55 -54 -95t-89.5 -60.5t-118.5 -20.5q-89 0 -155.5 41.5t-103.5 117.5t-37 181t37 181t103.5 117.5t154.5 41.5q69 0 120 -19t85 -57t51 -94l-27 -13q-24 79 -80 118.5t-148 39.5q-80 0 -140 -38.5t-93.5 -109t-33.5 -167.5t33.5 -167.5t93.5 -109
t140 -38.5q89 0 150.5 42.5t83.5 118.5zM405 893h31l-80 -150h-24z" />
    <glyph glyph-name="cacute" unicode="&#x107;" horiz-adv-x="531" 
d="M285 510q50 0 90 -16t67.5 -46.5t40.5 -73.5l-25 -13q-16 60 -61 92.5t-113 32.5q-59 0 -105 -28.5t-72.5 -81t-26.5 -126.5q0 -73 26 -126t71.5 -81t104.5 -28q45 0 83.5 16t64 45.5t32.5 69.5l26 -9q-10 -45 -39.5 -78t-72 -51t-94.5 -18q-67 0 -118.5 31t-81.5 89.5
t-30 139.5t30.5 139.5t83 89.5t119.5 31zM346 734h31l-89 -151h-25z" />
    <glyph glyph-name="Ccircumflex" unicode="&#x108;" horiz-adv-x="656" 
d="M616 166q-17 -55 -54 -95t-89.5 -60.5t-118.5 -20.5q-89 0 -155.5 41.5t-103.5 117.5t-37 181t37 181t103.5 117.5t154.5 41.5q69 0 120 -19t85 -57t51 -94l-27 -13q-24 79 -80 118.5t-148 39.5q-80 0 -140 -38.5t-93.5 -109t-33.5 -167.5t33.5 -167.5t93.5 -109
t140 -38.5q89 0 150.5 42.5t83.5 118.5zM471 743h-28l-98 125l-98 -125h-28l110 145h32z" />
    <glyph glyph-name="ccircumflex" unicode="&#x109;" horiz-adv-x="531" 
d="M285 510q50 0 90 -16t67.5 -46.5t40.5 -73.5l-25 -13q-16 60 -61 92.5t-113 32.5q-59 0 -105 -28.5t-72.5 -81t-26.5 -126.5q0 -73 26 -126t71.5 -81t104.5 -28q45 0 83.5 16t64 45.5t32.5 69.5l26 -9q-10 -45 -39.5 -78t-72 -51t-94.5 -18q-67 0 -118.5 31t-81.5 89.5
t-30 139.5t30.5 139.5t83 89.5t119.5 31zM403 582h-28l-97 126l-97 -126h-28l109 146h32z" />
    <glyph glyph-name="Cdotaccent" unicode="&#x10a;" horiz-adv-x="656" 
d="M616 166q-17 -55 -54 -95t-89.5 -60.5t-118.5 -20.5q-89 0 -155.5 41.5t-103.5 117.5t-37 181t37 181t103.5 117.5t154.5 41.5q69 0 120 -19t85 -57t51 -94l-27 -13q-24 79 -80 118.5t-148 39.5q-80 0 -140 -38.5t-93.5 -109t-33.5 -167.5t33.5 -167.5t93.5 -109
t140 -38.5q89 0 150.5 42.5t83.5 118.5zM345 816q13 0 21 -8t8 -21t-8 -21t-21 -8t-21 8t-8 21t8 21t21 8z" />
    <glyph glyph-name="cdotaccent" unicode="&#x10b;" horiz-adv-x="531" 
d="M285 510q50 0 90 -16t67.5 -46.5t40.5 -73.5l-25 -13q-16 60 -61 92.5t-113 32.5q-59 0 -105 -28.5t-72.5 -81t-26.5 -126.5q0 -73 26 -126t71.5 -81t104.5 -28q45 0 83.5 16t64 45.5t32.5 69.5l26 -9q-10 -45 -39.5 -78t-72 -51t-94.5 -18q-67 0 -118.5 31t-81.5 89.5
t-30 139.5t30.5 139.5t83 89.5t119.5 31zM278 656q13 0 21 -8t8 -21t-8 -21t-21 -8t-21 8t-8 21t8 21t21 8z" />
    <glyph glyph-name="Ccaron" unicode="&#x10c;" horiz-adv-x="656" 
d="M616 166q-17 -55 -54 -95t-89.5 -60.5t-118.5 -20.5q-89 0 -155.5 41.5t-103.5 117.5t-37 181t37 181t103.5 117.5t154.5 41.5q69 0 120 -19t85 -57t51 -94l-27 -13q-24 79 -80 118.5t-148 39.5q-80 0 -140 -38.5t-93.5 -109t-33.5 -167.5t33.5 -167.5t93.5 -109
t140 -38.5q89 0 150.5 42.5t83.5 118.5zM471 888l-110 -145h-32l-110 145h28l98 -125l98 125h28z" />
    <glyph glyph-name="ccaron" unicode="&#x10d;" horiz-adv-x="531" 
d="M285 510q50 0 90 -16t67.5 -46.5t40.5 -73.5l-25 -13q-16 60 -61 92.5t-113 32.5q-59 0 -105 -28.5t-72.5 -81t-26.5 -126.5q0 -73 26 -126t71.5 -81t104.5 -28q45 0 83.5 16t64 45.5t32.5 69.5l26 -9q-10 -45 -39.5 -78t-72 -51t-94.5 -18q-67 0 -118.5 31t-81.5 89.5
t-30 139.5t30.5 139.5t83 89.5t119.5 31zM403 730l-109 -147h-32l-109 147h28l97 -127l97 127h28z" />
    <glyph glyph-name="Dcaron" unicode="&#x10e;" horiz-adv-x="690" 
d="M306 660q159 0 242.5 -82t83.5 -240q0 -165 -83.5 -251.5t-242.5 -86.5h-205v660h205zM307 25q145 0 220.5 80.5t75.5 232.5q0 145 -75.5 221t-220.5 76h-178v-610h178zM446 888l-110 -145h-32l-110 145h28l98 -125l98 125h28z" />
    <glyph glyph-name="dcaron" unicode="&#x10f;" horiz-adv-x="605" 
d="M639 730l-31 -197h-22l25 197h28zM282 -10q-67 0 -119 31t-81 89.5t-29 139.5q0 82 29 140t81.5 89t119.5 31q74 0 127 -41t71 -115l-3 -3v379h28v-730h-26l-1 152l3 -1q-10 -51 -38.5 -87t-70 -55t-91.5 -19zM285 15q57 0 100.5 28.5t68 82t24.5 125.5q0 73 -24.5 125.5
t-67.5 81t-100 28.5q-93 0 -149 -63t-56 -173t56 -172.5t148 -62.5z" />
    <glyph glyph-name="Dcroat" unicode="&#x110;" horiz-adv-x="700" 
d="M9 321v26h334v-26h-334zM315 660q160 0 243 -82t83 -240q0 -165 -83 -251.5t-243 -86.5h-205v660h205zM317 25q144 0 220 80.5t76 232.5q0 145 -76 221t-220 76h-179v-610h179z" />
    <glyph glyph-name="dcroat" unicode="&#x111;" 
d="M302 589v21h298v-21h-298zM282 -10q-67 0 -119 31t-81 89.5t-29 139.5q0 82 29 140t81.5 89t119.5 31q74 0 127 -41t71 -115l-3 -3v379h28v-730h-26l-1 152l3 -1q-10 -51 -38.5 -87t-70 -55t-91.5 -19zM285 15q57 0 100.5 28.5t68 82t24.5 125.5q0 73 -24.5 125.5
t-67.5 81t-100 28.5q-93 0 -149 -63t-56 -173t56 -172.5t148 -62.5z" />
    <glyph glyph-name="Emacron" unicode="&#x112;" 
d="M101 0v660h442v-25h-414v-286h330v-25h-330v-299h430v-25h-458zM470 787v-24h-296v24h296z" />
    <glyph glyph-name="emacron" unicode="&#x113;" horiz-adv-x="542" 
d="M287 -10q-67 0 -120 31t-84 89.5t-31 139.5q0 82 30.5 140t81.5 89t115 31q67 0 114.5 -30t73 -84.5t25.5 -129.5v-8.5t-1 -7.5h-422v25h410l-13 -6q-1 97 -49.5 157t-137.5 60q-57 0 -102 -28.5t-71 -81t-26 -126.5t26.5 -126.5t73 -80.5t106.5 -28t107 28t72 77l22 -12
q-17 -37 -47 -63t-69 -40.5t-84 -14.5zM423 627v-24h-296v24h296z" />
    <glyph glyph-name="Ebreve" unicode="&#x114;" 
d="M101 0v660h442v-25h-414v-286h330v-25h-330v-299h430v-25h-458zM448 866q0 -58 -33.5 -92t-92.5 -34t-92.5 34t-33.5 92h24q0 -46 26.5 -74.5t75.5 -28.5t75.5 28.5t27.5 74.5h23z" />
    <glyph glyph-name="ebreve" unicode="&#x115;" horiz-adv-x="542" 
d="M287 -10q-67 0 -120 31t-84 89.5t-31 139.5q0 82 30.5 140t81.5 89t115 31q67 0 114.5 -30t73 -84.5t25.5 -129.5v-8.5t-1 -7.5h-422v25h410l-13 -6q-1 97 -49.5 157t-137.5 60q-57 0 -102 -28.5t-71 -81t-26 -126.5t26.5 -126.5t73 -80.5t106.5 -28t107 28t72 77l22 -12
q-17 -37 -47 -63t-69 -40.5t-84 -14.5zM401 706q0 -58 -33.5 -92t-92.5 -34t-92.5 34t-33.5 92h24q0 -46 26.5 -74.5t75.5 -28.5t75.5 28.5t27.5 74.5h23z" />
    <glyph glyph-name="Edotaccent" unicode="&#x116;" 
d="M101 0v660h442v-25h-414v-286h330v-25h-330v-299h430v-25h-458zM322 816q13 0 21 -8t8 -21t-8 -21t-21 -8t-21 8t-8 21t8 21t21 8z" />
    <glyph glyph-name="edotaccent" unicode="&#x117;" horiz-adv-x="542" 
d="M287 -10q-67 0 -120 31t-84 89.5t-31 139.5q0 82 30.5 140t81.5 89t115 31q67 0 114.5 -30t73 -84.5t25.5 -129.5v-8.5t-1 -7.5h-422v25h410l-13 -6q-1 97 -49.5 157t-137.5 60q-57 0 -102 -28.5t-71 -81t-26 -126.5t26.5 -126.5t73 -80.5t106.5 -28t107 28t72 77l22 -12
q-17 -37 -47 -63t-69 -40.5t-84 -14.5zM275 656q13 0 21 -8t8 -21t-8 -21t-21 -8t-21 8t-8 21t8 21t21 8z" />
    <glyph glyph-name="Eogonek" unicode="&#x118;" 
d="M486 -214q-26 0 -46.5 9.5t-32.5 27.5t-12 45q0 43 32.5 77t110.5 62l21 -7q-80 -31 -109.5 -63t-29.5 -67q0 -31 20 -46.5t48 -15.5q22 0 38 5.5t26 13.5l8 -20q-12 -9 -29.5 -15t-44.5 -6zM101 0v660h442v-25h-414v-286h330v-25h-330v-299h430v-25h-458z" />
    <glyph glyph-name="eogonek" unicode="&#x119;" horiz-adv-x="542" 
d="M287 -10q-67 0 -120 31t-84 89.5t-31 139.5q0 82 30.5 140t81.5 89t115 31q67 0 114.5 -30t73 -84.5t25.5 -129.5v-8.5t-1 -7.5h-422v25h410l-13 -6q-1 97 -49.5 157t-137.5 60q-57 0 -102 -28.5t-71 -81t-26 -126.5t26.5 -126.5t73 -80.5t106.5 -28t107 28t72 77l22 -12
q-17 -37 -47 -63t-69 -40.5t-84 -14.5zM304 -208q-39 0 -66 21t-27 61q0 43 31.5 75.5t109.5 62.5l21 -6q-54 -23 -84 -43.5t-42 -41.5t-12 -45q0 -31 20.5 -46.5t50.5 -15.5q25 0 41 5.5t27 12.5l7 -20q-12 -8 -29.5 -14t-47.5 -6z" />
    <glyph glyph-name="Ecaron" unicode="&#x11a;" 
d="M101 0v660h442v-25h-414v-286h330v-25h-330v-299h430v-25h-458zM448 888l-110 -145h-32l-110 145h28l98 -125l98 125h28z" />
    <glyph glyph-name="ecaron" unicode="&#x11b;" horiz-adv-x="542" 
d="M287 -10q-67 0 -120 31t-84 89.5t-31 139.5q0 82 30.5 140t81.5 89t115 31q67 0 114.5 -30t73 -84.5t25.5 -129.5v-8.5t-1 -7.5h-422v25h410l-13 -6q-1 97 -49.5 157t-137.5 60q-57 0 -102 -28.5t-71 -81t-26 -126.5t26.5 -126.5t73 -80.5t106.5 -28t107 28t72 77l22 -12
q-17 -37 -47 -63t-69 -40.5t-84 -14.5zM400 730l-109 -147h-32l-109 147h28l97 -127l97 127h28z" />
    <glyph glyph-name="Gcircumflex" unicode="&#x11c;" horiz-adv-x="685" 
d="M359 -10q-93 0 -160.5 41.5t-104 117.5t-36.5 181t37 181t104 117.5t156 41.5q103 0 166 -42.5t91 -127.5l-25 -13q-25 79 -82 118.5t-150 39.5q-80 0 -140.5 -38.5t-94 -109t-33.5 -167.5t33 -167.5t94 -109t145 -38.5q66 0 110 22t70.5 57t38.5 74t12 74v48h-235v25
h262v-315h-25l-1 158l4 -2q-22 -76 -83 -121t-153 -45zM475 743h-28l-98 125l-98 -125h-28l110 145h32z" />
    <glyph glyph-name="gcircumflex" unicode="&#x11d;" horiz-adv-x="503" 
d="M131 582l109 146h31l110 -146h-28l-97 126l-98 -126h-27zM495 592l8 -24h-1h-1q-50 0 -76.5 -29.5t-26.5 -78.5l-20 8q0 38 14 65.5t40 43t61 15.5h1h1zM333 42q76 0 119.5 -30.5t43.5 -81.5q0 -43 -29.5 -75.5t-81.5 -51t-120 -18.5q-109 0 -170 37.5t-61 96.5
q0 44 33 75t90 37l-2 -4q-31 8 -56 29t-25 59q0 42 32 67t80 26l51 -11h-28q-45 -1 -76.5 -20.5t-31.5 -57.5q0 -39 30.5 -58t73.5 -19h128zM267 -191q59 0 104.5 15t71.5 42t26 61q0 41 -37.5 66t-103.5 25h-133q-58 0 -96 -26.5t-38 -68.5q0 -51 55 -82.5t151 -31.5z
M259 510q59 0 103.5 -20t69.5 -55.5t25 -83.5t-25 -84t-69.5 -55.5t-103.5 -19.5q-91 0 -145 43.5t-54 115.5q0 48 24.5 83.5t70 55.5t104.5 20zM259 486q-76 0 -123.5 -37t-47.5 -98t47.5 -98.5t123.5 -37.5t122.5 37.5t46.5 98.5t-46.5 98t-122.5 37z" />
    <glyph glyph-name="Gbreve" unicode="&#x11e;" horiz-adv-x="685" 
d="M359 -10q-93 0 -160.5 41.5t-104 117.5t-36.5 181t37 181t104 117.5t156 41.5q103 0 166 -42.5t91 -127.5l-25 -13q-25 79 -82 118.5t-150 39.5q-80 0 -140.5 -38.5t-94 -109t-33.5 -167.5t33 -167.5t94 -109t145 -38.5q66 0 110 22t70.5 57t38.5 74t12 74v48h-235v25
h262v-315h-25l-1 158l4 -2q-22 -76 -83 -121t-153 -45zM475 866q0 -58 -33.5 -92t-92.5 -34t-92.5 34t-33.5 92h24q0 -46 26.5 -74.5t75.5 -28.5t75.5 28.5t27.5 74.5h23z" />
    <glyph glyph-name="gbreve" unicode="&#x11f;" horiz-adv-x="503" 
d="M495 592l8 -24h-1h-1q-50 0 -76.5 -29.5t-26.5 -78.5l-20 8q0 38 14 65.5t40 43t61 15.5h1h1zM333 42q76 0 119.5 -30.5t43.5 -81.5q0 -43 -29.5 -75.5t-81.5 -51t-120 -18.5q-109 0 -170 37.5t-61 96.5q0 44 33 75t90 37l-2 -4q-31 8 -56 29t-25 59q0 42 32 67t80 26
l51 -11h-28q-45 -1 -76.5 -20.5t-31.5 -57.5q0 -39 30.5 -58t73.5 -19h128zM267 -191q59 0 104.5 15t71.5 42t26 61q0 41 -37.5 66t-103.5 25h-133q-58 0 -96 -26.5t-38 -68.5q0 -51 55 -82.5t151 -31.5zM259 510q59 0 103.5 -20t69.5 -55.5t25 -83.5t-25 -84t-69.5 -55.5
t-103.5 -19.5q-91 0 -145 43.5t-54 115.5q0 48 24.5 83.5t70 55.5t104.5 20zM259 486q-76 0 -123.5 -37t-47.5 -98t47.5 -98.5t123.5 -37.5t122.5 37.5t46.5 98.5t-46.5 98t-122.5 37zM390 706q0 -58 -33.5 -92t-92.5 -34t-92.5 34t-33.5 92h24q0 -46 26.5 -74.5t75.5 -28.5
t75.5 28.5t27.5 74.5h23z" />
    <glyph glyph-name="Gdotaccent" unicode="&#x120;" horiz-adv-x="685" 
d="M359 -10q-93 0 -160.5 41.5t-104 117.5t-36.5 181t37 181t104 117.5t156 41.5q103 0 166 -42.5t91 -127.5l-25 -13q-25 79 -82 118.5t-150 39.5q-80 0 -140.5 -38.5t-94 -109t-33.5 -167.5t33 -167.5t94 -109t145 -38.5q66 0 110 22t70.5 57t38.5 74t12 74v48h-235v25
h262v-315h-25l-1 158l4 -2q-22 -76 -83 -121t-153 -45zM349 816q13 0 21 -8t8 -21t-8 -21t-21 -8t-21 8t-8 21t8 21t21 8z" />
    <glyph glyph-name="gdotaccent" unicode="&#x121;" horiz-adv-x="503" 
d="M495 592l8 -25h-2h-2q-49 0 -75 -29t-26 -78l-20 9q0 37 14.5 64.5t40 43t59.5 15.5h2h1zM333 42q76 0 119.5 -30.5t43.5 -81.5q0 -43 -29.5 -75.5t-81.5 -51t-120 -18.5q-109 0 -170 37.5t-61 96.5q0 44 33 75t90 37l-2 -4q-31 8 -56 29t-25 59q0 42 32 67t80 26l51 -11
h-28q-45 -1 -76.5 -20.5t-31.5 -57.5q0 -39 30.5 -58t73.5 -19h128zM267 -191q59 0 104.5 15t71.5 42t26 61q0 41 -37.5 66t-103.5 25h-133q-58 0 -96 -26.5t-38 -68.5q0 -51 55 -82.5t151 -31.5zM259 510q59 0 103.5 -20t69.5 -55.5t25 -83.5t-25 -84t-69.5 -55.5
t-103.5 -19.5q-91 0 -145 43.5t-54 115.5q0 48 24.5 83.5t70 55.5t104.5 20zM259 486q-76 0 -123.5 -37t-47.5 -98t47.5 -98.5t123.5 -37.5t122.5 37.5t46.5 98.5t-46.5 98t-122.5 37zM256 656q13 0 21 -8t8 -21t-8 -21t-21 -8t-21 8t-8 21t8 21t21 8z" />
    <glyph glyph-name="uni0122" unicode="&#x122;" horiz-adv-x="685" 
d="M359 -10q-93 0 -160.5 41.5t-104 117.5t-36.5 181t37 181t104 117.5t156 41.5q103 0 166 -42.5t91 -127.5l-25 -13q-25 79 -82 118.5t-150 39.5q-80 0 -140.5 -38.5t-94 -109t-33.5 -167.5t33 -167.5t94 -109t145 -38.5q66 0 110 22t70.5 57t38.5 74t12 74v48h-235v25
h262v-315h-25l-1 158l4 -2q-22 -76 -83 -121t-153 -45zM379 -69l-57 -161h-22l49 161h30z" />
    <glyph glyph-name="uni0123" unicode="&#x123;" horiz-adv-x="503" 
d="M495 592l8 -25h-2h-2q-49 0 -75 -29t-26 -78l-20 9q0 37 14.5 64.5t40 43t59.5 15.5h2h1zM333 42q76 0 119.5 -30.5t43.5 -81.5q0 -43 -29.5 -75.5t-81.5 -51t-120 -18.5q-109 0 -170 37.5t-61 96.5q0 44 33 75t90 37l-2 -4q-31 8 -56 29t-25 59q0 42 32 67t80 26l51 -11
h-28q-45 -1 -76.5 -20.5t-31.5 -57.5q0 -39 30.5 -58t73.5 -19h128zM267 -191q59 0 104.5 15t71.5 42t26 61q0 41 -37.5 66t-103.5 25h-133q-58 0 -96 -26.5t-38 -68.5q0 -51 55 -82.5t151 -31.5zM259 510q59 0 103.5 -20t69.5 -55.5t25 -83.5t-25 -84t-69.5 -55.5
t-103.5 -19.5q-91 0 -145 43.5t-54 115.5q0 48 24.5 83.5t70 55.5t104.5 20zM259 486q-76 0 -123.5 -37t-47.5 -98t47.5 -98.5t123.5 -37.5t122.5 37.5t46.5 98.5t-46.5 98t-122.5 37zM333 778l-53 -191h-31l62 191h22z" />
    <glyph glyph-name="Hcircumflex" unicode="&#x124;" horiz-adv-x="703" 
d="M602 660v-660h-28v660h28zM129 660v-660h-28v660h28zM589 349v-25h-474v25h474zM478 743h-28l-98 125l-98 -125h-28l110 145h32z" />
    <glyph glyph-name="hcircumflex" unicode="&#x125;" horiz-adv-x="582" 
d="M87 0v730h28v-351q18 59 71.5 95.5t127.5 36.5q57 0 99 -21.5t65.5 -62t23.5 -99.5v-327h-28v320q0 81 -44.5 123t-119.5 42q-54 0 -98.5 -25t-70.5 -68.5t-26 -97.5v-295h-28zM227 769h-28l-98 125l-98 -125h-28l110 145h32z" />
    <glyph glyph-name="Hbar" unicode="&#x126;" horiz-adv-x="703" 
d="M602 660v-660h-28v660h28zM129 660v-660h-28v660h28zM589 349v-25h-474v25h474zM677 515v-25h-651v25h651z" />
    <glyph glyph-name="hbar" unicode="&#x127;" horiz-adv-x="582" 
d="M-7 610h299v-21h-299v21zM87 0v730h28v-351q18 59 71.5 95.5t127.5 36.5q57 0 99 -21.5t65.5 -62t23.5 -99.5v-327h-28v320q0 81 -44.5 123t-119.5 42q-54 0 -98.5 -25t-70.5 -68.5t-26 -97.5v-295h-28z" />
    <glyph glyph-name="Itilde" unicode="&#x128;" horiz-adv-x="229" 
d="M129 660v-660h-28v660h28zM278 849q-5 -31 -16.5 -52t-29.5 -31t-42 -10q-27 0 -45.5 10.5t-34 24t-31 24t-35.5 10.5q-27 0 -43 -18t-24 -52h-24q8 47 32 70t60 23q25 0 43 -10.5t33.5 -23.5t31.5 -23.5t36 -10.5q29 0 43.5 18t21.5 51h24z" />
    <glyph glyph-name="itilde" unicode="&#x129;" horiz-adv-x="201" 
d="M115 500v-500h-28v500h28zM264 689q-5 -31 -16.5 -52t-29.5 -31t-42 -10q-27 0 -45.5 10.5t-34 24t-31 24t-35.5 10.5q-27 0 -43 -18t-24 -52h-24q8 47 32 70t60 23q25 0 43 -10.5t33.5 -23.5t31.5 -23.5t36 -10.5q29 0 43.5 18t21.5 51h24z" />
    <glyph glyph-name="Imacron" unicode="&#x12a;" horiz-adv-x="229" 
d="M224 787v-24h-218v24h218zM129 660v-660h-28v660h28z" />
    <glyph glyph-name="imacron" unicode="&#x12b;" horiz-adv-x="201" 
d="M181 627v-24h-161v24h161zM115 500v-500h-28v500h28z" />
    <glyph glyph-name="Ibreve" unicode="&#x12c;" horiz-adv-x="229" 
d="M129 660v-660h-28v660h28zM241 866q0 -58 -33.5 -92t-92.5 -34t-92.5 34t-33.5 92h24q0 -46 26.5 -74.5t75.5 -28.5t75.5 28.5t27.5 74.5h23z" />
    <glyph glyph-name="ibreve" unicode="&#x12d;" horiz-adv-x="201" 
d="M115 500v-500h-28v500h28zM227 706q0 -58 -33.5 -92t-92.5 -34t-92.5 34t-33.5 92h24q0 -46 26.5 -74.5t75.5 -28.5t75.5 28.5t27.5 74.5h23z" />
    <glyph glyph-name="Iogonek" unicode="&#x12e;" horiz-adv-x="229" 
d="M96 -214q-23 0 -42.5 10t-31 28.5t-11.5 44.5q0 25 11 47.5t32.5 44.5t53.5 46l21 -7q-51 -39 -72 -69t-21 -60t18 -46.5t43 -16.5q18 0 29 4.5t19 8.5l8 -19q-10 -6 -23.5 -11t-33.5 -5zM129 660v-660h-28v660h28z" />
    <glyph glyph-name="iogonek" unicode="&#x12f;" horiz-adv-x="201" 
d="M81 -214q-23 0 -42 10t-30.5 28.5t-11.5 44.5q0 25 10.5 47.5t32.5 44.5t53 46l22 -7q-51 -39 -72.5 -69t-21.5 -60t18.5 -46.5t43.5 -16.5q18 0 29 4.5t19 8.5l7 -19q-9 -6 -22.5 -11t-34.5 -5zM101 598q-14 0 -22 8t-8 21t8 21t22 8q13 0 21 -8t8 -21t-8 -21t-21 -8z
M115 500v-500h-28v500h28z" />
    <glyph glyph-name="Idotaccent" unicode="&#x130;" horiz-adv-x="229" 
d="M129 660v-660h-28v660h28zM115 816q13 0 21 -8t8 -21t-8 -21t-21 -8t-21 8t-8 21t8 21t21 8z" />
    <glyph glyph-name="dotlessi" unicode="&#x131;" horiz-adv-x="201" 
d="M115 500v-500h-28v500h28z" />
    <glyph glyph-name="IJ" unicode="&#x132;" horiz-adv-x="740" 
d="M129 660v-660h-28v660h28zM646 660v-448q0 -102 -51 -162t-149 -60q-67 0 -111 27t-62.5 74.5t-8.5 111.5l27 10q-13 -97 27.5 -147.5t127.5 -50.5q88 0 130 54t42 147v444h28z" />
    <glyph glyph-name="ij" unicode="&#x133;" horiz-adv-x="402" 
d="M100 598q-13 0 -21 8t-8 21t8 21t22 8q13 0 21 -8t8 -21t-8 -21t-22 -8zM115 500v-500h-28v500h28zM302 598q-14 0 -22 8t-8 21t8 21t22 8q13 0 21 -8t8 -21t-8 -21t-21 -8zM316 500v-562q0 -49 -18 -83t-48.5 -52t-69.5 -18q-23 0 -43.5 6.5t-33.5 17.5l8 26
q12 -12 30.5 -18t38.5 -6q49 0 78.5 34.5t29.5 94.5v560h28z" />
    <glyph glyph-name="Jcircumflex" unicode="&#x134;" horiz-adv-x="511" 
d="M417 660v-448q0 -102 -51 -162t-149 -60q-67 0 -111 27t-62.5 74.5t-8.5 111.5l27 10q-13 -97 27.5 -147.5t127.5 -50.5q88 0 130 54t42 147v444h28zM529 743h-28l-98 125l-98 -125h-28l110 145h32z" />
    <glyph glyph-name="jcircumflex" unicode="&#x135;" horiz-adv-x="201" 
d="M115 500v-562q0 -49 -18 -83t-48.5 -52t-69.5 -18q-23 0 -43.5 6.5t-33.5 17.5l8 26q12 -12 30.5 -18t38.5 -6q49 0 78.5 34.5t29.5 94.5v560h28zM226 582h-28l-97 126l-97 -126h-28l109 146h32z" />
    <glyph glyph-name="uni0136" unicode="&#x136;" horiz-adv-x="576" 
d="M551 660l-268 -274l-4 -4l-165 -167v39l399 406h38zM129 660v-660h-28v660h28zM284 406l276 -406h-35l-262 386zM347 -69l-57 -161h-22l49 161h30z" />
    <glyph glyph-name="uni0137" unicode="&#x137;" horiz-adv-x="498" 
d="M478 500l-223 -209l-7 -6l-147 -140v37l338 318h39zM115 730v-730h-28v730h28zM256 306l228 -306h-35l-216 289zM329 -69l-57 -161h-22l49 161h30z" />
    <glyph glyph-name="kgreenlandic" unicode="&#x138;" horiz-adv-x="498" 
d="M478 500l-223 -209l-7 -6l-147 -140v37l338 318h39zM115 500v-500h-28v500h28zM256 306l228 -306h-35l-216 289z" />
    <glyph glyph-name="Lacute" unicode="&#x139;" horiz-adv-x="553" 
d="M129 25h409v-25h-437v660h28v-635zM175 893h31l-80 -150h-24z" />
    <glyph glyph-name="lacute" unicode="&#x13a;" horiz-adv-x="250" 
d="M111 730v-619q0 -52 17 -74t53 -22q22 0 34 3t26 9l-3 -25q-11 -5 -26 -8.5t-35 -3.5q-47 0 -70.5 29t-23.5 91v620h28zM83 794l61 136h28l-66 -136h-23z" />
    <glyph glyph-name="uni013B" unicode="&#x13b;" horiz-adv-x="553" 
d="M129 25h409v-25h-437v660h28v-635zM355 -69l-57 -161h-22l49 161h30z" />
    <glyph glyph-name="uni013C" unicode="&#x13c;" horiz-adv-x="250" 
d="M111 730v-619q0 -52 17 -74t53 -22q22 0 34 3t26 9l-3 -25q-11 -5 -26 -8.5t-35 -3.5q-47 0 -70.5 29t-23.5 91v620h28zM185 -69l-57 -161h-22l49 161h30z" />
    <glyph glyph-name="Lcaron" unicode="&#x13d;" horiz-adv-x="553" 
d="M351 660l-31 -197h-22l25 197h28zM129 25h409v-25h-437v660h28v-635z" />
    <glyph glyph-name="lcaron" unicode="&#x13e;" horiz-adv-x="252" 
d="M246 730l-32 -197h-21l25 197h28zM111 730v-619q0 -52 17 -74t53 -22q22 0 34 3t26 9l-3 -25q-11 -5 -26 -8.5t-35 -3.5q-47 0 -70.5 29t-23.5 91v620h28z" />
    <glyph glyph-name="Ldot" unicode="&#x13f;" horiz-adv-x="557" 
d="M129 25h409v-25h-437v660h28v-635zM396 376q14 0 22 -8.5t8 -21.5t-8 -21.5t-22 -8.5q-13 0 -21.5 8.5t-8.5 21.5q0 14 8.5 22t21.5 8z" />
    <glyph glyph-name="ldot" unicode="&#x140;" horiz-adv-x="315" 
d="M111 730v-619q0 -52 17 -74t53 -22q22 0 34 3t26 9l-3 -25q-11 -5 -26 -8.5t-35 -3.5q-47 0 -70.5 29t-23.5 91v620h28zM256 391q14 0 22 -8.5t8 -21.5t-8 -21.5t-22 -8.5q-13 0 -21.5 8.5t-8.5 21.5q0 14 8.5 22t21.5 8z" />
    <glyph glyph-name="Lslash" unicode="&#x141;" horiz-adv-x="568" 
d="M345 447v-32l-331 -206v32zM143 25h409v-25h-437v660h28v-635z" />
    <glyph glyph-name="lslash" unicode="&#x142;" horiz-adv-x="296" 
d="M268 463v-29l-132 -93l-3 -2l-114 -79v29l110 77l5 4zM144 730v-619q0 -52 17 -74t53 -22q22 0 34 3t26 9l-3 -25q-11 -5 -26 -8.5t-35 -3.5q-47 0 -70.5 29t-23.5 91v620h28z" />
    <glyph glyph-name="Nacute" unicode="&#x143;" horiz-adv-x="702" 
d="M601 660v-660h-37l-403 574l-34 55h-1l2 -65v-564h-27v660h36l404 -574l34 -56v0l-1 66v564h27zM416 893h31l-80 -150h-24z" />
    <glyph glyph-name="nacute" unicode="&#x144;" horiz-adv-x="582" 
d="M87 0v500h26l1 -135l-3 5q12 41 40.5 73t70 49.5t92.5 17.5q57 0 99 -21.5t65.5 -61.5t23.5 -100v-327h-28v320q0 81 -44.5 123.5t-119.5 42.5q-54 0 -98.5 -25.5t-70.5 -68.5t-26 -98v-294h-28zM366 734h31l-89 -151h-25z" />
    <glyph glyph-name="uni0145" unicode="&#x145;" horiz-adv-x="702" 
d="M601 660v-660h-37l-403 574l-34 55h-1l2 -65v-564h-27v660h36l404 -574l34 -56v0l-1 66v564h27zM374 -69l-57 -161h-22l49 161h30z" />
    <glyph glyph-name="uni0146" unicode="&#x146;" horiz-adv-x="582" 
d="M87 0v500h26l1 -135l-3 5q12 41 40.5 73t70 49.5t92.5 17.5q57 0 99 -21.5t65.5 -61.5t23.5 -100v-327h-28v320q0 81 -44.5 123.5t-119.5 42.5q-54 0 -98.5 -25.5t-70.5 -68.5t-26 -98v-294h-28zM345 -69l-57 -161h-22l49 161h30z" />
    <glyph glyph-name="Ncaron" unicode="&#x147;" horiz-adv-x="702" 
d="M601 660v-660h-37l-403 574l-34 55h-1l2 -65v-564h-27v660h36l404 -574l34 -56v0l-1 66v564h27zM482 888l-110 -145h-32l-110 145h28l98 -125l98 125h28z" />
    <glyph glyph-name="ncaron" unicode="&#x148;" horiz-adv-x="582" 
d="M87 0v500h26l1 -135l-3 5q12 41 40.5 73t70 49.5t92.5 17.5q57 0 99 -21.5t65.5 -61.5t23.5 -100v-327h-28v320q0 81 -44.5 123.5t-119.5 42.5q-54 0 -98.5 -25.5t-70.5 -68.5t-26 -98v-294h-28zM423 730l-109 -147h-32l-109 147h28l97 -127l97 127h28z" />
    <glyph glyph-name="Eng" unicode="&#x14a;" horiz-adv-x="702" 
d="M465 -215q-23 0 -43 6.5t-33 17.5l7 26q12 -12 30.5 -18t38.5 -6q49 0 79 34.5t30 94.5v61l-413 573l-34 57h-1l2 -67v-564h-27v660h36l413 -574l24 -38v0v612h27v-722q0 -49 -18 -83t-48.5 -52t-69.5 -18z" />
    <glyph glyph-name="eng" unicode="&#x14b;" horiz-adv-x="582" 
d="M502 194v-256q0 -49 -18 -83t-48.5 -52t-69.5 -18q-23 0 -43 6.5t-33 17.5l7 26q12 -12 30.5 -18t38.5 -6q49 0 78.5 34.5t29.5 94.5v254h28zM87 0v500h26l1 -135l-3 5q12 41 40.5 73t70 49.5t92.5 17.5q57 0 99 -21.5t65.5 -61.5t23.5 -100v-327h-28v320
q0 81 -44.5 123.5t-119.5 42.5q-54 0 -98.5 -25.5t-70.5 -68.5t-26 -98v-294h-28z" />
    <glyph glyph-name="Omacron" unicode="&#x14c;" horiz-adv-x="720" 
d="M360 670q93 0 161 -41.5t104.5 -117.5t36.5 -181t-36.5 -181t-104.5 -117.5t-161 -41.5q-92 0 -160 41.5t-105 117.5t-37 181t37 181t105 117.5t160 41.5zM360 645q-83 0 -144.5 -38.5t-95 -109t-33.5 -167.5t33.5 -167.5t95 -109t144.5 -38.5q85 0 145.5 38.5t94 109
t33.5 167.5t-33.5 167.5t-94 109t-145.5 38.5zM508 787v-24h-296v24h296z" />
    <glyph glyph-name="omacron" unicode="&#x14d;" horiz-adv-x="575" 
d="M287 510q70 0 123 -31t83 -89.5t30 -139.5t-30 -139.5t-83 -89.5t-123 -31q-68 0 -121 31t-83.5 89.5t-30.5 139.5t30.5 139.5t83.5 89.5t121 31zM288 486q-62 0 -108.5 -28.5t-73 -81t-26.5 -126.5q0 -73 26.5 -126t73 -81.5t108.5 -28.5q61 0 108 28.5t73 81.5t26 126
q0 74 -26 126.5t-73 81t-108 28.5zM436 624v-24h-296v24h296z" />
    <glyph glyph-name="Obreve" unicode="&#x14e;" horiz-adv-x="720" 
d="M360 670q93 0 161 -41.5t104.5 -117.5t36.5 -181t-36.5 -181t-104.5 -117.5t-161 -41.5q-92 0 -160 41.5t-105 117.5t-37 181t37 181t105 117.5t160 41.5zM360 645q-83 0 -144.5 -38.5t-95 -109t-33.5 -167.5t33.5 -167.5t95 -109t144.5 -38.5q85 0 145.5 38.5t94 109
t33.5 167.5t-33.5 167.5t-94 109t-145.5 38.5zM486 866q0 -58 -33.5 -92t-92.5 -34t-92.5 34t-33.5 92h24q0 -46 26.5 -74.5t75.5 -28.5t75.5 28.5t27.5 74.5h23z" />
    <glyph glyph-name="obreve" unicode="&#x14f;" horiz-adv-x="575" 
d="M287 510q70 0 123 -31t83 -89.5t30 -139.5t-30 -139.5t-83 -89.5t-123 -31q-68 0 -121 31t-83.5 89.5t-30.5 139.5t30.5 139.5t83.5 89.5t121 31zM288 486q-62 0 -108.5 -28.5t-73 -81t-26.5 -126.5q0 -73 26.5 -126t73 -81.5t108.5 -28.5q61 0 108 28.5t73 81.5t26 126
q0 74 -26 126.5t-73 81t-108 28.5zM414 703q0 -58 -33.5 -92t-92.5 -34t-92.5 34t-33.5 92h24q0 -46 26.5 -74.5t75.5 -28.5t75.5 28.5t27.5 74.5h23z" />
    <glyph glyph-name="Ohungarumlaut" unicode="&#x150;" horiz-adv-x="720" 
d="M360 670q93 0 161 -41.5t104.5 -117.5t36.5 -181t-36.5 -181t-104.5 -117.5t-161 -41.5q-92 0 -160 41.5t-105 117.5t-37 181t37 181t105 117.5t160 41.5zM360 645q-83 0 -144.5 -38.5t-95 -109t-33.5 -167.5t33.5 -167.5t95 -109t144.5 -38.5q85 0 145.5 38.5t94 109
t33.5 167.5t-33.5 167.5t-94 109t-145.5 38.5zM477 893h31l-80 -150h-24zM348 893h31l-80 -150h-24z" />
    <glyph glyph-name="ohungarumlaut" unicode="&#x151;" horiz-adv-x="575" 
d="M287 510q70 0 123 -31t83 -89.5t30 -139.5t-30 -139.5t-83 -89.5t-123 -31q-68 0 -121 31t-83.5 89.5t-30.5 139.5t30.5 139.5t83.5 89.5t121 31zM288 486q-62 0 -108.5 -28.5t-73 -81t-26.5 -126.5q0 -73 26.5 -126t73 -81.5t108.5 -28.5q61 0 108 28.5t73 81.5t26 126
q0 74 -26 126.5t-73 81t-108 28.5zM334 580l83 151h31l-90 -151h-24zM194 580l83 151h31l-89 -151h-25z" />
    <glyph glyph-name="OE" unicode="&#x152;" horiz-adv-x="1056" 
d="M618 25h404v-25h-431v171q-25 -91 -86.5 -136t-160.5 -45q-87 0 -151 41.5t-99.5 117.5t-35.5 181t35.5 181t99.5 117.5t151 41.5q100 0 161 -45t86 -135v170h414v-25h-387v-286h312v-25h-312v-299zM344 15q85 0 140 35t81 105t26 175t-26 175t-81 105t-140 35
q-78 0 -136 -38.5t-89.5 -109t-31.5 -167.5t31.5 -167.5t89.5 -109t136 -38.5z" />
    <glyph glyph-name="oe" unicode="&#x153;" horiz-adv-x="983" 
d="M288 -10q-69 0 -122 31t-83.5 89.5t-30.5 139.5t30.5 139.5t83.5 89.5t122 31q84 0 144 -47t79 -133h-6q20 86 78.5 133t137.5 47q66 0 113.5 -30t73 -84.5t25.5 -129.5v-8.5v-7.5h-423v25h397q-2 95 -50.5 153t-136.5 58q-56 0 -101.5 -28.5t-71.5 -81t-26 -126.5
t26.5 -126.5t73.5 -80.5t107 -28q59 0 106.5 28t71.5 77l22 -12q-17 -37 -47 -63t-69 -40.5t-84 -14.5q-82 0 -142.5 47t-80.5 134h6q-19 -86 -78.5 -133.5t-144.5 -47.5zM288 14q61 0 108 28.5t73 81.5t26 126q0 74 -26 126.5t-73 81t-108 28.5q-62 0 -108.5 -28.5t-73 -81
t-26.5 -126.5q0 -73 26.5 -126t73 -81.5t108.5 -28.5z" />
    <glyph glyph-name="Racute" unicode="&#x154;" horiz-adv-x="621" 
d="M342 660q98 0 154.5 -48.5t56.5 -133.5t-57 -133.5t-154 -48.5l-4 -1h-209v-295h-28v660h241zM342 321q87 0 135 41t48 116q0 74 -48 115.5t-135 41.5h-213v-314h213zM375 318l209 -318h-32l-200 301zM358 893h31l-80 -150h-24z" />
    <glyph glyph-name="racute" unicode="&#x155;" horiz-adv-x="355" 
d="M87 0v500h25l2 -121q18 57 60.5 94t102.5 37q24 0 41 -5.5t27 -15.5l-10 -24q-10 9 -23 14.5t-40 5.5q-44 0 -79.5 -27.5t-56.5 -72.5t-21 -98v-287h-28zM276 734h31l-89 -151h-25z" />
    <glyph glyph-name="uni0156" unicode="&#x156;" horiz-adv-x="621" 
d="M342 660q98 0 154.5 -48.5t56.5 -133.5t-57 -133.5t-154 -48.5l-4 -1h-209v-295h-28v660h241zM342 321q87 0 135 41t48 116q0 74 -48 115.5t-135 41.5h-213v-314h213zM375 318l209 -318h-32l-200 301zM368 -69l-57 -161h-22l49 161h30z" />
    <glyph glyph-name="uni0157" unicode="&#x157;" horiz-adv-x="355" 
d="M87 0v500h25l2 -121q18 57 60.5 94t102.5 37q24 0 41 -5.5t27 -15.5l-10 -24q-10 9 -23 14.5t-40 5.5q-44 0 -79.5 -27.5t-56.5 -72.5t-21 -98v-287h-28zM119 -69l-57 -161h-22l49 161h30z" />
    <glyph glyph-name="Rcaron" unicode="&#x158;" horiz-adv-x="621" 
d="M342 660q98 0 154.5 -48.5t56.5 -133.5t-57 -133.5t-154 -48.5l-4 -1h-209v-295h-28v660h241zM342 321q87 0 135 41t48 116q0 74 -48 115.5t-135 41.5h-213v-314h213zM375 318l209 -318h-32l-200 301zM424 888l-110 -145h-32l-110 145h28l98 -125l98 125h28z" />
    <glyph glyph-name="rcaron" unicode="&#x159;" horiz-adv-x="355" 
d="M87 0v500h25l2 -121q18 57 60.5 94t102.5 37q24 0 41 -5.5t27 -15.5l-10 -24q-10 9 -23 14.5t-40 5.5q-44 0 -79.5 -27.5t-56.5 -72.5t-21 -98v-287h-28zM333 730l-109 -147h-32l-109 147h28l97 -127l97 127h28z" />
    <glyph glyph-name="Sacute" unicode="&#x15a;" horiz-adv-x="603" 
d="M300 670q92 0 154.5 -36.5t88.5 -114.5l-23 -17q-23 74 -79.5 108.5t-142.5 34.5q-63 0 -109 -21t-71 -55.5t-25 -77.5q0 -54 36 -87.5t126 -52.5l120 -25q98 -21 138.5 -58t40.5 -98q0 -54 -30.5 -94.5t-84.5 -63t-127 -22.5q-69 0 -125 19t-93.5 57t-51.5 94l26 18
q10 -55 44.5 -91t86 -54t114.5 -18q60 0 108 17.5t76.5 52t28.5 83.5t-36 81t-123 49l-122 27q-65 14 -104.5 36t-58 53.5t-18.5 74.5q0 48 28.5 89t81 66.5t126.5 25.5zM357 893h31l-80 -150h-24z" />
    <glyph glyph-name="sacute" unicode="&#x15b;" horiz-adv-x="488" 
d="M246 -10q-77 0 -133.5 30.5t-74.5 90.5l25 15q15 -55 64.5 -83t122.5 -28q75 0 118.5 30t43.5 81q0 35 -22.5 59.5t-83.5 36.5l-115 25q-70 15 -100 47.5t-30 76.5q0 40 24 71t66.5 49.5t96.5 18.5q76 0 124 -30t64 -92l-24 -15q-14 59 -56.5 86t-107.5 27
q-47 0 -82.5 -14.5t-56 -39.5t-20.5 -57q0 -35 23.5 -61.5t81.5 -39.5l118 -26q71 -16 99.5 -45.5t28.5 -74.5q0 -42 -24 -73.5t-67.5 -48t-102.5 -16.5zM312 734h31l-89 -151h-25z" />
    <glyph glyph-name="Scircumflex" unicode="&#x15c;" horiz-adv-x="603" 
d="M300 670q92 0 154.5 -36.5t88.5 -114.5l-23 -17q-23 74 -79.5 108.5t-142.5 34.5q-63 0 -109 -21t-71 -55.5t-25 -77.5q0 -54 36 -87.5t126 -52.5l120 -25q98 -21 138.5 -58t40.5 -98q0 -54 -30.5 -94.5t-84.5 -63t-127 -22.5q-69 0 -125 19t-93.5 57t-51.5 94l26 18
q10 -55 44.5 -91t86 -54t114.5 -18q60 0 108 17.5t76.5 52t28.5 83.5t-36 81t-123 49l-122 27q-65 14 -104.5 36t-58 53.5t-18.5 74.5q0 48 28.5 89t81 66.5t126.5 25.5zM423 743h-28l-98 125l-98 -125h-28l110 145h32z" />
    <glyph glyph-name="scircumflex" unicode="&#x15d;" horiz-adv-x="488" 
d="M246 -10q-77 0 -133.5 30.5t-74.5 90.5l25 15q15 -55 64.5 -83t122.5 -28q75 0 118.5 30t43.5 81q0 35 -22.5 59.5t-83.5 36.5l-115 25q-70 15 -100 47.5t-30 76.5q0 40 24 71t66.5 49.5t96.5 18.5q76 0 124 -30t64 -92l-24 -15q-14 59 -56.5 86t-107.5 27
q-47 0 -82.5 -14.5t-56 -39.5t-20.5 -57q0 -35 23.5 -61.5t81.5 -39.5l118 -26q71 -16 99.5 -45.5t28.5 -74.5q0 -42 -24 -73.5t-67.5 -48t-102.5 -16.5zM369 582h-28l-97 126l-97 -126h-28l109 146h32z" />
    <glyph glyph-name="Scedilla" unicode="&#x15e;" horiz-adv-x="603" 
d="M300 670q92 0 154.5 -36.5t88.5 -114.5l-23 -17q-23 74 -79.5 108.5t-142.5 34.5q-63 0 -109 -21t-71 -55.5t-25 -77.5q0 -54 36 -87.5t126 -52.5l120 -25q98 -21 138.5 -58t40.5 -98q0 -54 -30.5 -94.5t-84.5 -63t-127 -22.5q-69 0 -125 19t-93.5 57t-51.5 94l26 18
q10 -55 44.5 -91t86 -54t114.5 -18q60 0 108 17.5t76.5 52t28.5 83.5t-36 81t-123 49l-122 27q-65 14 -104.5 36t-58 53.5t-18.5 74.5q0 48 28.5 89t81 66.5t126.5 25.5zM271 3l25 5q52 -24 73.5 -53t21.5 -66q0 -42 -26.5 -67.5t-67.5 -25.5q-30 0 -53 9.5t-41 29.5l10 21
q18 -20 38 -29t44 -9q31 0 51 19.5t20 53.5q0 31 -20 56.5t-75 55.5z" />
    <glyph glyph-name="scedilla" unicode="&#x15f;" horiz-adv-x="488" 
d="M246 -10q-77 0 -133.5 30.5t-74.5 90.5l25 15q15 -55 64.5 -83t122.5 -28q75 0 118.5 30t43.5 81q0 35 -22.5 59.5t-83.5 36.5l-115 25q-70 15 -100 47.5t-30 76.5q0 40 24 71t66.5 49.5t96.5 18.5q76 0 124 -30t64 -92l-24 -15q-14 59 -56.5 86t-107.5 27
q-47 0 -82.5 -14.5t-56 -39.5t-20.5 -57q0 -35 23.5 -61.5t81.5 -39.5l118 -26q71 -16 99.5 -45.5t28.5 -74.5q0 -42 -24 -73.5t-67.5 -48t-102.5 -16.5zM212 3l25 5q52 -24 73.5 -53t21.5 -66q0 -42 -26.5 -67.5t-67.5 -25.5q-30 0 -53 9.5t-41 29.5l10 21q18 -20 38 -29
t44 -9q31 0 51 19.5t20 53.5q0 31 -20 56.5t-75 55.5z" />
    <glyph glyph-name="Scaron" unicode="&#x160;" horiz-adv-x="603" 
d="M300 670q92 0 154.5 -36.5t88.5 -114.5l-23 -17q-23 74 -79.5 108.5t-142.5 34.5q-63 0 -109 -21t-71 -55.5t-25 -77.5q0 -54 36 -87.5t126 -52.5l120 -25q98 -21 138.5 -58t40.5 -98q0 -54 -30.5 -94.5t-84.5 -63t-127 -22.5q-69 0 -125 19t-93.5 57t-51.5 94l26 18
q10 -55 44.5 -91t86 -54t114.5 -18q60 0 108 17.5t76.5 52t28.5 83.5t-36 81t-123 49l-122 27q-65 14 -104.5 36t-58 53.5t-18.5 74.5q0 48 28.5 89t81 66.5t126.5 25.5zM423 888l-110 -145h-32l-110 145h28l98 -125l98 125h28z" />
    <glyph glyph-name="scaron" unicode="&#x161;" horiz-adv-x="488" 
d="M246 -10q-77 0 -133.5 30.5t-74.5 90.5l25 15q15 -55 64.5 -83t122.5 -28q75 0 118.5 30t43.5 81q0 35 -22.5 59.5t-83.5 36.5l-115 25q-70 15 -100 47.5t-30 76.5q0 40 24 71t66.5 49.5t96.5 18.5q76 0 124 -30t64 -92l-24 -15q-14 59 -56.5 86t-107.5 27
q-47 0 -82.5 -14.5t-56 -39.5t-20.5 -57q0 -35 23.5 -61.5t81.5 -39.5l118 -26q71 -16 99.5 -45.5t28.5 -74.5q0 -42 -24 -73.5t-67.5 -48t-102.5 -16.5zM369 730l-109 -147h-32l-109 147h28l97 -127l97 127h28z" />
    <glyph glyph-name="uni0162" unicode="&#x162;" horiz-adv-x="555" 
d="M264 0l15 8q53 -24 70 -53t17 -66q0 -42 -26 -67.5t-68 -25.5q-30 0 -52.5 9.5t-41.5 29.5l10 21q19 -20 38.5 -29t43.5 -9q32 0 52 19.5t20 53.5q0 31 -14.5 57t-63.5 52zM540 660v-25h-248v-635h-28v635h-249v25h525z" />
    <glyph glyph-name="uni0163" unicode="&#x163;" horiz-adv-x="346" 
d="M143 636v-508q0 -55 24 -84t74 -29q27 0 49 9.5t39 27.5l12 -23q-16 -17 -43 -28t-59 -11q-39 0 -67.5 15t-42.5 45.5t-14 75.5v502zM334 500v-24h-319v24h319zM187 3l25 5q52 -24 73.5 -53t21.5 -66q0 -42 -26.5 -67.5t-67.5 -25.5q-30 0 -53 9.5t-41 29.5l10 21
q18 -20 38 -29t44 -9q31 0 51 19.5t20 53.5q0 31 -20 56.5t-75 55.5z" />
    <glyph glyph-name="Tcaron" unicode="&#x164;" horiz-adv-x="555" 
d="M540 660v-25h-248v-635h-28v635h-249v25h525zM404 888l-110 -145h-32l-110 145h28l98 -125l98 125h28z" />
    <glyph glyph-name="tcaron" unicode="&#x165;" horiz-adv-x="346" 
d="M284 767l-32 -197h-21l24 197h29zM143 636v-508q0 -55 24 -84t74 -29q27 0 49 9.5t39 27.5l12 -23q-16 -17 -43 -28t-59 -11q-39 0 -67.5 15t-42.5 45.5t-14 75.5v502zM334 500v-24h-319v24h319z" />
    <glyph glyph-name="Tbar" unicode="&#x166;" horiz-adv-x="555" 
d="M540 660v-25h-248v-635h-28v635h-249v25h525zM458 350v-26h-359v26h359z" />
    <glyph glyph-name="tbar" unicode="&#x167;" horiz-adv-x="346" 
d="M334 355v-23h-319v23h319zM143 636v-508q0 -55 24 -84t74 -29q27 0 49 9.5t39 27.5l12 -23q-16 -17 -43 -28t-59 -11q-39 0 -67.5 15t-42.5 45.5t-14 75.5v502zM334 500v-24h-319v24h319z" />
    <glyph glyph-name="Utilde" unicode="&#x168;" horiz-adv-x="672" 
d="M587 660v-423q0 -120 -66 -183.5t-185 -63.5q-118 0 -184.5 63.5t-66.5 183.5v423h28v-419q0 -109 58.5 -167.5t164.5 -58.5q107 0 165 58.5t58 167.5v419h28zM499 812q-5 -31 -16.5 -52t-29.5 -31t-42 -10q-27 0 -45.5 10.5t-34 24t-31 24t-35.5 10.5q-27 0 -43 -18
t-24 -52h-24q8 47 32 70t60 23q25 0 43 -10.5t33.5 -23.5t31.5 -23.5t36 -10.5q29 0 43.5 18t21.5 51h24z" />
    <glyph glyph-name="utilde" unicode="&#x169;" horiz-adv-x="574" 
d="M258 -10q-54 0 -94 20t-61.5 60t-21.5 98v332h28v-326q0 -79 40.5 -119t114.5 -40q49 0 86 17t61 45t36 61t12 64v298h28v-500h-26l-1 122q-18 -58 -72 -95t-130 -37zM448 671q-5 -31 -16.5 -52t-29.5 -31t-42 -10q-27 0 -45.5 10.5t-34 24t-31 24t-35.5 10.5
q-27 0 -43 -18t-24 -52h-24q8 47 32 70t60 23q25 0 43 -10.5t33.5 -23.5t31.5 -23.5t36 -10.5q29 0 43.5 18t21.5 51h24z" />
    <glyph glyph-name="Umacron" unicode="&#x16a;" horiz-adv-x="672" 
d="M587 660v-423q0 -120 -66 -183.5t-185 -63.5q-118 0 -184.5 63.5t-66.5 183.5v423h28v-419q0 -109 58.5 -167.5t164.5 -58.5q107 0 165 58.5t58 167.5v419h28zM484 750v-24h-296v24h296z" />
    <glyph glyph-name="umacron" unicode="&#x16b;" horiz-adv-x="574" 
d="M258 -10q-54 0 -94 20t-61.5 60t-21.5 98v332h28v-326q0 -79 40.5 -119t114.5 -40q49 0 86 17t61 45t36 61t12 64v298h28v-500h-26l-1 122q-18 -58 -72 -95t-130 -37zM433 609v-24h-296v24h296z" />
    <glyph glyph-name="Ubreve" unicode="&#x16c;" horiz-adv-x="672" 
d="M587 660v-423q0 -120 -66 -183.5t-185 -63.5q-118 0 -184.5 63.5t-66.5 183.5v423h28v-419q0 -109 58.5 -167.5t164.5 -58.5q107 0 165 58.5t58 167.5v419h28zM462 829q0 -58 -33.5 -92t-92.5 -34t-92.5 34t-33.5 92h24q0 -46 26.5 -74.5t75.5 -28.5t75.5 28.5t27.5 74.5
h23z" />
    <glyph glyph-name="ubreve" unicode="&#x16d;" horiz-adv-x="574" 
d="M258 -10q-54 0 -94 20t-61.5 60t-21.5 98v332h28v-326q0 -79 40.5 -119t114.5 -40q49 0 86 17t61 45t36 61t12 64v298h28v-500h-26l-1 122q-18 -58 -72 -95t-130 -37zM411 688q0 -58 -33.5 -92t-92.5 -34t-92.5 34t-33.5 92h24q0 -46 26.5 -74.5t75.5 -28.5t75.5 28.5
t27.5 74.5h23z" />
    <glyph glyph-name="Uring" unicode="&#x16e;" horiz-adv-x="672" 
d="M587 660v-423q0 -120 -66 -183.5t-185 -63.5q-118 0 -184.5 63.5t-66.5 183.5v423h28v-419q0 -109 58.5 -167.5t164.5 -58.5q107 0 165 58.5t58 167.5v419h28zM334 849q39 0 64.5 -24.5t25.5 -62.5q0 -37 -25.5 -62t-64.5 -25t-64.5 25t-25.5 62q0 38 25.5 62.5
t64.5 24.5zM334 829q-29 0 -48 -19t-19 -48q0 -28 19 -47t48 -19q28 0 47.5 19t19.5 47q0 29 -19.5 48t-47.5 19z" />
    <glyph glyph-name="uring" unicode="&#x16f;" horiz-adv-x="574" 
d="M258 -10q-54 0 -94 20t-61.5 60t-21.5 98v332h28v-326q0 -79 40.5 -119t114.5 -40q49 0 86 17t61 45t36 61t12 64v298h28v-500h-26l-1 122q-18 -58 -72 -95t-130 -37zM283 731q39 0 64.5 -24.5t25.5 -62.5q0 -37 -25.5 -62t-64.5 -25t-64.5 25t-25.5 62q0 38 25.5 62.5
t64.5 24.5zM283 711q-29 0 -48 -19t-19 -48q0 -28 19 -47t48 -19q28 0 47.5 19t19.5 47q0 29 -19.5 48t-47.5 19z" />
    <glyph glyph-name="Uhungarumlaut" unicode="&#x170;" horiz-adv-x="672" 
d="M587 660v-423q0 -120 -66 -183.5t-185 -63.5q-118 0 -184.5 63.5t-66.5 183.5v423h28v-419q0 -109 58.5 -167.5t164.5 -58.5q107 0 165 58.5t58 167.5v419h28zM453 856h31l-80 -150h-24zM324 856h31l-80 -150h-24z" />
    <glyph glyph-name="uhungarumlaut" unicode="&#x171;" horiz-adv-x="574" 
d="M258 -10q-54 0 -94 20t-61.5 60t-21.5 98v332h28v-326q0 -79 40.5 -119t114.5 -40q49 0 86 17t61 45t36 61t12 64v298h28v-500h-26l-1 122q-18 -58 -72 -95t-130 -37zM331 565l83 151h31l-90 -151h-24zM191 565l83 151h31l-89 -151h-25z" />
    <glyph glyph-name="Uogonek" unicode="&#x172;" horiz-adv-x="672" 
d="M587 660v-423q0 -120 -66 -183.5t-185 -63.5q-118 0 -184.5 63.5t-66.5 183.5v423h28v-419q0 -109 58.5 -167.5t164.5 -58.5q107 0 165 58.5t58 167.5v419h28zM368 -205q-39 0 -66 21t-27 61q0 43 31.5 75.5t109.5 62.5l21 -6q-54 -23 -84 -43.5t-42 -41.5t-12 -45
q0 -31 20.5 -46.5t50.5 -15.5q25 0 41 5.5t27 12.5l7 -20q-12 -8 -29.5 -14t-47.5 -6z" />
    <glyph glyph-name="uogonek" unicode="&#x173;" horiz-adv-x="574" 
d="M454 -214q-23 0 -42 10t-30.5 28.5t-11.5 44.5q0 25 10.5 47.5t32.5 44.5t53 46l21 -7q-50 -39 -71.5 -69t-21.5 -60t18.5 -46.5t43.5 -16.5q18 0 29 4.5t19 8.5l7 -19q-9 -6 -22.5 -11t-34.5 -5zM258 -10q-54 0 -94 20t-61.5 60t-21.5 98v332h28v-326q0 -79 40.5 -119
t114.5 -40q49 0 86 17t61 45t36 61t12 64v298h28v-500h-26l-1 122q-18 -58 -72 -95t-130 -37z" />
    <glyph glyph-name="Wcircumflex" unicode="&#x174;" horiz-adv-x="919" 
d="M239 0l-214 660h30l203 -633l185 633h34l185 -634l203 634h28l-213 -660h-36l-144 488l-40 139h-1l-39 -139l-145 -488h-36zM586 743h-28l-98 125l-98 -125h-28l110 145h32z" />
    <glyph glyph-name="wcircumflex" unicode="&#x175;" horiz-adv-x="790" 
d="M731 500h30l-167 -500h-28l-171 462l-171 -462h-28l-167 500h30l151 -464l170 464h29l170 -464zM520 582h-28l-97 126l-97 -126h-28l109 146h32z" />
    <glyph glyph-name="Ycircumflex" unicode="&#x176;" horiz-adv-x="523" 
d="M508 660l-232 -404v-256h-28v256l-233 404h33l129 -226l85 -148l84 148l129 226h33zM388 707h-28l-98 125l-98 -125h-28l110 145h32z" />
    <glyph glyph-name="ycircumflex" unicode="&#x177;" horiz-adv-x="488" 
d="M467 500l-246 -598q-18 -44 -38 -69.5t-45 -36.5t-56 -11q-28 0 -50 8.5t-35 24.5l11 23q13 -17 32.5 -24t41.5 -7q36 0 63 20t51 78l38 91l-55 128l-158 373h32l174 -419l20 -50l21 53l169 416h30zM372 564h-28l-97 126l-97 -126h-28l109 146h32z" />
    <glyph glyph-name="Ydieresis" unicode="&#x178;" horiz-adv-x="523" 
d="M508 660l-232 -404v-256h-28v256l-233 404h33l129 -226l85 -148l84 148l129 226h33zM168 776q13 0 21 -8t8 -21q0 -12 -8 -20t-21 -8t-20.5 8t-7.5 21t8 20.5t20 7.5zM354 776q13 0 21 -8t8 -21q0 -12 -8 -20t-21 -8t-20.5 8t-7.5 21t8 20.5t20 7.5z" />
    <glyph glyph-name="Zacute" unicode="&#x179;" horiz-adv-x="567" 
d="M59 15l-5 10h483v-25h-503v25l459 620l5 -10h-456v25h476v-25zM342 893h31l-80 -150h-24z" />
    <glyph glyph-name="zacute" unicode="&#x17a;" horiz-adv-x="484" 
d="M42 0v23l318 401l45 52h-72h-297v24h401v-23l-303 -385l-58 -68h85h290v-24h-409zM308 734h31l-89 -151h-25z" />
    <glyph glyph-name="Zdotaccent" unicode="&#x17b;" horiz-adv-x="567" 
d="M59 15l-5 10h483v-25h-503v25l459 620l5 -10h-456v25h476v-25zM282 816q13 0 21 -8t8 -21t-8 -21t-21 -8t-21 8t-8 21t8 21t21 8z" />
    <glyph glyph-name="zdotaccent" unicode="&#x17c;" horiz-adv-x="484" 
d="M42 0v23l318 401l45 52h-72h-297v24h401v-23l-303 -385l-58 -68h85h290v-24h-409zM240 656q13 0 21 -8t8 -21t-8 -21t-21 -8t-21 8t-8 21t8 21t21 8z" />
    <glyph glyph-name="Zcaron" unicode="&#x17d;" horiz-adv-x="567" 
d="M59 15l-5 10h483v-25h-503v25l459 620l5 -10h-456v25h476v-25zM408 888l-110 -145h-32l-110 145h28l98 -125l98 125h28z" />
    <glyph glyph-name="zcaron" unicode="&#x17e;" horiz-adv-x="484" 
d="M42 0v23l318 401l45 52h-72h-297v24h401v-23l-303 -385l-58 -68h85h290v-24h-409zM365 730l-109 -147h-32l-109 147h28l97 -127l97 127h28z" />
    <glyph glyph-name="longs" unicode="&#x17f;" horiz-adv-x="219" 
d="M83 0v591q0 47 13 79t38.5 48.5t61.5 16.5q28 0 42 -7t26 -18l-8 -22q-13 13 -24 17.5t-33 4.5q-43 0 -65.5 -30t-22.5 -91v-589h-28z" />
    <glyph glyph-name="uni018E" unicode="&#x18e;" 
d="M493 0h-459v25h431v299h-331v25h331v286h-414v25h442v-660z" />
    <glyph glyph-name="uni018F" unicode="&#x18f;" horiz-adv-x="681" 
d="M335 -10q-86 0 -149.5 39.5t-98.5 112.5t-35 173v11v11h548v-26h-533l15 11q0 -2 -0.5 -5t-0.5 -6q0 -92 32 -158.5t89.5 -102t134.5 -35.5q79 0 136.5 38.5t89 108.5t31.5 168t-31.5 168.5t-89.5 108.5t-138 38q-91 0 -154.5 -46t-93.5 -130l-27 10q23 62 62 104.5
t93.5 64.5t119.5 22q89 0 153 -41.5t99 -118t35 -180.5t-35 -180.5t-99.5 -118t-152.5 -41.5z" />
    <glyph glyph-name="florin" unicode="&#x192;" horiz-adv-x="416" 
d="M353 735q22 0 36.5 -3t31.5 -12l-4 -25q-26 15 -56 15q-47 0 -75 -29t-37 -90l-90 -575q-11 -71 -45 -107.5t-91 -36.5q-21 0 -35.5 4t-32.5 14l7 23q23 -16 60 -16q45 0 72 30t37 90l89 574q11 74 44 109t89 35zM384 400v-24h-352v24h352z" />
    <glyph glyph-name="Ohorn" unicode="&#x1a0;" horiz-adv-x="720" 
d="M615 767q0 -61 -43.5 -95t-119.5 -34l-12 22q76 0 112.5 29t36.5 78h26zM360 670q93 0 161 -41.5t104.5 -117.5t36.5 -181t-36.5 -181t-104.5 -117.5t-161 -41.5q-92 0 -160 41.5t-105 117.5t-37 181t37 181t105 117.5t160 41.5zM360 645q-83 0 -144.5 -38.5t-95 -109
t-33.5 -167.5t33.5 -167.5t95 -109t144.5 -38.5q85 0 145.5 38.5t94 109t33.5 167.5t-33.5 167.5t-94 109t-145.5 38.5z" />
    <glyph glyph-name="ohorn" unicode="&#x1a1;" horiz-adv-x="575" 
d="M287 510q70 0 123 -31t83 -89.5t30 -139.5t-30 -139.5t-83 -89.5t-123 -31q-68 0 -121 31t-83.5 89.5t-30.5 139.5t30.5 139.5t83.5 89.5t121 31zM288 486q-62 0 -108.5 -28.5t-73 -81t-26.5 -126.5q0 -73 26.5 -126t73 -81.5t108.5 -28.5q61 0 108 28.5t73 81.5t26 126
q0 74 -26 126.5t-73 81t-108 28.5zM360 478v22q51 0 77 28.5t26 80.5h24q0 -63 -31.5 -97t-95.5 -34z" />
    <glyph glyph-name="Uhorn" unicode="&#x1af;" horiz-adv-x="672" 
d="M587 660v-423q0 -120 -66 -183.5t-185 -63.5q-118 0 -184.5 63.5t-66.5 183.5v423h28v-419q0 -109 58.5 -167.5t164.5 -58.5q107 0 165 58.5t58 167.5v419h28zM692 767q0 -61 -35 -95t-90 -34l-4 22q49 0 76.5 29t27.5 78h25z" />
    <glyph glyph-name="uhorn" unicode="&#x1b0;" horiz-adv-x="576" 
d="M258 -10q-54 0 -94 20t-61.5 60t-21.5 98v332h28v-326q0 -79 40.5 -119t114.5 -40q49 0 86 17t61 45t36 61t12 64v298h28v-500h-26l-1 122q-18 -58 -72 -95t-130 -37zM463 483v22q51 0 77 28.5t26 80.5h24q0 -63 -31.5 -97t-95.5 -34z" />
    <glyph glyph-name="uni01C4" unicode="&#x1c4;" horiz-adv-x="1239" 
d="M306 660q159 0 242.5 -82t83.5 -240q0 -165 -83.5 -251.5t-242.5 -86.5h-205v660h205zM307 25q145 0 220.5 80.5t75.5 232.5q0 145 -75.5 221t-220.5 76h-178v-610h178zM731 15l-5 10h483v-25h-503v25l459 620l5 -10h-456v25h476v-25zM1081 888l-110 -145h-32l-110 145
h28l98 -125l98 125h28z" />
    <glyph glyph-name="uni01C5" unicode="&#x1c5;" horiz-adv-x="1173" 
d="M306 660q159 0 242.5 -82t83.5 -240q0 -165 -83.5 -251.5t-242.5 -86.5h-205v660h205zM307 25q145 0 220.5 80.5t75.5 232.5q0 145 -75.5 221t-220.5 76h-178v-610h178zM731 0v23l318 401l45 52h-72h-297v24h401v-23l-303 -385l-58 -68h85h290v-24h-409zM1054 730
l-109 -147h-32l-109 147h28l97 -127l97 127h28z" />
    <glyph glyph-name="uni01C6" unicode="&#x1c6;" horiz-adv-x="1077" 
d="M282 -10q-67 0 -119 31t-81 89.5t-29 139.5q0 82 29 140t81.5 89t119.5 31q74 0 127 -41t71 -115l-3 -3v379h28v-730h-26l-1 152l3 -1q-10 -51 -38.5 -87t-70 -55t-91.5 -19zM285 15q57 0 100.5 28.5t68 82t24.5 125.5q0 73 -24.5 125.5t-67.5 81t-100 28.5
q-93 0 -149 -63t-56 -173t56 -172.5t148 -62.5zM635 0v23l318 401l45 52h-72h-297v24h401v-23l-303 -385l-58 -68h85h290v-24h-409zM958 730l-109 -147h-32l-109 147h28l97 -127l97 127h28z" />
    <glyph glyph-name="uni01C7" unicode="&#x1c7;" horiz-adv-x="1064" 
d="M129 25h409v-25h-437v660h28v-635zM970 660v-448q0 -102 -51 -162t-149 -60q-67 0 -111 27t-62.5 74.5t-8.5 111.5l27 10q-13 -97 27.5 -147.5t127.5 -50.5q88 0 130 54t42 147v444h28z" />
    <glyph glyph-name="uni01C8" unicode="&#x1c8;" horiz-adv-x="754" 
d="M129 25h409v-25h-437v660h28v-635zM654 598q-14 0 -22 8t-8 21t8 21t22 8q13 0 21 -8t8 -21t-8 -21t-21 -8zM668 500v-562q0 -49 -18 -83t-48.5 -52t-69.5 -18q-23 0 -43.5 6.5t-33.5 17.5l8 26q12 -12 30.5 -18t38.5 -6q49 0 78.5 34.5t29.5 94.5v560h28z" />
    <glyph glyph-name="uni01C9" unicode="&#x1c9;" horiz-adv-x="451" 
d="M111 730v-619q0 -52 17 -74t53 -22q22 0 34 3t26 9l-3 -25q-11 -5 -26 -8.5t-35 -3.5q-47 0 -70.5 29t-23.5 91v620h28zM351 598q-14 0 -22 8t-8 21t8 21t22 8q13 0 21 -8t8 -21t-8 -21t-21 -8zM365 500v-562q0 -49 -18 -83t-48.5 -52t-69.5 -18q-23 0 -43.5 6.5
t-33.5 17.5l8 26q12 -12 30.5 -18t38.5 -6q49 0 78.5 34.5t29.5 94.5v560h28z" />
    <glyph glyph-name="uni01CA" unicode="&#x1ca;" horiz-adv-x="1212" 
d="M601 660v-660h-37l-403 574l-34 55h-1l2 -65v-564h-27v660h36l404 -574l34 -56v0l-1 66v564h27zM1119 660v-448q0 -102 -51 -162t-149 -60q-67 0 -111 27t-62.5 74.5t-8.5 111.5l27 10q-13 -97 27.5 -147.5t127.5 -50.5q88 0 130 54t42 147v444h28z" />
    <glyph glyph-name="uni01CB" unicode="&#x1cb;" horiz-adv-x="903" 
d="M601 660v-660h-37l-403 574l-34 55h-1l2 -65v-564h-27v660h36l404 -574l34 -56v0l-1 66v564h27zM803 598q-14 0 -22 8t-8 21t8 21t22 8q13 0 21 -8t8 -21t-8 -21t-21 -8zM817 500v-562q0 -49 -18 -83t-48.5 -52t-69.5 -18q-23 0 -43.5 6.5t-33.5 17.5l8 26
q12 -12 30.5 -18t38.5 -6q49 0 78.5 34.5t29.5 94.5v560h28z" />
    <glyph glyph-name="uni01CC" unicode="&#x1cc;" horiz-adv-x="783" 
d="M87 0v500h26l1 -135l-3 5q12 41 40.5 73t70 49.5t92.5 17.5q57 0 99 -21.5t65.5 -61.5t23.5 -100v-327h-28v320q0 81 -44.5 123.5t-119.5 42.5q-54 0 -98.5 -25.5t-70.5 -68.5t-26 -98v-294h-28zM683 598q-14 0 -22 8t-8 21t8 21t22 8q13 0 21 -8t8 -21t-8 -21t-21 -8z
M697 500v-562q0 -49 -18 -83t-48.5 -52t-69.5 -18q-23 0 -43.5 6.5t-33.5 17.5l8 26q12 -12 30.5 -18t38.5 -6q49 0 78.5 34.5t29.5 94.5v560h28z" />
    <glyph glyph-name="uni01DD" unicode="&#x1dd;" horiz-adv-x="542" 
d="M260 510q68 0 119.5 -31t81 -89t29.5 -140q0 -80 -29.5 -138.5t-80 -90t-114.5 -31.5q-67 0 -115.5 31.5t-74.5 87t-26 125.5q0 5 0.5 9.5t0.5 6.5h423v-25h-411l13 6q1 -60 24 -109.5t65.5 -78t100.5 -28.5q57 0 101 28t69.5 80.5t25.5 126.5t-25 126.5t-71 81
t-106 28.5t-108.5 -30.5t-72.5 -80.5l-23 13q19 36 49 63.5t70 43t85 15.5z" />
    <glyph glyph-name="Gcaron" unicode="&#x1e6;" horiz-adv-x="685" 
d="M359 -10q-93 0 -160.5 41.5t-104 117.5t-36.5 181t37 181t104 117.5t156 41.5q103 0 166 -42.5t91 -127.5l-25 -13q-25 79 -82 118.5t-150 39.5q-80 0 -140.5 -38.5t-94 -109t-33.5 -167.5t33 -167.5t94 -109t145 -38.5q66 0 110 22t70.5 57t38.5 74t12 74v48h-235v25
h262v-315h-25l-1 158l4 -2q-22 -76 -83 -121t-153 -45zM475 888l-110 -145h-32l-110 145h28l98 -125l98 125h28z" />
    <glyph glyph-name="gcaron" unicode="&#x1e7;" horiz-adv-x="503" 
d="M495 592l8 -25h-2h-2q-49 0 -75 -29t-26 -78l-20 9q0 37 14.5 64.5t40 43t59.5 15.5h2h1zM333 42q76 0 119.5 -30.5t43.5 -81.5q0 -43 -29.5 -75.5t-81.5 -51t-120 -18.5q-109 0 -170 37.5t-61 96.5q0 44 33 75t90 37l-2 -4q-31 8 -56 29t-25 59q0 42 32 67t80 26l51 -11
h-28q-45 -1 -76.5 -20.5t-31.5 -57.5q0 -39 30.5 -58t73.5 -19h128zM267 -191q59 0 104.5 15t71.5 42t26 61q0 41 -37.5 66t-103.5 25h-133q-58 0 -96 -26.5t-38 -68.5q0 -51 55 -82.5t151 -31.5zM259 510q59 0 103.5 -20t69.5 -55.5t25 -83.5t-25 -84t-69.5 -55.5
t-103.5 -19.5q-91 0 -145 43.5t-54 115.5q0 48 24.5 83.5t70 55.5t104.5 20zM259 486q-76 0 -123.5 -37t-47.5 -98t47.5 -98.5t123.5 -37.5t122.5 37.5t46.5 98.5t-46.5 98t-122.5 37zM381 730l-109 -147h-32l-109 147h28l97 -127l97 127h28z" />
    <glyph glyph-name="uni01EA" unicode="&#x1ea;" horiz-adv-x="720" 
d="M360 670q93 0 161 -41.5t104.5 -117.5t36.5 -181t-36.5 -181t-104.5 -117.5t-161 -41.5q-92 0 -160 41.5t-105 117.5t-37 181t37 181t105 117.5t160 41.5zM360 645q-83 0 -144.5 -38.5t-95 -109t-33.5 -167.5t33.5 -167.5t95 -109t144.5 -38.5q85 0 145.5 38.5t94 109
t33.5 167.5t-33.5 167.5t-94 109t-145.5 38.5zM373 -212q-39 0 -66 21t-27 61q0 43 31.5 75.5t109.5 62.5l21 -6q-54 -23 -84 -43.5t-42 -41.5t-12 -45q0 -31 20.5 -46.5t50.5 -15.5q25 0 41 5.5t27 12.5l7 -20q-12 -8 -29.5 -14t-47.5 -6z" />
    <glyph glyph-name="uni01EB" unicode="&#x1eb;" horiz-adv-x="575" 
d="M287 510q70 0 123 -31t83 -89.5t30 -139.5t-30 -139.5t-83 -89.5t-123 -31q-68 0 -121 31t-83.5 89.5t-30.5 139.5t30.5 139.5t83.5 89.5t121 31zM288 486q-62 0 -108.5 -28.5t-73 -81t-26.5 -126.5q0 -73 26.5 -126t73 -81.5t108.5 -28.5q61 0 108 28.5t73 81.5t26 126
q0 74 -26 126.5t-73 81t-108 28.5zM317 -204q-39 0 -66 21t-27 61q0 43 31.5 75.5t109.5 62.5l21 -6q-54 -23 -84 -43.5t-42 -41.5t-12 -45q0 -31 20.5 -46.5t50.5 -15.5q25 0 41 5.5t27 12.5l7 -20q-12 -8 -29.5 -14t-47.5 -6z" />
    <glyph glyph-name="uni01F1" unicode="&#x1f1;" horiz-adv-x="1239" 
d="M306 660q159 0 242.5 -82t83.5 -240q0 -165 -83.5 -251.5t-242.5 -86.5h-205v660h205zM307 25q145 0 220.5 80.5t75.5 232.5q0 145 -75.5 221t-220.5 76h-178v-610h178zM731 15l-5 10h483v-25h-503v25l459 620l5 -10h-456v25h476v-25z" />
    <glyph glyph-name="uni01F2" unicode="&#x1f2;" horiz-adv-x="1173" 
d="M306 660q159 0 242.5 -82t83.5 -240q0 -165 -83.5 -251.5t-242.5 -86.5h-205v660h205zM307 25q145 0 220.5 80.5t75.5 232.5q0 145 -75.5 221t-220.5 76h-178v-610h178zM731 0v23l318 401l45 52h-72h-297v24h401v-23l-303 -385l-58 -68h85h290v-24h-409z" />
    <glyph glyph-name="uni01F3" unicode="&#x1f3;" horiz-adv-x="1077" 
d="M282 -10q-67 0 -119 31t-81 89.5t-29 139.5q0 82 29 140t81.5 89t119.5 31q74 0 127 -41t71 -115l-3 -3v379h28v-730h-26l-1 152l3 -1q-10 -51 -38.5 -87t-70 -55t-91.5 -19zM285 15q57 0 100.5 28.5t68 82t24.5 125.5q0 73 -24.5 125.5t-67.5 81t-100 28.5
q-93 0 -149 -63t-56 -173t56 -172.5t148 -62.5zM635 0v23l318 401l45 52h-72h-297v24h401v-23l-303 -385l-58 -68h85h290v-24h-409z" />
    <glyph glyph-name="Aringacute" unicode="&#x1fa;" horiz-adv-x="600" 
d="M585 0h-29l-92 224h-328l-92 -224h-29l269 660h32zM146 250h307l-153 381zM298 813q39 0 64.5 -24.5t25.5 -62.5q0 -37 -25.5 -62t-64.5 -25t-64.5 25t-25.5 62q0 38 25.5 62.5t64.5 24.5zM298 793q-29 0 -48 -19t-19 -48q0 -28 19 -47t48 -19q28 0 47.5 19t19.5 47
q0 29 -19.5 48t-47.5 19zM360 1030h31l-80 -150h-24z" />
    <glyph glyph-name="aringacute" unicode="&#x1fb;" horiz-adv-x="526" 
d="M403 334q0 70 -39 111t-112 41q-61 0 -105.5 -27t-66.5 -87l-22 15q22 61 72.5 92t122.5 31q55 0 95 -20t61.5 -59t21.5 -94v-255q0 -66 55 -66q21 0 35 8l-2 -23q-15 -9 -39 -9q-18 0 -36 8t-29.5 28t-11.5 58v39l9 4q-8 -47 -39 -78t-74 -46t-87 -15q-49 0 -85 14.5
t-56 42.5t-20 68q0 56 37.5 88.5t106.5 45.5l213 42v-24l-197 -39q-66 -12 -98.5 -39.5t-32.5 -71.5q0 -49 35 -75.5t101 -26.5q30 0 62 8.5t61 27t46.5 48t17.5 70.5v165zM246 749q39 0 64.5 -24.5t25.5 -62.5q0 -37 -25.5 -62t-64.5 -25t-64.5 25t-25.5 62q0 38 25.5 62.5
t64.5 24.5zM246 729q-29 0 -48 -19t-19 -48q0 -28 19 -47t48 -19q28 0 47.5 19t19.5 47q0 29 -19.5 48t-47.5 19zM236 783l61 136h28l-66 -136h-23z" />
    <glyph glyph-name="AEacute" unicode="&#x1fc;" horiz-adv-x="898" 
d="M468 25h396v-25h-424v246h-258l-153 -246h-34l413 660h440v-25h-380v-287h302v-26h-302v-297zM197 272h243v363h-18zM514 893h31l-80 -150h-24z" />
    <glyph glyph-name="aeacute" unicode="&#x1fd;" horiz-adv-x="877" 
d="M213 -10q-49 0 -85.5 14.5t-56.5 42.5t-20 68q0 56 37.5 88.5t105.5 45.5l209 39v46q0 70 -39.5 111t-111.5 41q-60 0 -104.5 -27t-67.5 -87l-22 15q16 42 43 69t65.5 40.5t85.5 13.5q77 0 124.5 -41.5t50.5 -124.5l-7 3q12 50 42 86.5t72 56.5t90 20q63 0 108.5 -29
t69.5 -81.5t24 -120.5v-8.5v-7.5h-396v-17q1 -109 53 -170t148 -61q55 0 101.5 28t70.5 77l22 -12q-17 -37 -47 -63t-67.5 -40.5t-79.5 -14.5q-83 0 -140.5 45.5t-73.5 124.5l6 2q-2 -47 -22 -80t-51 -53.5t-67 -29.5t-70 -9zM216 15q32 0 65 9t60.5 28t44.5 50.5t17 74.5
v87l-192 -36q-66 -12 -98.5 -39.5t-32.5 -71.5q0 -49 35 -75.5t101 -26.5zM432 288h368q-1 57 -22.5 101.5t-60 70.5t-94.5 26q-77 0 -129 -52.5t-62 -145.5zM499 734h31l-89 -151h-25z" />
    <glyph glyph-name="Oslashacute" unicode="&#x1fe;" horiz-adv-x="720" 
d="M181 60l-17 16l374 519l19 -14zM86 -31l78 107l17 -16l-65 -91h-30zM557 581l-19 14l67 94h29zM360 670q93 0 161 -41.5t104.5 -117.5t36.5 -181t-36.5 -181t-104.5 -117.5t-161 -41.5q-92 0 -160 41.5t-105 117.5t-37 181t37 181t105 117.5t160 41.5zM360 645
q-83 0 -144.5 -38.5t-95 -109t-33.5 -167.5t33.5 -167.5t95 -109t144.5 -38.5q85 0 145.5 38.5t94 109t33.5 167.5t-33.5 167.5t-94 109t-145.5 38.5zM420 893h31l-80 -150h-24z" />
    <glyph glyph-name="oslashacute" unicode="&#x1ff;" horiz-adv-x="575" 
d="M287 510q70 0 123 -31t83 -89.5t30 -139.5t-30 -139.5t-83 -89.5t-123 -31q-68 0 -121 31t-83.5 89.5t-30.5 139.5t30.5 139.5t83.5 89.5t121 31zM288 486q-62 0 -108.5 -28.5t-73 -81t-26.5 -126.5q0 -73 26.5 -126t73 -81.5t108.5 -28.5q61 0 108 28.5t73 81.5t26 126
q0 74 -26 126.5t-73 81t-108 28.5zM52 -30l442 560h28l-442 -560h-28zM356 731h31l-89 -151h-25z" />
    <glyph glyph-name="uni0200" unicode="&#x200;" horiz-adv-x="600" 
d="M585 0h-29l-92 224h-328l-92 -224h-29l269 660h32zM146 250h307l-153 381zM183 893l73 -150h-24l-80 150h31zM312 893l73 -150h-24l-80 150h31z" />
    <glyph glyph-name="uni0201" unicode="&#x201;" horiz-adv-x="526" 
d="M403 334q0 70 -39 111t-112 41q-61 0 -105.5 -27t-66.5 -87l-22 15q22 61 72.5 92t122.5 31q55 0 95 -20t61.5 -59t21.5 -94v-255q0 -66 55 -66q21 0 35 8l-2 -23q-15 -9 -39 -9q-18 0 -36 8t-29.5 28t-11.5 58v39l9 4q-8 -47 -39 -78t-74 -46t-87 -15q-49 0 -85 14.5
t-56 42.5t-20 68q0 56 37.5 88.5t106.5 45.5l213 42v-24l-197 -39q-66 -12 -98.5 -39.5t-32.5 -71.5q0 -49 35 -75.5t101 -26.5q30 0 62 8.5t61 27t46.5 48t17.5 70.5v165zM201 583h-25l-90 151h31zM340 583h-24l-90 151h31z" />
    <glyph glyph-name="uni0202" unicode="&#x202;" horiz-adv-x="600" 
d="M585 0h-29l-92 224h-328l-92 -224h-29l269 660h32zM146 250h307l-153 381zM426 733h-23q-1 46 -27.5 74.5t-75.5 28.5t-75.5 -28.5t-26.5 -74.5h-24q0 59 33.5 92.5t92.5 33.5t92.5 -33.5t33.5 -92.5z" />
    <glyph glyph-name="uni0203" unicode="&#x203;" horiz-adv-x="526" 
d="M403 334q0 70 -39 111t-112 41q-61 0 -105.5 -27t-66.5 -87l-22 15q22 61 72.5 92t122.5 31q55 0 95 -20t61.5 -59t21.5 -94v-255q0 -66 55 -66q21 0 35 8l-2 -23q-15 -9 -39 -9q-18 0 -36 8t-29.5 28t-11.5 58v39l9 4q-8 -47 -39 -78t-74 -46t-87 -15q-49 0 -85 14.5
t-56 42.5t-20 68q0 56 37.5 88.5t106.5 45.5l213 42v-24l-197 -39q-66 -12 -98.5 -39.5t-32.5 -71.5q0 -49 35 -75.5t101 -26.5q30 0 62 8.5t61 27t46.5 48t17.5 70.5v165zM374 573h-23q-1 46 -27.5 74.5t-75.5 28.5t-75.5 -28.5t-26.5 -74.5h-24q0 59 33.5 92.5t92.5 33.5
t92.5 -33.5t33.5 -92.5z" />
    <glyph glyph-name="uni0204" unicode="&#x204;" 
d="M101 0v660h442v-25h-414v-286h330v-25h-330v-299h430v-25h-458zM205 893l73 -150h-24l-80 150h31zM334 893l73 -150h-24l-80 150h31z" />
    <glyph glyph-name="uni0205" unicode="&#x205;" horiz-adv-x="542" 
d="M287 -10q-67 0 -120 31t-84 89.5t-31 139.5q0 82 30.5 140t81.5 89t115 31q67 0 114.5 -30t73 -84.5t25.5 -129.5v-8.5t-1 -7.5h-422v25h410l-13 -6q-1 97 -49.5 157t-137.5 60q-57 0 -102 -28.5t-71 -81t-26 -126.5t26.5 -126.5t73 -80.5t106.5 -28t107 28t72 77l22 -12
q-17 -37 -47 -63t-69 -40.5t-84 -14.5zM228 583h-25l-90 151h31zM367 583h-24l-90 151h31z" />
    <glyph glyph-name="uni0206" unicode="&#x206;" 
d="M101 0v660h442v-25h-414v-286h330v-25h-330v-299h430v-25h-458zM448 733h-23q-1 46 -27.5 74.5t-75.5 28.5t-75.5 -28.5t-26.5 -74.5h-24q0 59 33.5 92.5t92.5 33.5t92.5 -33.5t33.5 -92.5z" />
    <glyph glyph-name="uni0207" unicode="&#x207;" horiz-adv-x="542" 
d="M287 -10q-67 0 -120 31t-84 89.5t-31 139.5q0 82 30.5 140t81.5 89t115 31q67 0 114.5 -30t73 -84.5t25.5 -129.5v-8.5t-1 -7.5h-422v25h410l-13 -6q-1 97 -49.5 157t-137.5 60q-57 0 -102 -28.5t-71 -81t-26 -126.5t26.5 -126.5t73 -80.5t106.5 -28t107 28t72 77l22 -12
q-17 -37 -47 -63t-69 -40.5t-84 -14.5zM401 573h-23q-1 46 -27.5 74.5t-75.5 28.5t-75.5 -28.5t-26.5 -74.5h-24q0 59 33.5 92.5t92.5 33.5t92.5 -33.5t33.5 -92.5z" />
    <glyph glyph-name="uni0208" unicode="&#x208;" horiz-adv-x="229" 
d="M129 660v-660h-28v660h28zM-2 893l73 -150h-24l-80 150h31zM127 893l73 -150h-24l-80 150h31z" />
    <glyph glyph-name="uni0209" unicode="&#x209;" horiz-adv-x="201" 
d="M115 500v-500h-28v500h28zM54 583h-25l-90 151h31zM193 583h-24l-90 151h31z" />
    <glyph glyph-name="uni020A" unicode="&#x20a;" horiz-adv-x="229" 
d="M129 660v-660h-28v660h28zM241 733h-23q-1 46 -27.5 74.5t-75.5 28.5t-75.5 -28.5t-26.5 -74.5h-24q0 59 33.5 92.5t92.5 33.5t92.5 -33.5t33.5 -92.5z" />
    <glyph glyph-name="uni020B" unicode="&#x20b;" horiz-adv-x="201" 
d="M115 500v-500h-28v500h28zM227 573h-23q-1 46 -27.5 74.5t-75.5 28.5t-75.5 -28.5t-26.5 -74.5h-24q0 59 33.5 92.5t92.5 33.5t92.5 -33.5t33.5 -92.5z" />
    <glyph glyph-name="uni020C" unicode="&#x20c;" horiz-adv-x="720" 
d="M360 670q93 0 161 -41.5t104.5 -117.5t36.5 -181t-36.5 -181t-104.5 -117.5t-161 -41.5q-92 0 -160 41.5t-105 117.5t-37 181t37 181t105 117.5t160 41.5zM360 645q-83 0 -144.5 -38.5t-95 -109t-33.5 -167.5t33.5 -167.5t95 -109t144.5 -38.5q85 0 145.5 38.5t94 109
t33.5 167.5t-33.5 167.5t-94 109t-145.5 38.5zM243 893l73 -150h-24l-80 150h31zM372 893l73 -150h-24l-80 150h31z" />
    <glyph glyph-name="uni020D" unicode="&#x20d;" horiz-adv-x="575" 
d="M287 510q70 0 123 -31t83 -89.5t30 -139.5t-30 -139.5t-83 -89.5t-123 -31q-68 0 -121 31t-83.5 89.5t-30.5 139.5t30.5 139.5t83.5 89.5t121 31zM288 486q-62 0 -108.5 -28.5t-73 -81t-26.5 -126.5q0 -73 26.5 -126t73 -81.5t108.5 -28.5q61 0 108 28.5t73 81.5t26 126
q0 74 -26 126.5t-73 81t-108 28.5zM241 580h-25l-90 151h31zM380 580h-24l-90 151h31z" />
    <glyph glyph-name="uni020E" unicode="&#x20e;" horiz-adv-x="720" 
d="M360 670q93 0 161 -41.5t104.5 -117.5t36.5 -181t-36.5 -181t-104.5 -117.5t-161 -41.5q-92 0 -160 41.5t-105 117.5t-37 181t37 181t105 117.5t160 41.5zM360 645q-83 0 -144.5 -38.5t-95 -109t-33.5 -167.5t33.5 -167.5t95 -109t144.5 -38.5q85 0 145.5 38.5t94 109
t33.5 167.5t-33.5 167.5t-94 109t-145.5 38.5zM486 733h-23q-1 46 -27.5 74.5t-75.5 28.5t-75.5 -28.5t-26.5 -74.5h-24q0 59 33.5 92.5t92.5 33.5t92.5 -33.5t33.5 -92.5z" />
    <glyph glyph-name="uni020F" unicode="&#x20f;" horiz-adv-x="575" 
d="M287 510q70 0 123 -31t83 -89.5t30 -139.5t-30 -139.5t-83 -89.5t-123 -31q-68 0 -121 31t-83.5 89.5t-30.5 139.5t30.5 139.5t83.5 89.5t121 31zM288 486q-62 0 -108.5 -28.5t-73 -81t-26.5 -126.5q0 -73 26.5 -126t73 -81.5t108.5 -28.5q61 0 108 28.5t73 81.5t26 126
q0 74 -26 126.5t-73 81t-108 28.5zM414 570h-23q-1 46 -27.5 74.5t-75.5 28.5t-75.5 -28.5t-26.5 -74.5h-24q0 59 33.5 92.5t92.5 33.5t92.5 -33.5t33.5 -92.5z" />
    <glyph glyph-name="uni0210" unicode="&#x210;" horiz-adv-x="621" 
d="M342 660q98 0 154.5 -48.5t56.5 -133.5t-57 -133.5t-154 -48.5l-4 -1h-209v-295h-28v660h241zM342 321q87 0 135 41t48 116q0 74 -48 115.5t-135 41.5h-213v-314h213zM375 318l209 -318h-32l-200 301zM181 893l73 -150h-24l-80 150h31zM310 893l73 -150h-24l-80 150h31z
" />
    <glyph glyph-name="uni0211" unicode="&#x211;" horiz-adv-x="355" 
d="M87 0v500h25l2 -121q18 57 60.5 94t102.5 37q24 0 41 -5.5t27 -15.5l-10 -24q-10 9 -23 14.5t-40 5.5q-44 0 -79.5 -27.5t-56.5 -72.5t-21 -98v-287h-28zM161 583h-25l-90 151h31zM300 583h-24l-90 151h31z" />
    <glyph glyph-name="uni0212" unicode="&#x212;" horiz-adv-x="621" 
d="M342 660q98 0 154.5 -48.5t56.5 -133.5t-57 -133.5t-154 -48.5l-4 -1h-209v-295h-28v660h241zM342 321q87 0 135 41t48 116q0 74 -48 115.5t-135 41.5h-213v-314h213zM375 318l209 -318h-32l-200 301zM424 733h-23q-1 46 -27.5 74.5t-75.5 28.5t-75.5 -28.5t-26.5 -74.5
h-24q0 59 33.5 92.5t92.5 33.5t92.5 -33.5t33.5 -92.5z" />
    <glyph glyph-name="uni0213" unicode="&#x213;" horiz-adv-x="355" 
d="M87 0v500h25l2 -121q18 57 60.5 94t102.5 37q24 0 41 -5.5t27 -15.5l-10 -24q-10 9 -23 14.5t-40 5.5q-44 0 -79.5 -27.5t-56.5 -72.5t-21 -98v-287h-28zM334 573h-23q-1 46 -27.5 74.5t-75.5 28.5t-75.5 -28.5t-26.5 -74.5h-24q0 59 33.5 92.5t92.5 33.5t92.5 -33.5
t33.5 -92.5z" />
    <glyph glyph-name="uni0214" unicode="&#x214;" horiz-adv-x="672" 
d="M587 660v-423q0 -120 -66 -183.5t-185 -63.5q-118 0 -184.5 63.5t-66.5 183.5v423h28v-419q0 -109 58.5 -167.5t164.5 -58.5q107 0 165 58.5t58 167.5v419h28zM219 856l73 -150h-24l-80 150h31zM348 856l73 -150h-24l-80 150h31z" />
    <glyph glyph-name="uni0215" unicode="&#x215;" horiz-adv-x="574" 
d="M258 -10q-54 0 -94 20t-61.5 60t-21.5 98v332h28v-326q0 -79 40.5 -119t114.5 -40q49 0 86 17t61 45t36 61t12 64v298h28v-500h-26l-1 122q-18 -58 -72 -95t-130 -37zM238 565h-25l-90 151h31zM377 565h-24l-90 151h31z" />
    <glyph glyph-name="uni0216" unicode="&#x216;" horiz-adv-x="672" 
d="M587 660v-423q0 -120 -66 -183.5t-185 -63.5q-118 0 -184.5 63.5t-66.5 183.5v423h28v-419q0 -109 58.5 -167.5t164.5 -58.5q107 0 165 58.5t58 167.5v419h28zM462 696h-23q-1 46 -27.5 74.5t-75.5 28.5t-75.5 -28.5t-26.5 -74.5h-24q0 59 33.5 92.5t92.5 33.5
t92.5 -33.5t33.5 -92.5z" />
    <glyph glyph-name="uni0217" unicode="&#x217;" horiz-adv-x="574" 
d="M258 -10q-54 0 -94 20t-61.5 60t-21.5 98v332h28v-326q0 -79 40.5 -119t114.5 -40q49 0 86 17t61 45t36 61t12 64v298h28v-500h-26l-1 122q-18 -58 -72 -95t-130 -37zM411 555h-23q-1 46 -27.5 74.5t-75.5 28.5t-75.5 -28.5t-26.5 -74.5h-24q0 59 33.5 92.5t92.5 33.5
t92.5 -33.5t33.5 -92.5z" />
    <glyph glyph-name="uni0218" unicode="&#x218;" horiz-adv-x="603" 
d="M300 670q92 0 154.5 -36.5t88.5 -114.5l-23 -17q-23 74 -79.5 108.5t-142.5 34.5q-63 0 -109 -21t-71 -55.5t-25 -77.5q0 -54 36 -87.5t126 -52.5l120 -25q98 -21 138.5 -58t40.5 -98q0 -54 -30.5 -94.5t-84.5 -63t-127 -22.5q-69 0 -125 19t-93.5 57t-51.5 94l26 18
q10 -55 44.5 -91t86 -54t114.5 -18q60 0 108 17.5t76.5 52t28.5 83.5t-36 81t-123 49l-122 27q-65 14 -104.5 36t-58 53.5t-18.5 74.5q0 48 28.5 89t81 66.5t126.5 25.5zM328 -69l-57 -161h-22l49 161h30z" />
    <glyph glyph-name="uni0219" unicode="&#x219;" horiz-adv-x="488" 
d="M246 -10q-77 0 -133.5 30.5t-74.5 90.5l25 15q15 -55 64.5 -83t122.5 -28q75 0 118.5 30t43.5 81q0 35 -22.5 59.5t-83.5 36.5l-115 25q-70 15 -100 47.5t-30 76.5q0 40 24 71t66.5 49.5t96.5 18.5q76 0 124 -30t64 -92l-24 -15q-14 59 -56.5 86t-107.5 27
q-47 0 -82.5 -14.5t-56 -39.5t-20.5 -57q0 -35 23.5 -61.5t81.5 -39.5l118 -26q71 -16 99.5 -45.5t28.5 -74.5q0 -42 -24 -73.5t-67.5 -48t-102.5 -16.5zM269 -69l-57 -161h-22l49 161h30z" />
    <glyph glyph-name="uni021A" unicode="&#x21a;" horiz-adv-x="555" 
d="M540 660v-25h-248v-635h-28v635h-249v25h525zM302 -69l-57 -161h-22l49 161h30z" />
    <glyph glyph-name="uni021B" unicode="&#x21b;" horiz-adv-x="346" 
d="M143 636v-508q0 -55 24 -84t74 -29q27 0 49 9.5t39 27.5l12 -23q-16 -17 -43 -28t-59 -11q-39 0 -67.5 15t-42.5 45.5t-14 75.5v502zM334 500v-24h-319v24h319zM245 -69l-57 -161h-22l49 161h30z" />
    <glyph glyph-name="uni022A" unicode="&#x22a;" horiz-adv-x="720" 
d="M360 670q93 0 161 -41.5t104.5 -117.5t36.5 -181t-36.5 -181t-104.5 -117.5t-161 -41.5q-92 0 -160 41.5t-105 117.5t-37 181t37 181t105 117.5t160 41.5zM360 645q-83 0 -144.5 -38.5t-95 -109t-33.5 -167.5t33.5 -167.5t95 -109t144.5 -38.5q85 0 145.5 38.5t94 109
t33.5 167.5t-33.5 167.5t-94 109t-145.5 38.5zM266 812q13 0 21 -8t8 -21q0 -12 -8 -20t-21 -8t-20.5 8t-7.5 21t8 20.5t20 7.5zM452 812q13 0 21 -8t8 -21q0 -12 -8 -20t-21 -8t-20.5 8t-7.5 21t8 20.5t20 7.5zM508 931v-24h-296v24h296z" />
    <glyph glyph-name="uni022B" unicode="&#x22b;" horiz-adv-x="575" 
d="M287 510q70 0 123 -31t83 -89.5t30 -139.5t-30 -139.5t-83 -89.5t-123 -31q-68 0 -121 31t-83.5 89.5t-30.5 139.5t30.5 139.5t83.5 89.5t121 31zM288 486q-62 0 -108.5 -28.5t-73 -81t-26.5 -126.5q0 -73 26.5 -126t73 -81.5t108.5 -28.5q61 0 108 28.5t73 81.5t26 126
q0 74 -26 126.5t-73 81t-108 28.5zM194 649q13 0 21 -8t8 -21q0 -12 -8 -20t-21 -8t-20.5 8t-7.5 21t8 20.5t20 7.5zM380 649q13 0 21 -8t8 -21q0 -12 -8 -20t-21 -8t-20.5 8t-7.5 21t8 20.5t20 7.5zM436 768v-24h-296v24h296z" />
    <glyph glyph-name="uni022C" unicode="&#x22c;" horiz-adv-x="720" 
d="M360 670q93 0 161 -41.5t104.5 -117.5t36.5 -181t-36.5 -181t-104.5 -117.5t-161 -41.5q-92 0 -160 41.5t-105 117.5t-37 181t37 181t105 117.5t160 41.5zM360 645q-83 0 -144.5 -38.5t-95 -109t-33.5 -167.5t33.5 -167.5t95 -109t144.5 -38.5q85 0 145.5 38.5t94 109
t33.5 167.5t-33.5 167.5t-94 109t-145.5 38.5zM523 849q-5 -31 -16.5 -52t-29.5 -31t-42 -10q-27 0 -45.5 10.5t-34 24t-31 24t-35.5 10.5q-27 0 -43 -18t-24 -52h-24q8 47 32 70t60 23q25 0 43 -10.5t33.5 -23.5t31.5 -23.5t36 -10.5q29 0 43.5 18t21.5 51h24zM508 953v-24
h-296v24h296z" />
    <glyph glyph-name="uni022D" unicode="&#x22d;" horiz-adv-x="575" 
d="M287 510q70 0 123 -31t83 -89.5t30 -139.5t-30 -139.5t-83 -89.5t-123 -31q-68 0 -121 31t-83.5 89.5t-30.5 139.5t30.5 139.5t83.5 89.5t121 31zM288 486q-62 0 -108.5 -28.5t-73 -81t-26.5 -126.5q0 -73 26.5 -126t73 -81.5t108.5 -28.5q61 0 108 28.5t73 81.5t26 126
q0 74 -26 126.5t-73 81t-108 28.5zM451 686q-5 -31 -16.5 -52t-29.5 -31t-42 -10q-27 0 -45.5 10.5t-34 24t-31 24t-35.5 10.5q-27 0 -43 -18t-24 -52h-24q8 47 32 70t60 23q25 0 43 -10.5t33.5 -23.5t31.5 -23.5t36 -10.5q29 0 43.5 18t21.5 51h24zM436 790v-24h-296v24
h296z" />
    <glyph glyph-name="uni0230" unicode="&#x230;" horiz-adv-x="720" 
d="M360 670q93 0 161 -41.5t104.5 -117.5t36.5 -181t-36.5 -181t-104.5 -117.5t-161 -41.5q-92 0 -160 41.5t-105 117.5t-37 181t37 181t105 117.5t160 41.5zM360 645q-83 0 -144.5 -38.5t-95 -109t-33.5 -167.5t33.5 -167.5t95 -109t144.5 -38.5q85 0 145.5 38.5t94 109
t33.5 167.5t-33.5 167.5t-94 109t-145.5 38.5zM360 816q13 0 21 -8t8 -21t-8 -21t-21 -8t-21 8t-8 21t8 21t21 8zM508 935v-24h-296v24h296z" />
    <glyph glyph-name="uni0231" unicode="&#x231;" horiz-adv-x="575" 
d="M287 510q70 0 123 -31t83 -89.5t30 -139.5t-30 -139.5t-83 -89.5t-123 -31q-68 0 -121 31t-83.5 89.5t-30.5 139.5t30.5 139.5t83.5 89.5t121 31zM288 486q-62 0 -108.5 -28.5t-73 -81t-26.5 -126.5q0 -73 26.5 -126t73 -81.5t108.5 -28.5q61 0 108 28.5t73 81.5t26 126
q0 74 -26 126.5t-73 81t-108 28.5zM288 653q13 0 21 -8t8 -21t-8 -21t-21 -8t-21 8t-8 21t8 21t21 8zM436 771v-24h-296v24h296z" />
    <glyph glyph-name="uni0232" unicode="&#x232;" horiz-adv-x="523" 
d="M508 660l-232 -404v-256h-28v256l-233 404h33l129 -226l85 -148l84 148l129 226h33zM410 751v-24h-296v24h296z" />
    <glyph glyph-name="uni0233" unicode="&#x233;" horiz-adv-x="488" 
d="M467 500l-246 -598q-18 -44 -38 -69.5t-45 -36.5t-56 -11q-28 0 -50 8.5t-35 24.5l11 23q13 -17 32.5 -24t41.5 -7q36 0 63 20t51 78l38 91l-55 128l-158 373h32l174 -419l20 -50l21 53l169 416h30zM395 609v-24h-296v24h296z" />
    <glyph glyph-name="uni0237" unicode="&#x237;" horiz-adv-x="201" 
d="M115 500v-562q0 -49 -18 -83t-48.5 -52t-69.5 -18q-23 0 -43.5 6.5t-33.5 17.5l8 26q12 -12 30.5 -18t38.5 -6q49 0 78.5 34.5t29.5 94.5v560h28z" />
    <glyph glyph-name="uni0241" unicode="&#x241;" horiz-adv-x="503" 
d="M253 670q65 0 112.5 -25.5t73 -68.5t25.5 -97q0 -60 -22.5 -103.5t-68.5 -70.5t-116 -41v-264h-28v281q79 16 124 41t63.5 63.5t18.5 92.5q0 47 -22 84.5t-63.5 60t-97.5 22.5q-89 0 -138 -42t-59 -117l-25 13q9 53 37 91.5t74.5 59t111.5 20.5z" />
    <glyph glyph-name="uni0242" unicode="&#x242;" horiz-adv-x="476" 
d="M238 511q62 0 106.5 -22t69 -61t24.5 -92q0 -56 -22 -94.5t-65.5 -62.5t-108.5 -37v-142h-28v160q73 15 115.5 36t61.5 54.5t19 83.5q0 68 -46 110t-127 42q-84 0 -129 -41.5t-56 -113.5l-25 11q9 52 35.5 90t70.5 58.5t105 20.5z" />
    <glyph glyph-name="uni0259" unicode="&#x259;" horiz-adv-x="542" 
d="M266 -10q-69 0 -116.5 30t-71.5 82t-24 119q0 11 0.5 21.5t2.5 22.5h416v-26h-404l14 11q-1 -8 -1 -14.5v-14.5q0 -97 50 -151.5t134 -54.5q93 0 144.5 62t51.5 171q0 75 -23 128t-64.5 81.5t-98.5 28.5q-69 0 -117 -31t-71 -85l-23 12q17 39 46 68t70.5 44.5t94.5 15.5
q65 0 112.5 -31t74 -89t26.5 -140q0 -122 -58.5 -191t-164.5 -69z" />
    <glyph glyph-name="uni02B9" unicode="&#x2b9;" horiz-adv-x="600" 
d="M118 682l-46 -176h-25l40 176h31z" />
    <glyph glyph-name="uni02BA" unicode="&#x2ba;" horiz-adv-x="268" 
d="M233 682l-46 -176h-25l40 176h31zM118 682l-46 -176h-25l40 176h31z" />
    <glyph glyph-name="uni02BB" unicode="&#x2bb;" horiz-adv-x="600" 
d="M98 778l-53 -191h-31l62 191h22z" />
    <glyph glyph-name="uni02BC" unicode="&#x2bc;" horiz-adv-x="600" 
d="M99 690q13 0 22.5 -7t14 -19.5t4.5 -28.5q0 -21 -7.5 -43t-22.5 -40t-38 -30l-18 14q22 9 37.5 27t23 39.5t2.5 38.5h-2q-3 -5 -7.5 -8t-11.5 -3q-8 0 -14 4t-10 10.5t-4 15.5q0 8 4 15t11 11t16 4z" />
    <glyph glyph-name="uni02BE" unicode="&#x2be;" horiz-adv-x="262" 
d="M85 730q53 0 85.5 -30.5t32.5 -79.5t-32.5 -79.5t-85.5 -30.5h-28v22h28q42 0 67.5 24.5t25.5 63.5t-25.5 63.5t-67.5 24.5h-28v22h28z" />
    <glyph glyph-name="uni02BF" unicode="&#x2bf;" horiz-adv-x="262" 
d="M177 510q-53 0 -85.5 30.5t-32.5 79.5t32.5 79.5t85.5 30.5h27v-22h-27q-43 0 -68 -24.5t-25 -63.5t25 -63.5t68 -24.5h27v-22h-27z" />
    <glyph glyph-name="circumflex" unicode="&#x2c6;" horiz-adv-x="541" 
d="M395 582h-28l-97 126l-97 -126h-28l109 146h32z" />
    <glyph glyph-name="caron" unicode="&#x2c7;" horiz-adv-x="541" 
d="M395 730l-109 -147h-32l-109 147h28l97 -127l97 127h28z" />
    <glyph glyph-name="uni02C8" unicode="&#x2c8;" horiz-adv-x="189" 
d="M81 730h27v-268h-27v268z" />
    <glyph glyph-name="uni02C9" unicode="&#x2c9;" horiz-adv-x="541" 
d="M418 627v-24h-296v24h296z" />
    <glyph glyph-name="uni02CA" unicode="&#x2ca;" horiz-adv-x="600" 
d="M326 734h31l-89 -151h-25z" />
    <glyph glyph-name="uni02CB" unicode="&#x2cb;" horiz-adv-x="541" 
d="M245 734l83 -151h-25l-89 151h31z" />
    <glyph glyph-name="uni02CC" unicode="&#x2cc;" horiz-adv-x="189" 
d="M81 60h27v-268h-27v268z" />
    <glyph glyph-name="breve" unicode="&#x2d8;" horiz-adv-x="541" 
d="M396 706q0 -58 -33.5 -92t-92.5 -34t-92.5 34t-33.5 92h24q0 -46 26.5 -74.5t75.5 -28.5t75.5 28.5t27.5 74.5h23z" />
    <glyph glyph-name="dotaccent" unicode="&#x2d9;" horiz-adv-x="541" 
d="M270 656q13 0 21 -8t8 -21t-8 -21t-21 -8t-21 8t-8 21t8 21t21 8z" />
    <glyph glyph-name="ring" unicode="&#x2da;" horiz-adv-x="581" 
d="M291 749q39 0 64.5 -24.5t25.5 -62.5q0 -37 -25.5 -62t-64.5 -25t-64.5 25t-25.5 62q0 38 25.5 62.5t64.5 24.5zM291 729q-29 0 -48 -19t-19 -48q0 -28 19 -47t48 -19q28 0 47.5 19t19.5 47q0 29 -19.5 48t-47.5 19z" />
    <glyph glyph-name="ogonek" unicode="&#x2db;" horiz-adv-x="581" 
d="M299 -204q-39 0 -66 21t-27 61q0 43 31.5 75.5t109.5 62.5l21 -6q-54 -23 -84 -43.5t-42 -41.5t-12 -45q0 -31 20.5 -46.5t50.5 -15.5q25 0 41 5.5t27 12.5l7 -20q-12 -8 -29.5 -14t-47.5 -6z" />
    <glyph glyph-name="tilde" unicode="&#x2dc;" horiz-adv-x="541" 
d="M433 689q-5 -31 -16.5 -52t-29.5 -31t-42 -10q-27 0 -45.5 10.5t-34 24t-31 24t-35.5 10.5q-27 0 -43 -18t-24 -52h-24q8 47 32 70t60 23q25 0 43 -10.5t33.5 -23.5t31.5 -23.5t36 -10.5q29 0 43.5 18t21.5 51h24z" />
    <glyph glyph-name="hungarumlaut" unicode="&#x2dd;" horiz-adv-x="581" 
d="M304 583l83 151h31l-90 -151h-24zM164 583l83 151h31l-89 -151h-25z" />
    <glyph glyph-name="gravecomb" unicode="&#x300;" horiz-adv-x="0" 
d="M-66 734l83 -151h-25l-89 151h31z" />
    <glyph glyph-name="acutecomb" unicode="&#x301;" horiz-adv-x="0" 
d="M68 734h31l-89 -151h-25z" />
    <glyph glyph-name="uni0302" unicode="&#x302;" horiz-adv-x="0" 
d="M125 582h-28l-97 126l-97 -126h-28l109 146h32z" />
    <glyph glyph-name="tildecomb" unicode="&#x303;" horiz-adv-x="0" 
d="M163 689q-5 -31 -16.5 -52t-29.5 -31t-42 -10q-27 0 -45.5 10.5t-34 24t-31 24t-35.5 10.5q-27 0 -43 -18t-24 -52h-24q8 47 32 70t60 23q25 0 43 -10.5t33.5 -23.5t31.5 -23.5t36 -10.5q29 0 43.5 18t21.5 51h24z" />
    <glyph glyph-name="uni0304" unicode="&#x304;" horiz-adv-x="0" 
d="M148 627v-24h-296v24h296z" />
    <glyph glyph-name="uni0306" unicode="&#x306;" horiz-adv-x="0" 
d="M126 706q0 -58 -33.5 -92t-92.5 -34t-92.5 34t-33.5 92h24q0 -46 26.5 -74.5t75.5 -28.5t75.5 28.5t27.5 74.5h23z" />
    <glyph glyph-name="uni0307" unicode="&#x307;" horiz-adv-x="0" 
d="M0 656q13 0 21 -8t8 -21t-8 -21t-21 -8t-21 8t-8 21t8 21t21 8z" />
    <glyph glyph-name="uni0308" unicode="&#x308;" horiz-adv-x="0" 
d="M-94 652q13 0 21 -8t8 -21q0 -12 -8 -20t-21 -8t-20.5 8t-7.5 21t8 20.5t20 7.5zM92 652q13 0 21 -8t8 -21q0 -12 -8 -20t-21 -8t-20.5 8t-7.5 21t8 20.5t20 7.5z" />
    <glyph glyph-name="hookabovecomb" unicode="&#x309;" horiz-adv-x="0" 
d="M273 568l-11 15q30 19 44.5 37t14.5 43q0 21 -12.5 33t-34.5 12q-21 0 -33.5 -11.5t-20.5 -26.5l-20 14q7 17 25.5 33t50.5 16q22 0 37.5 -8.5t24.5 -23.5t9 -34q0 -22 -8.5 -39.5t-25 -31.5t-40.5 -28z" />
    <glyph glyph-name="uni030A" unicode="&#x30a;" horiz-adv-x="0" 
d="M-2 749q39 0 64.5 -24.5t25.5 -62.5q0 -37 -25.5 -62t-64.5 -25t-64.5 25t-25.5 62q0 38 25.5 62.5t64.5 24.5zM-2 729q-29 0 -48 -19t-19 -48q0 -28 19 -47t48 -19q28 0 47.5 19t19.5 47q0 29 -19.5 48t-47.5 19z" />
    <glyph glyph-name="uni030B" unicode="&#x30b;" horiz-adv-x="0" 
d="M46 583l83 151h31l-90 -151h-24zM-94 583l83 151h31l-89 -151h-25z" />
    <glyph glyph-name="uni030C" unicode="&#x30c;" horiz-adv-x="0" 
d="M125 730l-109 -147h-32l-109 147h28l97 -127l97 127h28z" />
    <glyph glyph-name="uni030F" unicode="&#x30f;" horiz-adv-x="0" 
d="M-47 583h-25l-90 151h31zM92 583h-24l-90 151h31z" />
    <glyph glyph-name="uni0311" unicode="&#x311;" horiz-adv-x="0" 
d="M126 573h-23q-1 46 -27.5 74.5t-75.5 28.5t-75.5 -28.5t-26.5 -74.5h-24q0 59 33.5 92.5t92.5 33.5t92.5 -33.5t33.5 -92.5z" />
    <glyph glyph-name="uni0312" unicode="&#x312;" horiz-adv-x="0" 
d="M333 778l-53 -191h-31l62 191h22z" />
    <glyph glyph-name="uni031B" unicode="&#x31b;" horiz-adv-x="0" 
d="M254 478v22q51 0 77 28.5t26 80.5h24q0 -63 -31.5 -97t-95.5 -34z" />
    <glyph glyph-name="dotbelowcomb" unicode="&#x323;" horiz-adv-x="0" 
d="M0 -120q3 0 5 -2t2 -5t-2 -4.5t-5 -1.5t-5 1.5t-2 4.5t2 5t5 2z" />
    <glyph glyph-name="uni0324" unicode="&#x324;" horiz-adv-x="0" 
d="M-94 -95q13 0 21 -8t8 -21q0 -12 -8 -20t-21 -8t-20.5 8t-7.5 21t8 20.5t20 7.5zM92 -95q13 0 21 -8t8 -21q0 -12 -8 -20t-21 -8t-20.5 8t-7.5 21t8 20.5t20 7.5z" />
    <glyph glyph-name="uni0326" unicode="&#x326;" horiz-adv-x="0" 
d="M18 -69l-57 -161h-22l49 161h30z" />
    <glyph glyph-name="uni0327" unicode="&#x327;" horiz-adv-x="0" 
d="M-32 3l25 5q52 -24 73.5 -53t21.5 -66q0 -42 -26.5 -67.5t-67.5 -25.5q-30 0 -53 9.5t-41 29.5l10 21q18 -20 38 -29t44 -9q31 0 51 19.5t20 53.5q0 31 -20 56.5t-75 55.5z" />
    <glyph glyph-name="uni0328" unicode="&#x328;" horiz-adv-x="0" 
d="M-69 -204q-39 0 -66 21t-27 61q0 43 31.5 75.5t109.5 62.5l21 -6q-54 -23 -84 -43.5t-42 -41.5t-12 -45q0 -31 20.5 -46.5t50.5 -15.5q25 0 41 5.5t27 12.5l7 -20q-12 -8 -29.5 -14t-47.5 -6z" />
    <glyph glyph-name="uni032E" unicode="&#x32e;" horiz-adv-x="0" 
d="M126 -73q0 -58 -33.5 -92t-92.5 -34t-92.5 34t-33.5 92h24q0 -46 26.5 -74.5t75.5 -28.5t75.5 28.5t27.5 74.5h23z" />
    <glyph glyph-name="uni0331" unicode="&#x331;" horiz-adv-x="0" 
d="M148 -104v-24h-296v24h296z" />
    <glyph glyph-name="uni0335" unicode="&#x335;" horiz-adv-x="0" 
d="M179 341v-21h-359v21h359z" />
    <glyph glyph-name="uni0338" unicode="&#x338;" horiz-adv-x="0" 
d="M53 -30l442 560h28l-442 -560h-28z" />
    <glyph glyph-name="uni03A9" unicode="&#x3a9;" horiz-adv-x="729" 
d="M60 0v24h203l-5 -4q-88 40 -141.5 120t-53.5 200q0 100 37 174t105.5 115t159.5 41q92 0 159.5 -41t104.5 -115t37 -174q0 -120 -53.5 -200t-142.5 -120l-5 4h204v-24h-238v25q92 32 149.5 110t57.5 205q0 93 -33.5 161.5t-95 106t-144.5 37.5t-144.5 -37.5t-95.5 -106
t-34 -161.5q0 -85 26.5 -147.5t73 -104.5t107.5 -63v-25h-238z" />
    <glyph glyph-name="uni03BC" unicode="&#x3bc;" horiz-adv-x="580" 
d="M87 -210v710h28v-326q0 -78 43 -118.5t112 -40.5q56 0 100 25t69.5 68.5t25.5 97.5v294h28v-500h-25l-1 123q-19 -58 -72.5 -95.5t-127.5 -37.5q-52 0 -92.5 24t-59.5 70v0v-294h-28z" />
    <glyph glyph-name="pi" unicode="&#x3c0;" horiz-adv-x="689" 
d="M171 0v476h-159v24h659v-24h-164v-373q0 -31 14.5 -48t40 -23.5t56.5 -6.5l-5 -25q-40 0 -70 9t-47 31t-17 60v376h-280v-476h-28z" />
    <glyph glyph-name="uni1E08" unicode="&#x1e08;" horiz-adv-x="656" 
d="M616 166q-17 -55 -54 -95t-89.5 -60.5t-118.5 -20.5q-89 0 -155.5 41.5t-103.5 117.5t-37 181t37 181t103.5 117.5t154.5 41.5q69 0 120 -19t85 -57t51 -94l-27 -13q-24 79 -80 118.5t-148 39.5q-80 0 -140 -38.5t-93.5 -109t-33.5 -167.5t33.5 -167.5t93.5 -109
t140 -38.5q89 0 150.5 42.5t83.5 118.5zM306 3l25 5q52 -24 73.5 -53t21.5 -66q0 -42 -26.5 -67.5t-67.5 -25.5q-30 0 -53 9.5t-41 29.5l10 21q18 -20 38 -29t44 -9q31 0 51 19.5t20 53.5q0 31 -20 56.5t-75 55.5zM405 893h31l-80 -150h-24z" />
    <glyph glyph-name="uni1E09" unicode="&#x1e09;" horiz-adv-x="531" 
d="M285 510q50 0 90 -16t67.5 -46.5t40.5 -73.5l-25 -13q-16 60 -61 92.5t-113 32.5q-59 0 -105 -28.5t-72.5 -81t-26.5 -126.5q0 -73 26 -126t71.5 -81t104.5 -28q45 0 83.5 16t64 45.5t32.5 69.5l26 -9q-10 -45 -39.5 -78t-72 -51t-94.5 -18q-67 0 -118.5 31t-81.5 89.5
t-30 139.5t30.5 139.5t83 89.5t119.5 31zM242 3l25 5q52 -24 73.5 -53t21.5 -66q0 -42 -26.5 -67.5t-67.5 -25.5q-30 0 -53 9.5t-41 29.5l10 21q18 -20 38 -29t44 -9q31 0 51 19.5t20 53.5q0 31 -20 56.5t-75 55.5zM346 734h31l-89 -151h-25z" />
    <glyph glyph-name="uni1E0C" unicode="&#x1e0c;" horiz-adv-x="690" 
d="M306 660q159 0 242.5 -82t83.5 -240q0 -165 -83.5 -251.5t-242.5 -86.5h-205v660h205zM307 25q145 0 220.5 80.5t75.5 232.5q0 145 -75.5 221t-220.5 76h-178v-610h178zM316 -120q3 0 5 -2t2 -5t-2 -4.5t-5 -1.5t-5 1.5t-2 4.5t2 5t5 2z" />
    <glyph glyph-name="uni1E0D" unicode="&#x1e0d;" 
d="M282 -10q-67 0 -119 31t-81 89.5t-29 139.5q0 82 29 140t81.5 89t119.5 31q74 0 127 -41t71 -115l-3 -3v379h28v-730h-26l-1 152l3 -1q-10 -51 -38.5 -87t-70 -55t-91.5 -19zM285 15q57 0 100.5 28.5t68 82t24.5 125.5q0 73 -24.5 125.5t-67.5 81t-100 28.5
q-93 0 -149 -63t-56 -173t56 -172.5t148 -62.5zM287 -120q3 0 5 -2t2 -5t-2 -4.5t-5 -1.5t-5 1.5t-2 4.5t2 5t5 2z" />
    <glyph glyph-name="uni1E0E" unicode="&#x1e0e;" horiz-adv-x="690" 
d="M306 660q159 0 242.5 -82t83.5 -240q0 -165 -83.5 -251.5t-242.5 -86.5h-205v660h205zM307 25q145 0 220.5 80.5t75.5 232.5q0 145 -75.5 221t-220.5 76h-178v-610h178zM464 -104v-24h-296v24h296z" />
    <glyph glyph-name="uni1E0F" unicode="&#x1e0f;" 
d="M282 -10q-67 0 -119 31t-81 89.5t-29 139.5q0 82 29 140t81.5 89t119.5 31q74 0 127 -41t71 -115l-3 -3v379h28v-730h-26l-1 152l3 -1q-10 -51 -38.5 -87t-70 -55t-91.5 -19zM285 15q57 0 100.5 28.5t68 82t24.5 125.5q0 73 -24.5 125.5t-67.5 81t-100 28.5
q-93 0 -149 -63t-56 -173t56 -172.5t148 -62.5zM435 -104v-24h-296v24h296z" />
    <glyph glyph-name="uni1E14" unicode="&#x1e14;" 
d="M101 0v660h442v-25h-414v-286h330v-25h-330v-299h430v-25h-458zM470 787v-24h-296v24h296zM262 1018l74 -150h-24l-80 150h30z" />
    <glyph glyph-name="uni1E15" unicode="&#x1e15;" horiz-adv-x="542" 
d="M287 -10q-67 0 -120 31t-84 89.5t-31 139.5q0 82 30.5 140t81.5 89t115 31q67 0 114.5 -30t73 -84.5t25.5 -129.5v-8.5t-1 -7.5h-422v25h410l-13 -6q-1 97 -49.5 157t-137.5 60q-57 0 -102 -28.5t-71 -81t-26 -126.5t26.5 -126.5t73 -80.5t106.5 -28t107 28t72 77l22 -12
q-17 -37 -47 -63t-69 -40.5t-84 -14.5zM423 627v-24h-296v24h296zM215 858l74 -150h-24l-80 150h30z" />
    <glyph glyph-name="uni1E16" unicode="&#x1e16;" 
d="M101 0v660h442v-25h-414v-286h330v-25h-330v-299h430v-25h-458zM470 787v-24h-296v24h296zM382 1018h31l-80 -150h-24z" />
    <glyph glyph-name="uni1E17" unicode="&#x1e17;" horiz-adv-x="542" 
d="M287 -10q-67 0 -120 31t-84 89.5t-31 139.5q0 82 30.5 140t81.5 89t115 31q67 0 114.5 -30t73 -84.5t25.5 -129.5v-8.5t-1 -7.5h-422v25h410l-13 -6q-1 97 -49.5 157t-137.5 60q-57 0 -102 -28.5t-71 -81t-26 -126.5t26.5 -126.5t73 -80.5t106.5 -28t107 28t72 77l22 -12
q-17 -37 -47 -63t-69 -40.5t-84 -14.5zM423 627v-24h-296v24h296zM335 858h31l-80 -150h-24z" />
    <glyph glyph-name="uni1E1C" unicode="&#x1e1c;" 
d="M101 0v660h442v-25h-414v-286h330v-25h-330v-299h430v-25h-458zM297 3l25 5q52 -24 73.5 -53t21.5 -66q0 -42 -26.5 -67.5t-67.5 -25.5q-30 0 -53 9.5t-41 29.5l10 21q18 -20 38 -29t44 -9q31 0 51 19.5t20 53.5q0 31 -20 56.5t-75 55.5zM448 866q0 -58 -33.5 -92
t-92.5 -34t-92.5 34t-33.5 92h24q0 -46 26.5 -74.5t75.5 -28.5t75.5 28.5t27.5 74.5h23z" />
    <glyph glyph-name="uni1E1D" unicode="&#x1e1d;" horiz-adv-x="542" 
d="M287 -10q-67 0 -120 31t-84 89.5t-31 139.5q0 82 30.5 140t81.5 89t115 31q67 0 114.5 -30t73 -84.5t25.5 -129.5v-8.5t-1 -7.5h-422v25h410l-13 -6q-1 97 -49.5 157t-137.5 60q-57 0 -102 -28.5t-71 -81t-26 -126.5t26.5 -126.5t73 -80.5t106.5 -28t107 28t72 77l22 -12
q-17 -37 -47 -63t-69 -40.5t-84 -14.5zM248 3l25 5q52 -24 73.5 -53t21.5 -66q0 -42 -26.5 -67.5t-67.5 -25.5q-30 0 -53 9.5t-41 29.5l10 21q18 -20 38 -29t44 -9q31 0 51 19.5t20 53.5q0 31 -20 56.5t-75 55.5zM401 706q0 -58 -33.5 -92t-92.5 -34t-92.5 34t-33.5 92h24
q0 -46 26.5 -74.5t75.5 -28.5t75.5 28.5t27.5 74.5h23z" />
    <glyph glyph-name="uni1E20" unicode="&#x1e20;" horiz-adv-x="685" 
d="M359 -10q-93 0 -160.5 41.5t-104 117.5t-36.5 181t37 181t104 117.5t156 41.5q103 0 166 -42.5t91 -127.5l-25 -13q-25 79 -82 118.5t-150 39.5q-80 0 -140.5 -38.5t-94 -109t-33.5 -167.5t33 -167.5t94 -109t145 -38.5q66 0 110 22t70.5 57t38.5 74t12 74v48h-235v25
h262v-315h-25l-1 158l4 -2q-22 -76 -83 -121t-153 -45zM497 787v-24h-296v24h296z" />
    <glyph glyph-name="uni1E21" unicode="&#x1e21;" horiz-adv-x="503" 
d="M352 627v-24h-192v24h192zM495 592l8 -25h-2h-2q-49 0 -75 -29t-26 -78l-20 9q0 37 14.5 64.5t40 43t59.5 15.5h2h1zM333 42q76 0 119.5 -30.5t43.5 -81.5q0 -43 -29.5 -75.5t-81.5 -51t-120 -18.5q-109 0 -170 37.5t-61 96.5q0 44 33 75t90 37l-2 -4q-31 8 -56 29
t-25 59q0 42 32 67t80 26l51 -11h-28q-45 -1 -76.5 -20.5t-31.5 -57.5q0 -39 30.5 -58t73.5 -19h128zM267 -191q59 0 104.5 15t71.5 42t26 61q0 41 -37.5 66t-103.5 25h-133q-58 0 -96 -26.5t-38 -68.5q0 -51 55 -82.5t151 -31.5zM259 510q59 0 103.5 -20t69.5 -55.5
t25 -83.5t-25 -84t-69.5 -55.5t-103.5 -19.5q-91 0 -145 43.5t-54 115.5q0 48 24.5 83.5t70 55.5t104.5 20zM259 486q-76 0 -123.5 -37t-47.5 -98t47.5 -98.5t123.5 -37.5t122.5 37.5t46.5 98.5t-46.5 98t-122.5 37z" />
    <glyph glyph-name="uni1E24" unicode="&#x1e24;" horiz-adv-x="703" 
d="M602 660v-660h-28v660h28zM129 660v-660h-28v660h28zM589 349v-25h-474v25h474zM352 -120q3 0 5 -2t2 -5t-2 -4.5t-5 -1.5t-5 1.5t-2 4.5t2 5t5 2z" />
    <glyph glyph-name="uni1E25" unicode="&#x1e25;" horiz-adv-x="582" 
d="M87 0v730h28v-351q18 59 71.5 95.5t127.5 36.5q57 0 99 -21.5t65.5 -62t23.5 -99.5v-327h-28v320q0 81 -44.5 123t-119.5 42q-54 0 -98.5 -25t-70.5 -68.5t-26 -97.5v-295h-28zM327 -120q3 0 5 -2t2 -5t-2 -4.5t-5 -1.5t-5 1.5t-2 4.5t2 5t5 2z" />
    <glyph glyph-name="uni1E2A" unicode="&#x1e2a;" horiz-adv-x="703" 
d="M602 660v-660h-28v660h28zM129 660v-660h-28v660h28zM589 349v-25h-474v25h474zM478 -73q0 -58 -33.5 -92t-92.5 -34t-92.5 34t-33.5 92h24q0 -46 26.5 -74.5t75.5 -28.5t75.5 28.5t27.5 74.5h23z" />
    <glyph glyph-name="uni1E2B" unicode="&#x1e2b;" horiz-adv-x="582" 
d="M87 0v730h28v-351q18 59 71.5 95.5t127.5 36.5q57 0 99 -21.5t65.5 -62t23.5 -99.5v-327h-28v320q0 81 -44.5 123t-119.5 42q-54 0 -98.5 -25t-70.5 -68.5t-26 -97.5v-295h-28zM453 -73q0 -58 -33.5 -92t-92.5 -34t-92.5 34t-33.5 92h24q0 -46 26.5 -74.5t75.5 -28.5
t75.5 28.5t27.5 74.5h23z" />
    <glyph glyph-name="uni1E2E" unicode="&#x1e2e;" horiz-adv-x="229" 
d="M129 660v-660h-28v660h28zM21 812q13 0 21 -8t8 -21q0 -12 -8 -20t-21 -8t-20.5 8t-7.5 21t8 20.5t20 7.5zM207 812q13 0 21 -8t8 -21q0 -12 -8 -20t-21 -8t-20.5 8t-7.5 21t8 20.5t20 7.5zM175 1037h31l-80 -150h-24z" />
    <glyph glyph-name="uni1E2F" unicode="&#x1e2f;" horiz-adv-x="201" 
d="M115 500v-500h-28v500h28zM7 652q13 0 21 -8t8 -21q0 -12 -8 -20t-21 -8t-20.5 8t-7.5 21t8 20.5t20 7.5zM193 652q13 0 21 -8t8 -21q0 -12 -8 -20t-21 -8t-20.5 8t-7.5 21t8 20.5t20 7.5zM161 877h31l-80 -150h-24z" />
    <glyph glyph-name="uni1E36" unicode="&#x1e36;" horiz-adv-x="553" 
d="M129 25h409v-25h-437v660h28v-635zM337 -120q3 0 5 -2t2 -5t-2 -4.5t-5 -1.5t-5 1.5t-2 4.5t2 5t5 2z" />
    <glyph glyph-name="uni1E37" unicode="&#x1e37;" horiz-adv-x="250" 
d="M111 730v-619q0 -52 17 -74t53 -22q22 0 34 3t26 9l-3 -25q-11 -5 -26 -8.5t-35 -3.5q-47 0 -70.5 29t-23.5 91v620h28zM167 -120q3 0 5 -2t2 -5t-2 -4.5t-5 -1.5t-5 1.5t-2 4.5t2 5t5 2z" />
    <glyph glyph-name="uni1E3A" unicode="&#x1e3a;" horiz-adv-x="553" 
d="M129 25h409v-25h-437v660h28v-635zM485 -104v-24h-296v24h296z" />
    <glyph glyph-name="uni1E3B" unicode="&#x1e3b;" horiz-adv-x="250" 
d="M260 -103v-24h-187v24h187zM111 730v-619q0 -52 17 -74t53 -22q22 0 34 3t26 9l-3 -25q-11 -5 -26 -8.5t-35 -3.5q-47 0 -70.5 29t-23.5 91v620h28z" />
    <glyph glyph-name="uni1E42" unicode="&#x1e42;" horiz-adv-x="799" 
d="M698 660v-660h-27v549l2 79v0l-259 -628h-29l-259 628h-1l3 -79v-549h-27v660h40l239 -572l19 -55h1l19 54l239 573h40zM399 -120q3 0 5 -2t2 -5t-2 -4.5t-5 -1.5t-5 1.5t-2 4.5t2 5t5 2z" />
    <glyph glyph-name="uni1E43" unicode="&#x1e43;" horiz-adv-x="965" 
d="M87 0v500h26l1 -123q18 59 72 96t127 37t121 -36t60 -103q11 41 40 72.5t71.5 50t92.5 18.5q56 0 97.5 -21.5t65.5 -62t24 -99.5v-327h-28v324q0 78 -44.5 119.5t-118.5 41.5q-55 0 -99 -25.5t-69.5 -68.5t-25.5 -95v-298h-28v324q0 78 -44.5 120t-118.5 42
q-53 0 -97.5 -25.5t-70.5 -68.5t-26 -97v-295h-28zM486 -120q3 0 5 -2t2 -5t-2 -4.5t-5 -1.5t-5 1.5t-2 4.5t2 5t5 2z" />
    <glyph glyph-name="uni1E44" unicode="&#x1e44;" horiz-adv-x="702" 
d="M601 660v-660h-37l-403 574l-34 55h-1l2 -65v-564h-27v660h36l404 -574l34 -56v0l-1 66v564h27zM356 816q13 0 21 -8t8 -21t-8 -21t-21 -8t-21 8t-8 21t8 21t21 8z" />
    <glyph glyph-name="uni1E45" unicode="&#x1e45;" horiz-adv-x="582" 
d="M87 0v500h26l1 -135l-3 5q12 41 40.5 73t70 49.5t92.5 17.5q57 0 99 -21.5t65.5 -61.5t23.5 -100v-327h-28v320q0 81 -44.5 123.5t-119.5 42.5q-54 0 -98.5 -25.5t-70.5 -68.5t-26 -98v-294h-28zM298 656q13 0 21 -8t8 -21t-8 -21t-21 -8t-21 8t-8 21t8 21t21 8z" />
    <glyph glyph-name="uni1E46" unicode="&#x1e46;" horiz-adv-x="702" 
d="M601 660v-660h-37l-403 574l-34 55h-1l2 -65v-564h-27v660h36l404 -574l34 -56v0l-1 66v564h27zM356 -120q3 0 5 -2t2 -5t-2 -4.5t-5 -1.5t-5 1.5t-2 4.5t2 5t5 2z" />
    <glyph glyph-name="uni1E47" unicode="&#x1e47;" horiz-adv-x="582" 
d="M87 0v500h26l1 -135l-3 5q12 41 40.5 73t70 49.5t92.5 17.5q57 0 99 -21.5t65.5 -61.5t23.5 -100v-327h-28v320q0 81 -44.5 123.5t-119.5 42.5q-54 0 -98.5 -25.5t-70.5 -68.5t-26 -98v-294h-28zM327 -120q3 0 5 -2t2 -5t-2 -4.5t-5 -1.5t-5 1.5t-2 4.5t2 5t5 2z" />
    <glyph glyph-name="uni1E48" unicode="&#x1e48;" horiz-adv-x="702" 
d="M601 660v-660h-37l-403 574l-34 55h-1l2 -65v-564h-27v660h36l404 -574l34 -56v0l-1 66v564h27zM504 -104v-24h-296v24h296z" />
    <glyph glyph-name="uni1E49" unicode="&#x1e49;" horiz-adv-x="582" 
d="M87 0v500h26l1 -135l-3 5q12 41 40.5 73t70 49.5t92.5 17.5q57 0 99 -21.5t65.5 -61.5t23.5 -100v-327h-28v320q0 81 -44.5 123.5t-119.5 42.5q-54 0 -98.5 -25.5t-70.5 -68.5t-26 -98v-294h-28zM475 -104v-24h-296v24h296z" />
    <glyph glyph-name="uni1E4C" unicode="&#x1e4c;" horiz-adv-x="720" 
d="M360 670q93 0 161 -41.5t104.5 -117.5t36.5 -181t-36.5 -181t-104.5 -117.5t-161 -41.5q-92 0 -160 41.5t-105 117.5t-37 181t37 181t105 117.5t160 41.5zM360 645q-83 0 -144.5 -38.5t-95 -109t-33.5 -167.5t33.5 -167.5t95 -109t144.5 -38.5q85 0 145.5 38.5t94 109
t33.5 167.5t-33.5 167.5t-94 109t-145.5 38.5zM523 849q-5 -31 -16.5 -52t-29.5 -31t-42 -10q-27 0 -45.5 10.5t-34 24t-31 24t-35.5 10.5q-27 0 -43 -18t-24 -52h-24q8 47 32 70t60 23q25 0 43 -10.5t33.5 -23.5t31.5 -23.5t36 -10.5q29 0 43.5 18t21.5 51h24zM420 1059h31
l-80 -150h-24z" />
    <glyph glyph-name="uni1E4D" unicode="&#x1e4d;" horiz-adv-x="575" 
d="M287 510q70 0 123 -31t83 -89.5t30 -139.5t-30 -139.5t-83 -89.5t-123 -31q-68 0 -121 31t-83.5 89.5t-30.5 139.5t30.5 139.5t83.5 89.5t121 31zM288 486q-62 0 -108.5 -28.5t-73 -81t-26.5 -126.5q0 -73 26.5 -126t73 -81.5t108.5 -28.5q61 0 108 28.5t73 81.5t26 126
q0 74 -26 126.5t-73 81t-108 28.5zM451 686q-5 -31 -16.5 -52t-29.5 -31t-42 -10q-27 0 -45.5 10.5t-34 24t-31 24t-35.5 10.5q-27 0 -43 -18t-24 -52h-24q8 47 32 70t60 23q25 0 43 -10.5t33.5 -23.5t31.5 -23.5t36 -10.5q29 0 43.5 18t21.5 51h24zM348 896h31l-80 -150
h-24z" />
    <glyph glyph-name="uni1E4E" unicode="&#x1e4e;" horiz-adv-x="720" 
d="M360 670q93 0 161 -41.5t104.5 -117.5t36.5 -181t-36.5 -181t-104.5 -117.5t-161 -41.5q-92 0 -160 41.5t-105 117.5t-37 181t37 181t105 117.5t160 41.5zM360 645q-83 0 -144.5 -38.5t-95 -109t-33.5 -167.5t33.5 -167.5t95 -109t144.5 -38.5q85 0 145.5 38.5t94 109
t33.5 167.5t-33.5 167.5t-94 109t-145.5 38.5zM523 849q-5 -31 -16.5 -52t-29.5 -31t-42 -10q-27 0 -45.5 10.5t-34 24t-31 24t-35.5 10.5q-27 0 -43 -18t-24 -52h-24q8 47 32 70t60 23q25 0 43 -10.5t33.5 -23.5t31.5 -23.5t36 -10.5q29 0 43.5 18t21.5 51h24zM266 978
q13 0 21 -8t8 -21q0 -12 -8 -20t-21 -8t-20.5 8t-7.5 21t8 20.5t20 7.5zM452 978q13 0 21 -8t8 -21q0 -12 -8 -20t-21 -8t-20.5 8t-7.5 21t8 20.5t20 7.5z" />
    <glyph glyph-name="uni1E4F" unicode="&#x1e4f;" horiz-adv-x="575" 
d="M287 510q70 0 123 -31t83 -89.5t30 -139.5t-30 -139.5t-83 -89.5t-123 -31q-68 0 -121 31t-83.5 89.5t-30.5 139.5t30.5 139.5t83.5 89.5t121 31zM288 486q-62 0 -108.5 -28.5t-73 -81t-26.5 -126.5q0 -73 26.5 -126t73 -81.5t108.5 -28.5q61 0 108 28.5t73 81.5t26 126
q0 74 -26 126.5t-73 81t-108 28.5zM451 686q-5 -31 -16.5 -52t-29.5 -31t-42 -10q-27 0 -45.5 10.5t-34 24t-31 24t-35.5 10.5q-27 0 -43 -18t-24 -52h-24q8 47 32 70t60 23q25 0 43 -10.5t33.5 -23.5t31.5 -23.5t36 -10.5q29 0 43.5 18t21.5 51h24zM194 815q13 0 21 -8
t8 -21q0 -12 -8 -20t-21 -8t-20.5 8t-7.5 21t8 20.5t20 7.5zM380 815q13 0 21 -8t8 -21q0 -12 -8 -20t-21 -8t-20.5 8t-7.5 21t8 20.5t20 7.5z" />
    <glyph glyph-name="uni1E50" unicode="&#x1e50;" horiz-adv-x="720" 
d="M360 670q93 0 161 -41.5t104.5 -117.5t36.5 -181t-36.5 -181t-104.5 -117.5t-161 -41.5q-92 0 -160 41.5t-105 117.5t-37 181t37 181t105 117.5t160 41.5zM360 645q-83 0 -144.5 -38.5t-95 -109t-33.5 -167.5t33.5 -167.5t95 -109t144.5 -38.5q85 0 145.5 38.5t94 109
t33.5 167.5t-33.5 167.5t-94 109t-145.5 38.5zM508 787v-24h-296v24h296zM300 1018l74 -150h-24l-80 150h30z" />
    <glyph glyph-name="uni1E51" unicode="&#x1e51;" horiz-adv-x="575" 
d="M287 510q70 0 123 -31t83 -89.5t30 -139.5t-30 -139.5t-83 -89.5t-123 -31q-68 0 -121 31t-83.5 89.5t-30.5 139.5t30.5 139.5t83.5 89.5t121 31zM288 486q-62 0 -108.5 -28.5t-73 -81t-26.5 -126.5q0 -73 26.5 -126t73 -81.5t108.5 -28.5q61 0 108 28.5t73 81.5t26 126
q0 74 -26 126.5t-73 81t-108 28.5zM436 624v-24h-296v24h296zM228 855l74 -150h-24l-80 150h30z" />
    <glyph glyph-name="uni1E52" unicode="&#x1e52;" horiz-adv-x="720" 
d="M360 670q93 0 161 -41.5t104.5 -117.5t36.5 -181t-36.5 -181t-104.5 -117.5t-161 -41.5q-92 0 -160 41.5t-105 117.5t-37 181t37 181t105 117.5t160 41.5zM360 645q-83 0 -144.5 -38.5t-95 -109t-33.5 -167.5t33.5 -167.5t95 -109t144.5 -38.5q85 0 145.5 38.5t94 109
t33.5 167.5t-33.5 167.5t-94 109t-145.5 38.5zM508 787v-24h-296v24h296zM420 1018h31l-80 -150h-24z" />
    <glyph glyph-name="uni1E53" unicode="&#x1e53;" horiz-adv-x="575" 
d="M287 510q70 0 123 -31t83 -89.5t30 -139.5t-30 -139.5t-83 -89.5t-123 -31q-68 0 -121 31t-83.5 89.5t-30.5 139.5t30.5 139.5t83.5 89.5t121 31zM288 486q-62 0 -108.5 -28.5t-73 -81t-26.5 -126.5q0 -73 26.5 -126t73 -81.5t108.5 -28.5q61 0 108 28.5t73 81.5t26 126
q0 74 -26 126.5t-73 81t-108 28.5zM436 624v-24h-296v24h296zM348 855h31l-80 -150h-24z" />
    <glyph glyph-name="uni1E5A" unicode="&#x1e5a;" horiz-adv-x="621" 
d="M342 660q98 0 154.5 -48.5t56.5 -133.5t-57 -133.5t-154 -48.5l-4 -1h-209v-295h-28v660h241zM342 321q87 0 135 41t48 116q0 74 -48 115.5t-135 41.5h-213v-314h213zM375 318l209 -318h-32l-200 301zM350 -120q3 0 5 -2t2 -5t-2 -4.5t-5 -1.5t-5 1.5t-2 4.5t2 5t5 2z
" />
    <glyph glyph-name="uni1E5B" unicode="&#x1e5b;" horiz-adv-x="355" 
d="M87 0v500h25l2 -121q18 57 60.5 94t102.5 37q24 0 41 -5.5t27 -15.5l-10 -24q-10 9 -23 14.5t-40 5.5q-44 0 -79.5 -27.5t-56.5 -72.5t-21 -98v-287h-28zM101 -120q3 0 5 -2t2 -5t-2 -4.5t-5 -1.5t-5 1.5t-2 4.5t2 5t5 2z" />
    <glyph glyph-name="uni1E5E" unicode="&#x1e5e;" horiz-adv-x="621" 
d="M342 660q98 0 154.5 -48.5t56.5 -133.5t-57 -133.5t-154 -48.5l-4 -1h-209v-295h-28v660h241zM342 321q87 0 135 41t48 116q0 74 -48 115.5t-135 41.5h-213v-314h213zM375 318l209 -318h-32l-200 301zM498 -104v-24h-296v24h296z" />
    <glyph glyph-name="uni1E5F" unicode="&#x1e5f;" horiz-adv-x="355" 
d="M191 -103v-24h-181v24h181zM87 0v500h25l2 -121q18 57 60.5 94t102.5 37q24 0 41 -5.5t27 -15.5l-10 -24q-10 9 -23 14.5t-40 5.5q-44 0 -79.5 -27.5t-56.5 -72.5t-21 -98v-287h-28z" />
    <glyph glyph-name="uni1E60" unicode="&#x1e60;" horiz-adv-x="603" 
d="M300 670q92 0 154.5 -36.5t88.5 -114.5l-23 -17q-23 74 -79.5 108.5t-142.5 34.5q-63 0 -109 -21t-71 -55.5t-25 -77.5q0 -54 36 -87.5t126 -52.5l120 -25q98 -21 138.5 -58t40.5 -98q0 -54 -30.5 -94.5t-84.5 -63t-127 -22.5q-69 0 -125 19t-93.5 57t-51.5 94l26 18
q10 -55 44.5 -91t86 -54t114.5 -18q60 0 108 17.5t76.5 52t28.5 83.5t-36 81t-123 49l-122 27q-65 14 -104.5 36t-58 53.5t-18.5 74.5q0 48 28.5 89t81 66.5t126.5 25.5zM297 816q13 0 21 -8t8 -21t-8 -21t-21 -8t-21 8t-8 21t8 21t21 8z" />
    <glyph glyph-name="uni1E61" unicode="&#x1e61;" horiz-adv-x="488" 
d="M246 -10q-77 0 -133.5 30.5t-74.5 90.5l25 15q15 -55 64.5 -83t122.5 -28q75 0 118.5 30t43.5 81q0 35 -22.5 59.5t-83.5 36.5l-115 25q-70 15 -100 47.5t-30 76.5q0 40 24 71t66.5 49.5t96.5 18.5q76 0 124 -30t64 -92l-24 -15q-14 59 -56.5 86t-107.5 27
q-47 0 -82.5 -14.5t-56 -39.5t-20.5 -57q0 -35 23.5 -61.5t81.5 -39.5l118 -26q71 -16 99.5 -45.5t28.5 -74.5q0 -42 -24 -73.5t-67.5 -48t-102.5 -16.5zM244 656q13 0 21 -8t8 -21t-8 -21t-21 -8t-21 8t-8 21t8 21t21 8z" />
    <glyph glyph-name="uni1E62" unicode="&#x1e62;" horiz-adv-x="603" 
d="M300 670q92 0 154.5 -36.5t88.5 -114.5l-23 -17q-23 74 -79.5 108.5t-142.5 34.5q-63 0 -109 -21t-71 -55.5t-25 -77.5q0 -54 36 -87.5t126 -52.5l120 -25q98 -21 138.5 -58t40.5 -98q0 -54 -30.5 -94.5t-84.5 -63t-127 -22.5q-69 0 -125 19t-93.5 57t-51.5 94l26 18
q10 -55 44.5 -91t86 -54t114.5 -18q60 0 108 17.5t76.5 52t28.5 83.5t-36 81t-123 49l-122 27q-65 14 -104.5 36t-58 53.5t-18.5 74.5q0 48 28.5 89t81 66.5t126.5 25.5zM310 -120q3 0 5 -2t2 -5t-2 -4.5t-5 -1.5t-5 1.5t-2 4.5t2 5t5 2z" />
    <glyph glyph-name="uni1E63" unicode="&#x1e63;" horiz-adv-x="488" 
d="M246 -10q-77 0 -133.5 30.5t-74.5 90.5l25 15q15 -55 64.5 -83t122.5 -28q75 0 118.5 30t43.5 81q0 35 -22.5 59.5t-83.5 36.5l-115 25q-70 15 -100 47.5t-30 76.5q0 40 24 71t66.5 49.5t96.5 18.5q76 0 124 -30t64 -92l-24 -15q-14 59 -56.5 86t-107.5 27
q-47 0 -82.5 -14.5t-56 -39.5t-20.5 -57q0 -35 23.5 -61.5t81.5 -39.5l118 -26q71 -16 99.5 -45.5t28.5 -74.5q0 -42 -24 -73.5t-67.5 -48t-102.5 -16.5zM251 -120q3 0 5 -2t2 -5t-2 -4.5t-5 -1.5t-5 1.5t-2 4.5t2 5t5 2z" />
    <glyph glyph-name="uni1E64" unicode="&#x1e64;" horiz-adv-x="603" 
d="M300 670q92 0 154.5 -36.5t88.5 -114.5l-23 -17q-23 74 -79.5 108.5t-142.5 34.5q-63 0 -109 -21t-71 -55.5t-25 -77.5q0 -54 36 -87.5t126 -52.5l120 -25q98 -21 138.5 -58t40.5 -98q0 -54 -30.5 -94.5t-84.5 -63t-127 -22.5q-69 0 -125 19t-93.5 57t-51.5 94l26 18
q10 -55 44.5 -91t86 -54t114.5 -18q60 0 108 17.5t76.5 52t28.5 83.5t-36 81t-123 49l-122 27q-65 14 -104.5 36t-58 53.5t-18.5 74.5q0 48 28.5 89t81 66.5t126.5 25.5zM357 893h31l-80 -150h-24zM297 995q13 0 21 -8t8 -21t-8 -21t-21 -8t-21 8t-8 21t8 21t21 8z" />
    <glyph glyph-name="uni1E65" unicode="&#x1e65;" horiz-adv-x="488" 
d="M246 -10q-77 0 -133.5 30.5t-74.5 90.5l25 15q15 -55 64.5 -83t122.5 -28q75 0 118.5 30t43.5 81q0 35 -22.5 59.5t-83.5 36.5l-115 25q-70 15 -100 47.5t-30 76.5q0 40 24 71t66.5 49.5t96.5 18.5q76 0 124 -30t64 -92l-24 -15q-14 59 -56.5 86t-107.5 27
q-47 0 -82.5 -14.5t-56 -39.5t-20.5 -57q0 -35 23.5 -61.5t81.5 -39.5l118 -26q71 -16 99.5 -45.5t28.5 -74.5q0 -42 -24 -73.5t-67.5 -48t-102.5 -16.5zM312 734h31l-89 -151h-25zM244 826q13 0 21 -8t8 -21t-8 -21t-21 -8t-21 8t-8 21t8 21t21 8z" />
    <glyph glyph-name="uni1E66" unicode="&#x1e66;" horiz-adv-x="603" 
d="M300 670q92 0 154.5 -36.5t88.5 -114.5l-23 -17q-23 74 -79.5 108.5t-142.5 34.5q-63 0 -109 -21t-71 -55.5t-25 -77.5q0 -54 36 -87.5t126 -52.5l120 -25q98 -21 138.5 -58t40.5 -98q0 -54 -30.5 -94.5t-84.5 -63t-127 -22.5q-69 0 -125 19t-93.5 57t-51.5 94l26 18
q10 -55 44.5 -91t86 -54t114.5 -18q60 0 108 17.5t76.5 52t28.5 83.5t-36 81t-123 49l-122 27q-65 14 -104.5 36t-58 53.5t-18.5 74.5q0 48 28.5 89t81 66.5t126.5 25.5zM423 888l-110 -145h-32l-110 145h28l98 -125l98 125h28zM297 988q13 0 21 -8t8 -21t-8 -21t-21 -8
t-21 8t-8 21t8 21t21 8z" />
    <glyph glyph-name="uni1E67" unicode="&#x1e67;" horiz-adv-x="488" 
d="M246 -10q-77 0 -133.5 30.5t-74.5 90.5l25 15q15 -55 64.5 -83t122.5 -28q75 0 118.5 30t43.5 81q0 35 -22.5 59.5t-83.5 36.5l-115 25q-70 15 -100 47.5t-30 76.5q0 40 24 71t66.5 49.5t96.5 18.5q76 0 124 -30t64 -92l-24 -15q-14 59 -56.5 86t-107.5 27
q-47 0 -82.5 -14.5t-56 -39.5t-20.5 -57q0 -35 23.5 -61.5t81.5 -39.5l118 -26q71 -16 99.5 -45.5t28.5 -74.5q0 -42 -24 -73.5t-67.5 -48t-102.5 -16.5zM369 730l-109 -147h-32l-109 147h28l97 -127l97 127h28zM244 832q13 0 21 -8t8 -21t-8 -21t-21 -8t-21 8t-8 21t8 21
t21 8z" />
    <glyph glyph-name="uni1E68" unicode="&#x1e68;" horiz-adv-x="603" 
d="M300 670q92 0 154.5 -36.5t88.5 -114.5l-23 -17q-23 74 -79.5 108.5t-142.5 34.5q-63 0 -109 -21t-71 -55.5t-25 -77.5q0 -54 36 -87.5t126 -52.5l120 -25q98 -21 138.5 -58t40.5 -98q0 -54 -30.5 -94.5t-84.5 -63t-127 -22.5q-69 0 -125 19t-93.5 57t-51.5 94l26 18
q10 -55 44.5 -91t86 -54t114.5 -18q60 0 108 17.5t76.5 52t28.5 83.5t-36 81t-123 49l-122 27q-65 14 -104.5 36t-58 53.5t-18.5 74.5q0 48 28.5 89t81 66.5t126.5 25.5zM297 816q13 0 21 -8t8 -21t-8 -21t-21 -8t-21 8t-8 21t8 21t21 8zM310 -120q3 0 5 -2t2 -5t-2 -4.5
t-5 -1.5t-5 1.5t-2 4.5t2 5t5 2z" />
    <glyph glyph-name="uni1E69" unicode="&#x1e69;" horiz-adv-x="488" 
d="M246 -10q-77 0 -133.5 30.5t-74.5 90.5l25 15q15 -55 64.5 -83t122.5 -28q75 0 118.5 30t43.5 81q0 35 -22.5 59.5t-83.5 36.5l-115 25q-70 15 -100 47.5t-30 76.5q0 40 24 71t66.5 49.5t96.5 18.5q76 0 124 -30t64 -92l-24 -15q-14 59 -56.5 86t-107.5 27
q-47 0 -82.5 -14.5t-56 -39.5t-20.5 -57q0 -35 23.5 -61.5t81.5 -39.5l118 -26q71 -16 99.5 -45.5t28.5 -74.5q0 -42 -24 -73.5t-67.5 -48t-102.5 -16.5zM244 656q13 0 21 -8t8 -21t-8 -21t-21 -8t-21 8t-8 21t8 21t21 8zM251 -120q3 0 5 -2t2 -5t-2 -4.5t-5 -1.5t-5 1.5
t-2 4.5t2 5t5 2z" />
    <glyph glyph-name="uni1E6C" unicode="&#x1e6c;" horiz-adv-x="555" 
d="M540 660v-25h-248v-635h-28v635h-249v25h525zM278 -120q3 0 5 -2t2 -5t-2 -4.5t-5 -1.5t-5 1.5t-2 4.5t2 5t5 2z" />
    <glyph glyph-name="uni1E6D" unicode="&#x1e6d;" horiz-adv-x="346" 
d="M143 636v-508q0 -55 24 -84t74 -29q27 0 49 9.5t39 27.5l12 -23q-16 -17 -43 -28t-59 -11q-39 0 -67.5 15t-42.5 45.5t-14 75.5v502zM334 500v-24h-319v24h319zM227 -120q3 0 5 -2t2 -5t-2 -4.5t-5 -1.5t-5 1.5t-2 4.5t2 5t5 2z" />
    <glyph glyph-name="uni1E6E" unicode="&#x1e6e;" horiz-adv-x="555" 
d="M540 660v-25h-248v-635h-28v635h-249v25h525zM426 -104v-24h-296v24h296z" />
    <glyph glyph-name="uni1E6F" unicode="&#x1e6f;" horiz-adv-x="346" 
d="M143 636v-508q0 -55 24 -84t74 -29q27 0 49 9.5t39 27.5l12 -23q-16 -17 -43 -28t-59 -11q-39 0 -67.5 15t-42.5 45.5t-14 75.5v502zM334 500v-24h-319v24h319zM375 -104v-24h-296v24h296z" />
    <glyph glyph-name="uni1E78" unicode="&#x1e78;" horiz-adv-x="672" 
d="M587 660v-423q0 -120 -66 -183.5t-185 -63.5q-118 0 -184.5 63.5t-66.5 183.5v423h28v-419q0 -109 58.5 -167.5t164.5 -58.5q107 0 165 58.5t58 167.5v419h28zM499 812q-5 -31 -16.5 -52t-29.5 -31t-42 -10q-27 0 -45.5 10.5t-34 24t-31 24t-35.5 10.5q-27 0 -43 -18
t-24 -52h-24q8 47 32 70t60 23q25 0 43 -10.5t33.5 -23.5t31.5 -23.5t36 -10.5q29 0 43.5 18t21.5 51h24zM396 1022h31l-80 -150h-24z" />
    <glyph glyph-name="uni1E79" unicode="&#x1e79;" horiz-adv-x="574" 
d="M258 -10q-54 0 -94 20t-61.5 60t-21.5 98v332h28v-326q0 -79 40.5 -119t114.5 -40q49 0 86 17t61 45t36 61t12 64v298h28v-500h-26l-1 122q-18 -58 -72 -95t-130 -37zM448 671q-5 -31 -16.5 -52t-29.5 -31t-42 -10q-27 0 -45.5 10.5t-34 24t-31 24t-35.5 10.5
q-27 0 -43 -18t-24 -52h-24q8 47 32 70t60 23q25 0 43 -10.5t33.5 -23.5t31.5 -23.5t36 -10.5q29 0 43.5 18t21.5 51h24zM345 881h31l-80 -150h-24z" />
    <glyph glyph-name="uni1E7A" unicode="&#x1e7a;" horiz-adv-x="672" 
d="M587 660v-423q0 -120 -66 -183.5t-185 -63.5q-118 0 -184.5 63.5t-66.5 183.5v423h28v-419q0 -109 58.5 -167.5t164.5 -58.5q107 0 165 58.5t58 167.5v419h28zM484 750v-24h-296v24h296zM242 900q13 0 21 -8t8 -21q0 -12 -8 -20t-21 -8t-20.5 8t-7.5 21t8 20.5t20 7.5z
M428 900q13 0 21 -8t8 -21q0 -12 -8 -20t-21 -8t-20.5 8t-7.5 21t8 20.5t20 7.5z" />
    <glyph glyph-name="uni1E7B" unicode="&#x1e7b;" horiz-adv-x="574" 
d="M258 -10q-54 0 -94 20t-61.5 60t-21.5 98v332h28v-326q0 -79 40.5 -119t114.5 -40q49 0 86 17t61 45t36 61t12 64v298h28v-500h-26l-1 122q-18 -58 -72 -95t-130 -37zM433 609v-24h-296v24h296zM191 759q13 0 21 -8t8 -21q0 -12 -8 -20t-21 -8t-20.5 8t-7.5 21t8 20.5
t20 7.5zM377 759q13 0 21 -8t8 -21q0 -12 -8 -20t-21 -8t-20.5 8t-7.5 21t8 20.5t20 7.5z" />
    <glyph glyph-name="Wgrave" unicode="&#x1e80;" horiz-adv-x="919" 
d="M239 0l-214 660h30l203 -633l185 633h34l185 -634l203 634h28l-213 -660h-36l-144 488l-40 139h-1l-39 -139l-145 -488h-36zM400 893l74 -150h-24l-80 150h30z" />
    <glyph glyph-name="wgrave" unicode="&#x1e81;" horiz-adv-x="790" 
d="M731 500h30l-167 -500h-28l-171 462l-171 -462h-28l-167 500h30l151 -464l170 464h29l170 -464zM329 734l83 -151h-25l-89 151h31z" />
    <glyph glyph-name="Wacute" unicode="&#x1e82;" horiz-adv-x="919" 
d="M239 0l-214 660h30l203 -633l185 633h34l185 -634l203 634h28l-213 -660h-36l-144 488l-40 139h-1l-39 -139l-145 -488h-36zM520 893h31l-80 -150h-24z" />
    <glyph glyph-name="wacute" unicode="&#x1e83;" horiz-adv-x="790" 
d="M731 500h30l-167 -500h-28l-171 462l-171 -462h-28l-167 500h30l151 -464l170 464h29l170 -464zM463 734h31l-89 -151h-25z" />
    <glyph glyph-name="Wdieresis" unicode="&#x1e84;" horiz-adv-x="919" 
d="M239 0l-214 660h30l203 -633l185 633h34l185 -634l203 634h28l-213 -660h-36l-144 488l-40 139h-1l-39 -139l-145 -488h-36zM366 812q13 0 21 -8t8 -21q0 -12 -8 -20t-21 -8t-20.5 8t-7.5 21t8 20.5t20 7.5zM552 812q13 0 21 -8t8 -21q0 -12 -8 -20t-21 -8t-20.5 8
t-7.5 21t8 20.5t20 7.5z" />
    <glyph glyph-name="wdieresis" unicode="&#x1e85;" horiz-adv-x="790" 
d="M731 500h30l-167 -500h-28l-171 462l-171 -462h-28l-167 500h30l151 -464l170 464h29l170 -464zM301 652q13 0 21 -8t8 -21q0 -12 -8 -20t-21 -8t-20.5 8t-7.5 21t8 20.5t20 7.5zM487 652q13 0 21 -8t8 -21q0 -12 -8 -20t-21 -8t-20.5 8t-7.5 21t8 20.5t20 7.5z" />
    <glyph glyph-name="uni1E8E" unicode="&#x1e8e;" horiz-adv-x="523" 
d="M508 660l-232 -404v-256h-28v256l-233 404h33l129 -226l85 -148l84 148l129 226h33zM262 780q13 0 21 -8t8 -21t-8 -21t-21 -8t-21 8t-8 21t8 21t21 8z" />
    <glyph glyph-name="uni1E8F" unicode="&#x1e8f;" horiz-adv-x="488" 
d="M467 500l-246 -598q-18 -44 -38 -69.5t-45 -36.5t-56 -11q-28 0 -50 8.5t-35 24.5l11 23q13 -17 32.5 -24t41.5 -7q36 0 63 20t51 78l38 91l-55 128l-158 373h32l174 -419l20 -50l21 53l169 416h30zM247 638q13 0 21 -8t8 -21t-8 -21t-21 -8t-21 8t-8 21t8 21t21 8z" />
    <glyph glyph-name="uni1E92" unicode="&#x1e92;" horiz-adv-x="567" 
d="M59 15l-5 10h483v-25h-503v25l459 620l5 -10h-456v25h476v-25zM282 -120q3 0 5 -2t2 -5t-2 -4.5t-5 -1.5t-5 1.5t-2 4.5t2 5t5 2z" />
    <glyph glyph-name="uni1E93" unicode="&#x1e93;" horiz-adv-x="484" 
d="M42 0v23l318 401l45 52h-72h-297v24h401v-23l-303 -385l-58 -68h85h290v-24h-409zM240 -120q3 0 5 -2t2 -5t-2 -4.5t-5 -1.5t-5 1.5t-2 4.5t2 5t5 2z" />
    <glyph glyph-name="uni1E97" unicode="&#x1e97;" horiz-adv-x="346" 
d="M143 636v-508q0 -55 24 -84t74 -29q27 0 49 9.5t39 27.5l12 -23q-16 -17 -43 -28t-59 -11q-39 0 -67.5 15t-42.5 45.5t-14 75.5v502zM334 500v-24h-319v24h319zM35 761q13 0 21 -8t8 -21q0 -12 -8 -20t-21 -8t-20.5 8t-7.5 21t8 20.5t20 7.5zM221 761q13 0 21 -8t8 -21
q0 -12 -8 -20t-21 -8t-20.5 8t-7.5 21t8 20.5t20 7.5z" />
    <glyph glyph-name="uni1E9E" unicode="&#x1e9e;" horiz-adv-x="626" 
d="M406 -5q-61 0 -100.5 19t-57.5 40l16 23q18 -22 53.5 -39.5t87.5 -17.5q50 0 85.5 21.5t55 57.5t19.5 80q0 74 -42 110t-125 36h-104v24l230 286h-222q-56 0 -98 -25t-64.5 -68t-22.5 -100v-442h-28v443q0 65 26 114t74 76t113 27h255v-26l-232 -285h-5h82
q62 0 104.5 -18.5t64.5 -56.5t22 -95q0 -52 -22.5 -93.5t-64 -66t-100.5 -24.5z" />
    <glyph glyph-name="uni1EA0" unicode="&#x1ea0;" horiz-adv-x="600" 
d="M585 0h-29l-92 224h-328l-92 -224h-29l269 660h32zM146 250h307l-153 381zM300 -120q3 0 5 -2t2 -5t-2 -4.5t-5 -1.5t-5 1.5t-2 4.5t2 5t5 2z" />
    <glyph glyph-name="uni1EA1" unicode="&#x1ea1;" horiz-adv-x="526" 
d="M403 334q0 70 -39 111t-112 41q-61 0 -105.5 -27t-66.5 -87l-22 15q22 61 72.5 92t122.5 31q55 0 95 -20t61.5 -59t21.5 -94v-255q0 -66 55 -66q21 0 35 8l-2 -23q-15 -9 -39 -9q-18 0 -36 8t-29.5 28t-11.5 58v39l9 4q-8 -47 -39 -78t-74 -46t-87 -15q-49 0 -85 14.5
t-56 42.5t-20 68q0 56 37.5 88.5t106.5 45.5l213 42v-24l-197 -39q-66 -12 -98.5 -39.5t-32.5 -71.5q0 -49 35 -75.5t101 -26.5q30 0 62 8.5t61 27t46.5 48t17.5 70.5v165zM248 -120q3 0 5 -2t2 -5t-2 -4.5t-5 -1.5t-5 1.5t-2 4.5t2 5t5 2z" />
    <glyph glyph-name="uni1EA2" unicode="&#x1ea2;" horiz-adv-x="600" 
d="M585 0h-29l-92 224h-328l-92 -224h-29l269 660h32zM146 250h307l-153 381zM302 716l-11 15q29 16 42 33t13 39q0 19 -13 30t-33 11t-33 -10.5t-18 -24.5l-21 11q10 23 29.5 36t45.5 13q19 0 34.5 -8t24.5 -22t9 -33q0 -20 -8 -36.5t-23.5 -29.5t-37.5 -24z" />
    <glyph glyph-name="uni1EA3" unicode="&#x1ea3;" horiz-adv-x="526" 
d="M403 334q0 70 -39 111t-112 41q-61 0 -105.5 -27t-66.5 -87l-22 15q22 61 72.5 92t122.5 31q55 0 95 -20t61.5 -59t21.5 -94v-255q0 -66 55 -66q21 0 35 8l-2 -23q-15 -9 -39 -9q-18 0 -36 8t-29.5 28t-11.5 58v39l9 4q-8 -47 -39 -78t-74 -46t-87 -15q-49 0 -85 14.5
t-56 42.5t-20 68q0 56 37.5 88.5t106.5 45.5l213 42v-24l-197 -39q-66 -12 -98.5 -39.5t-32.5 -71.5q0 -49 35 -75.5t101 -26.5q30 0 62 8.5t61 27t46.5 48t17.5 70.5v165zM246 568l-11 15q30 19 44.5 37t14.5 43q0 21 -12.5 33t-34.5 12q-21 0 -33.5 -11.5t-20.5 -26.5
l-20 14q7 17 25.5 33t50.5 16q22 0 37.5 -8.5t24.5 -23.5t9 -34q0 -22 -8.5 -39.5t-25 -31.5t-40.5 -28z" />
    <glyph glyph-name="uni1EA4" unicode="&#x1ea4;" horiz-adv-x="600" 
d="M425 742h-28l-97 126l-97 -126h-28l109 146h32zM463 990h27l-71 -135h-21zM585 0h-29l-92 224h-328l-92 -224h-29l269 660h32zM146 250h307l-153 381z" />
    <glyph glyph-name="uni1EA5" unicode="&#x1ea5;" horiz-adv-x="526" 
d="M373 582h-27l-98 126l-97 -126h-27l109 146h31zM412 830h27l-72 -135h-21zM403 334q0 70 -39 111t-112 41q-61 0 -105.5 -27t-66.5 -87l-22 15q22 61 72.5 92t122.5 31q55 0 95 -20t61.5 -59t21.5 -94v-255q0 -66 55 -66q21 0 35 8l-2 -23q-15 -9 -39 -9q-18 0 -36 8
t-29.5 28t-11.5 58v39l9 4q-8 -47 -39 -78t-74 -46t-87 -15q-49 0 -85 14.5t-56 42.5t-20 68q0 56 37.5 88.5t106.5 45.5l213 42v-24l-197 -39q-66 -12 -98.5 -39.5t-32.5 -71.5q0 -49 35 -75.5t101 -26.5q30 0 62 8.5t61 27t46.5 48t17.5 70.5v165z" />
    <glyph glyph-name="uni1EA6" unicode="&#x1ea6;" horiz-adv-x="600" 
d="M425 742h-28l-97 126l-97 -126h-28l109 146h32zM369 990l66 -135h-21l-72 135h27zM585 0h-29l-92 224h-328l-92 -224h-29l269 660h32zM146 250h307l-153 381z" />
    <glyph glyph-name="uni1EA7" unicode="&#x1ea7;" horiz-adv-x="526" 
d="M373 582h-27l-98 126l-97 -126h-27l109 146h31zM318 830l65 -135h-21l-71 135h27zM403 334q0 70 -39 111t-112 41q-61 0 -105.5 -27t-66.5 -87l-22 15q22 61 72.5 92t122.5 31q55 0 95 -20t61.5 -59t21.5 -94v-255q0 -66 55 -66q21 0 35 8l-2 -23q-15 -9 -39 -9
q-18 0 -36 8t-29.5 28t-11.5 58v39l9 4q-8 -47 -39 -78t-74 -46t-87 -15q-49 0 -85 14.5t-56 42.5t-20 68q0 56 37.5 88.5t106.5 45.5l213 42v-24l-197 -39q-66 -12 -98.5 -39.5t-32.5 -71.5q0 -49 35 -75.5t101 -26.5q30 0 62 8.5t61 27t46.5 48t17.5 70.5v165z" />
    <glyph glyph-name="uni1EA8" unicode="&#x1ea8;" horiz-adv-x="600" 
d="M425 742h-28l-97 126l-97 -126h-28l109 146h32zM410 835l-12 15q29 17 42 33.5t13 38.5q0 19 -12.5 30.5t-32.5 11.5q-21 0 -33.5 -10.5t-18.5 -25.5l-20 12q9 22 29 35t45 13q20 0 35.5 -7.5t24.5 -22t9 -32.5q0 -21 -8 -37.5t-23.5 -29t-37.5 -24.5zM585 0h-29l-92 224
h-328l-92 -224h-29l269 660h32zM146 250h307l-153 381z" />
    <glyph glyph-name="uni1EA9" unicode="&#x1ea9;" horiz-adv-x="526" 
d="M373 582h-27l-98 126l-97 -126h-27l109 146h31zM358 675l-11 15q29 17 42 33.5t13 38.5q0 19 -13 30.5t-33 11.5t-33 -10.5t-18 -25.5l-20 12q9 22 28.5 35t45.5 13q20 0 35 -7.5t24 -22t9 -32.5q0 -21 -8 -37.5t-23.5 -29t-37.5 -24.5zM403 334q0 70 -39 111t-112 41
q-61 0 -105.5 -27t-66.5 -87l-22 15q22 61 72.5 92t122.5 31q55 0 95 -20t61.5 -59t21.5 -94v-255q0 -66 55 -66q21 0 35 8l-2 -23q-15 -9 -39 -9q-18 0 -36 8t-29.5 28t-11.5 58v39l9 4q-8 -47 -39 -78t-74 -46t-87 -15q-49 0 -85 14.5t-56 42.5t-20 68q0 56 37.5 88.5
t106.5 45.5l213 42v-24l-197 -39q-66 -12 -98.5 -39.5t-32.5 -71.5q0 -49 35 -75.5t101 -26.5q30 0 62 8.5t61 27t46.5 48t17.5 70.5v165z" />
    <glyph glyph-name="uni1EAA" unicode="&#x1eaa;" horiz-adv-x="600" 
d="M425 742h-28l-97 126l-97 -126h-28l109 146h32zM454 1005q-7 -47 -28.5 -68.5t-56.5 -21.5q-28 0 -45 10t-29.5 23.5t-26.5 23.5t-37 10q-26 0 -39.5 -16.5t-20.5 -49.5h-24q7 47 29 68.5t56 21.5q27 0 44 -10.5t29.5 -23.5t27 -23.5t36.5 -10.5q27 0 41 16.5t20 50.5h24
zM585 0h-29l-92 224h-328l-92 -224h-29l269 660h32zM146 250h307l-153 381z" />
    <glyph glyph-name="uni1EAB" unicode="&#x1eab;" horiz-adv-x="526" 
d="M373 582h-27l-98 126l-97 -126h-27l109 146h31zM403 845q-8 -47 -29.5 -68.5t-56.5 -21.5q-28 0 -44.5 10t-29 23.5t-27 23.5t-36.5 10q-27 0 -40 -16.5t-21 -49.5h-24q8 47 29.5 68.5t56.5 21.5q27 0 44 -10.5t29.5 -23.5t26.5 -23.5t36 -10.5q28 0 41.5 16.5t20.5 50.5
h24zM403 334q0 70 -39 111t-112 41q-61 0 -105.5 -27t-66.5 -87l-22 15q22 61 72.5 92t122.5 31q55 0 95 -20t61.5 -59t21.5 -94v-255q0 -66 55 -66q21 0 35 8l-2 -23q-15 -9 -39 -9q-18 0 -36 8t-29.5 28t-11.5 58v39l9 4q-8 -47 -39 -78t-74 -46t-87 -15q-49 0 -85 14.5
t-56 42.5t-20 68q0 56 37.5 88.5t106.5 45.5l213 42v-24l-197 -39q-66 -12 -98.5 -39.5t-32.5 -71.5q0 -49 35 -75.5t101 -26.5q30 0 62 8.5t61 27t46.5 48t17.5 70.5v165z" />
    <glyph glyph-name="uni1EAC" unicode="&#x1eac;" horiz-adv-x="600" 
d="M585 0h-29l-92 224h-328l-92 -224h-29l269 660h32zM146 250h307l-153 381zM300 -120q3 0 5 -2t2 -5t-2 -4.5t-5 -1.5t-5 1.5t-2 4.5t2 5t5 2zM426 743h-28l-98 125l-98 -125h-28l110 145h32z" />
    <glyph glyph-name="uni1EAD" unicode="&#x1ead;" horiz-adv-x="526" 
d="M403 334q0 70 -39 111t-112 41q-61 0 -105.5 -27t-66.5 -87l-22 15q22 61 72.5 92t122.5 31q55 0 95 -20t61.5 -59t21.5 -94v-255q0 -66 55 -66q21 0 35 8l-2 -23q-15 -9 -39 -9q-18 0 -36 8t-29.5 28t-11.5 58v39l9 4q-8 -47 -39 -78t-74 -46t-87 -15q-49 0 -85 14.5
t-56 42.5t-20 68q0 56 37.5 88.5t106.5 45.5l213 42v-24l-197 -39q-66 -12 -98.5 -39.5t-32.5 -71.5q0 -49 35 -75.5t101 -26.5q30 0 62 8.5t61 27t46.5 48t17.5 70.5v165zM248 -120q3 0 5 -2t2 -5t-2 -4.5t-5 -1.5t-5 1.5t-2 4.5t2 5t5 2zM373 582h-28l-97 126l-97 -126
h-28l109 146h32z" />
    <glyph glyph-name="uni1EAE" unicode="&#x1eae;" horiz-adv-x="600" 
d="M426 866q0 -58 -33.5 -92t-92.5 -34t-92.5 34t-33.5 92h23q1 -46 27.5 -74.5t75.5 -28.5t75.5 28.5t26.5 74.5h24zM286 871l61 135h28l-66 -135h-23zM585 0h-29l-92 224h-328l-92 -224h-29l269 660h32zM146 250h307l-153 381z" />
    <glyph glyph-name="uni1EAF" unicode="&#x1eaf;" horiz-adv-x="526" 
d="M374 706q0 -58 -33.5 -92t-92.5 -34q-58 0 -92 34t-34 92h24q0 -46 26.5 -74.5t75.5 -28.5q50 0 76.5 28.5t26.5 74.5h23zM234 711l61 135h29l-67 -135h-23zM403 334q0 70 -39 111t-112 41q-61 0 -105.5 -27t-66.5 -87l-22 15q22 61 72.5 92t122.5 31q55 0 95 -20
t61.5 -59t21.5 -94v-255q0 -66 55 -66q21 0 35 8l-2 -23q-15 -9 -39 -9q-18 0 -36 8t-29.5 28t-11.5 58v39l9 4q-8 -47 -39 -78t-74 -46t-87 -15q-49 0 -85 14.5t-56 42.5t-20 68q0 56 37.5 88.5t106.5 45.5l213 42v-24l-197 -39q-66 -12 -98.5 -39.5t-32.5 -71.5
q0 -49 35 -75.5t101 -26.5q30 0 62 8.5t61 27t46.5 48t17.5 70.5v165z" />
    <glyph glyph-name="uni1EB0" unicode="&#x1eb0;" horiz-adv-x="600" 
d="M426 866q0 -58 -33.5 -92t-92.5 -34t-92.5 34t-33.5 92h23q1 -46 27.5 -74.5t75.5 -28.5t75.5 28.5t26.5 74.5h24zM314 871h-23l-66 135h28zM585 0h-29l-92 224h-328l-92 -224h-29l269 660h32zM146 250h307l-153 381z" />
    <glyph glyph-name="uni1EB1" unicode="&#x1eb1;" horiz-adv-x="526" 
d="M374 706q0 -58 -33.5 -92t-92.5 -34q-58 0 -92 34t-34 92h24q0 -46 26.5 -74.5t75.5 -28.5q50 0 76.5 28.5t26.5 74.5h23zM262 711h-23l-66 135h29zM403 334q0 70 -39 111t-112 41q-61 0 -105.5 -27t-66.5 -87l-22 15q22 61 72.5 92t122.5 31q55 0 95 -20t61.5 -59
t21.5 -94v-255q0 -66 55 -66q21 0 35 8l-2 -23q-15 -9 -39 -9q-18 0 -36 8t-29.5 28t-11.5 58v39l9 4q-8 -47 -39 -78t-74 -46t-87 -15q-49 0 -85 14.5t-56 42.5t-20 68q0 56 37.5 88.5t106.5 45.5l213 42v-24l-197 -39q-66 -12 -98.5 -39.5t-32.5 -71.5q0 -49 35 -75.5
t101 -26.5q30 0 62 8.5t61 27t46.5 48t17.5 70.5v165z" />
    <glyph glyph-name="uni1EB2" unicode="&#x1eb2;" horiz-adv-x="600" 
d="M426 866q0 -58 -33.5 -92t-92.5 -34t-92.5 34t-33.5 92h23q1 -46 27.5 -74.5t75.5 -28.5t75.5 28.5t26.5 74.5h24zM302 864l-12 15q29 16 42 33t13 39q0 19 -12.5 30t-32.5 11q-21 0 -33.5 -10.5t-18.5 -24.5l-20 11q9 23 28.5 36t45.5 13q20 0 35 -8t24 -22t9 -33
q0 -20 -7.5 -36.5t-23.5 -29.5t-37 -24zM585 0h-29l-92 224h-328l-92 -224h-29l269 660h32zM146 250h307l-153 381z" />
    <glyph glyph-name="uni1EB3" unicode="&#x1eb3;" horiz-adv-x="526" 
d="M374 706q0 -58 -33.5 -92t-92.5 -34q-58 0 -92 34t-34 92h24q0 -46 26.5 -74.5t75.5 -28.5q50 0 76.5 28.5t26.5 74.5h23zM250 704l-12 15q30 16 43 33t13 39q0 19 -13 30t-33 11t-33 -10.5t-18 -24.5l-21 11q10 23 29.5 36t44.5 13q20 0 35.5 -8t24.5 -22t9 -33
q0 -20 -8 -36.5t-23.5 -29.5t-37.5 -24zM403 334q0 70 -39 111t-112 41q-61 0 -105.5 -27t-66.5 -87l-22 15q22 61 72.5 92t122.5 31q55 0 95 -20t61.5 -59t21.5 -94v-255q0 -66 55 -66q21 0 35 8l-2 -23q-15 -9 -39 -9q-18 0 -36 8t-29.5 28t-11.5 58v39l9 4
q-8 -47 -39 -78t-74 -46t-87 -15q-49 0 -85 14.5t-56 42.5t-20 68q0 56 37.5 88.5t106.5 45.5l213 42v-24l-197 -39q-66 -12 -98.5 -39.5t-32.5 -71.5q0 -49 35 -75.5t101 -26.5q30 0 62 8.5t61 27t46.5 48t17.5 70.5v165z" />
    <glyph glyph-name="uni1EB4" unicode="&#x1eb4;" horiz-adv-x="600" 
d="M425 866q0 -58 -33.5 -92t-92.5 -34q-58 0 -92 34t-34 92h24q0 -46 26.5 -74.5t75.5 -28.5t76 28.5t27 74.5h23zM454 995q-8 -47 -29.5 -68.5t-56.5 -21.5q-28 0 -44.5 10t-29.5 23.5t-27 23.5t-36 10q-27 0 -40 -16.5t-21 -49.5h-24q8 47 29.5 68.5t56.5 21.5
q27 0 43.5 -10.5t29.5 -23.5t27 -23.5t36 -10.5q28 0 41.5 17t20.5 50h24zM585 0h-29l-92 224h-328l-92 -224h-29l269 660h32zM146 250h307l-153 381z" />
    <glyph glyph-name="uni1EB5" unicode="&#x1eb5;" horiz-adv-x="526" 
d="M374 706q0 -58 -34 -92t-92 -34q-59 0 -92.5 34t-33.5 92h23q0 -46 27 -74.5t76 -28.5t75.5 28.5t26.5 74.5h24zM402 835q-7 -47 -28.5 -68.5t-56.5 -21.5q-28 0 -45 10t-29.5 23.5t-26.5 23.5t-37 10q-26 0 -39.5 -16.5t-20.5 -49.5h-24q7 47 29 68.5t56 21.5
q27 0 44 -10.5t29.5 -23.5t26.5 -23.5t37 -10.5q27 0 41 17t20 50h24zM403 334q0 70 -39 111t-112 41q-61 0 -105.5 -27t-66.5 -87l-22 15q22 61 72.5 92t122.5 31q55 0 95 -20t61.5 -59t21.5 -94v-255q0 -66 55 -66q21 0 35 8l-2 -23q-15 -9 -39 -9q-18 0 -36 8t-29.5 28
t-11.5 58v39l9 4q-8 -47 -39 -78t-74 -46t-87 -15q-49 0 -85 14.5t-56 42.5t-20 68q0 56 37.5 88.5t106.5 45.5l213 42v-24l-197 -39q-66 -12 -98.5 -39.5t-32.5 -71.5q0 -49 35 -75.5t101 -26.5q30 0 62 8.5t61 27t46.5 48t17.5 70.5v165z" />
    <glyph glyph-name="uni1EB6" unicode="&#x1eb6;" horiz-adv-x="600" 
d="M585 0h-29l-92 224h-328l-92 -224h-29l269 660h32zM146 250h307l-153 381zM300 -120q3 0 5 -2t2 -5t-2 -4.5t-5 -1.5t-5 1.5t-2 4.5t2 5t5 2zM426 866q0 -58 -33.5 -92t-92.5 -34t-92.5 34t-33.5 92h24q0 -46 26.5 -74.5t75.5 -28.5t75.5 28.5t27.5 74.5h23z" />
    <glyph glyph-name="uni1EB7" unicode="&#x1eb7;" horiz-adv-x="526" 
d="M403 334q0 70 -39 111t-112 41q-61 0 -105.5 -27t-66.5 -87l-22 15q22 61 72.5 92t122.5 31q55 0 95 -20t61.5 -59t21.5 -94v-255q0 -66 55 -66q21 0 35 8l-2 -23q-15 -9 -39 -9q-18 0 -36 8t-29.5 28t-11.5 58v39l9 4q-8 -47 -39 -78t-74 -46t-87 -15q-49 0 -85 14.5
t-56 42.5t-20 68q0 56 37.5 88.5t106.5 45.5l213 42v-24l-197 -39q-66 -12 -98.5 -39.5t-32.5 -71.5q0 -49 35 -75.5t101 -26.5q30 0 62 8.5t61 27t46.5 48t17.5 70.5v165zM248 -120q3 0 5 -2t2 -5t-2 -4.5t-5 -1.5t-5 1.5t-2 4.5t2 5t5 2zM374 706q0 -58 -33.5 -92
t-92.5 -34t-92.5 34t-33.5 92h24q0 -46 26.5 -74.5t75.5 -28.5t75.5 28.5t27.5 74.5h23z" />
    <glyph glyph-name="uni1EB8" unicode="&#x1eb8;" 
d="M101 0v660h442v-25h-414v-286h330v-25h-330v-299h430v-25h-458zM336 -120q3 0 5 -2t2 -5t-2 -4.5t-5 -1.5t-5 1.5t-2 4.5t2 5t5 2z" />
    <glyph glyph-name="uni1EB9" unicode="&#x1eb9;" horiz-adv-x="542" 
d="M287 -10q-67 0 -120 31t-84 89.5t-31 139.5q0 82 30.5 140t81.5 89t115 31q67 0 114.5 -30t73 -84.5t25.5 -129.5v-8.5t-1 -7.5h-422v25h410l-13 -6q-1 97 -49.5 157t-137.5 60q-57 0 -102 -28.5t-71 -81t-26 -126.5t26.5 -126.5t73 -80.5t106.5 -28t107 28t72 77l22 -12
q-17 -37 -47 -63t-69 -40.5t-84 -14.5zM287 -120q3 0 5 -2t2 -5t-2 -4.5t-5 -1.5t-5 1.5t-2 4.5t2 5t5 2z" />
    <glyph glyph-name="uni1EBA" unicode="&#x1eba;" 
d="M101 0v660h442v-25h-414v-286h330v-25h-330v-299h430v-25h-458zM324 716l-11 15q29 16 42 33t13 39q0 19 -13 30t-33 11t-33 -10.5t-18 -24.5l-21 11q10 23 29.5 36t45.5 13q19 0 34.5 -8t24.5 -22t9 -33q0 -20 -8 -36.5t-23.5 -29.5t-37.5 -24z" />
    <glyph glyph-name="uni1EBB" unicode="&#x1ebb;" horiz-adv-x="542" 
d="M287 -10q-67 0 -120 31t-84 89.5t-31 139.5q0 82 30.5 140t81.5 89t115 31q67 0 114.5 -30t73 -84.5t25.5 -129.5v-8.5t-1 -7.5h-422v25h410l-13 -6q-1 97 -49.5 157t-137.5 60q-57 0 -102 -28.5t-71 -81t-26 -126.5t26.5 -126.5t73 -80.5t106.5 -28t107 28t72 77l22 -12
q-17 -37 -47 -63t-69 -40.5t-84 -14.5zM272 568l-11 15q30 19 44.5 37t14.5 43q0 21 -12.5 33t-34.5 12q-21 0 -33.5 -11.5t-20.5 -26.5l-20 14q7 17 25.5 33t50.5 16q22 0 37.5 -8.5t24.5 -23.5t9 -34q0 -22 -8.5 -39.5t-25 -31.5t-40.5 -28z" />
    <glyph glyph-name="uni1EBC" unicode="&#x1ebc;" 
d="M101 0v660h442v-25h-414v-286h330v-25h-330v-299h430v-25h-458zM485 849q-5 -31 -16.5 -52t-29.5 -31t-42 -10q-27 0 -45.5 10.5t-34 24t-31 24t-35.5 10.5q-27 0 -43 -18t-24 -52h-24q8 47 32 70t60 23q25 0 43 -10.5t33.5 -23.5t31.5 -23.5t36 -10.5q29 0 43.5 18
t21.5 51h24z" />
    <glyph glyph-name="uni1EBD" unicode="&#x1ebd;" horiz-adv-x="542" 
d="M287 -10q-67 0 -120 31t-84 89.5t-31 139.5q0 82 30.5 140t81.5 89t115 31q67 0 114.5 -30t73 -84.5t25.5 -129.5v-8.5t-1 -7.5h-422v25h410l-13 -6q-1 97 -49.5 157t-137.5 60q-57 0 -102 -28.5t-71 -81t-26 -126.5t26.5 -126.5t73 -80.5t106.5 -28t107 28t72 77l22 -12
q-17 -37 -47 -63t-69 -40.5t-84 -14.5zM438 689q-5 -31 -16.5 -52t-29.5 -31t-42 -10q-27 0 -45.5 10.5t-34 24t-31 24t-35.5 10.5q-27 0 -43 -18t-24 -52h-24q8 47 32 70t60 23q25 0 43 -10.5t33.5 -23.5t31.5 -23.5t36 -10.5q29 0 43.5 18t21.5 51h24z" />
    <glyph glyph-name="uni1EBE" unicode="&#x1ebe;" 
d="M447 742h-27l-98 126l-97 -126h-28l109 146h32zM485 990h28l-72 -135h-21zM101 0v660h442v-25h-414v-286h330v-25h-330v-299h430v-25h-458z" />
    <glyph glyph-name="uni1EBF" unicode="&#x1ebf;" horiz-adv-x="542" 
d="M438 830h27l-71 -135h-22zM400 582h-28l-97 126l-98 -126h-27l109 146h32zM287 -10q-67 0 -120 31t-84 89.5t-31 139.5q0 82 30.5 140t81.5 89t115 31q67 0 114.5 -30t73 -84.5t25.5 -129.5v-8.5t-1 -7.5h-422v25h410l-13 -6q-1 97 -49.5 157t-137.5 60q-57 0 -102 -28.5
t-71 -81t-26 -126.5t26.5 -126.5t73 -80.5t106.5 -28t107 28t72 77l22 -12q-17 -37 -47 -63t-69 -40.5t-84 -14.5z" />
    <glyph glyph-name="uni1EC0" unicode="&#x1ec0;" 
d="M447 742h-27l-98 126l-97 -126h-28l109 146h32zM391 990l66 -135h-21l-72 135h27zM101 0v660h442v-25h-414v-286h330v-25h-330v-299h430v-25h-458z" />
    <glyph glyph-name="uni1EC1" unicode="&#x1ec1;" horiz-adv-x="542" 
d="M344 830l66 -135h-22l-71 135h27zM400 582h-28l-97 126l-98 -126h-27l109 146h32zM287 -10q-67 0 -120 31t-84 89.5t-31 139.5q0 82 30.5 140t81.5 89t115 31q67 0 114.5 -30t73 -84.5t25.5 -129.5v-8.5t-1 -7.5h-422v25h410l-13 -6q-1 97 -49.5 157t-137.5 60
q-57 0 -102 -28.5t-71 -81t-26 -126.5t26.5 -126.5t73 -80.5t106.5 -28t107 28t72 77l22 -12q-17 -37 -47 -63t-69 -40.5t-84 -14.5z" />
    <glyph glyph-name="uni1EC2" unicode="&#x1ec2;" 
d="M447 742h-27l-98 126l-97 -126h-28l109 146h32zM432 835l-12 15q30 17 43 33.5t13 38.5q0 19 -13 30.5t-33 11.5q-21 0 -33.5 -10.5t-18.5 -25.5l-20 12q10 22 29.5 35t44.5 13q20 0 35.5 -7.5t24.5 -22t9 -32.5q0 -21 -8 -37.5t-23.5 -29t-37.5 -24.5zM101 0v660h442
v-25h-414v-286h330v-25h-330v-299h430v-25h-458z" />
    <glyph glyph-name="uni1EC3" unicode="&#x1ec3;" horiz-adv-x="542" 
d="M385 675l-12 15q29 17 42 33.5t13 38.5q0 19 -12.5 30.5t-32.5 11.5q-21 0 -33.5 -10.5t-18.5 -25.5l-20 12q9 22 28.5 35t45.5 13q20 0 35 -7.5t24 -22t9 -32.5q0 -21 -7.5 -37.5t-23.5 -29t-37 -24.5zM400 582h-28l-97 126l-98 -126h-27l109 146h32zM287 -10
q-67 0 -120 31t-84 89.5t-31 139.5q0 82 30.5 140t81.5 89t115 31q67 0 114.5 -30t73 -84.5t25.5 -129.5v-8.5t-1 -7.5h-422v25h410l-13 -6q-1 97 -49.5 157t-137.5 60q-57 0 -102 -28.5t-71 -81t-26 -126.5t26.5 -126.5t73 -80.5t106.5 -28t107 28t72 77l22 -12
q-17 -37 -47 -63t-69 -40.5t-84 -14.5z" />
    <glyph glyph-name="uni1EC4" unicode="&#x1ec4;" 
d="M447 742h-27l-98 126l-97 -126h-28l109 146h32zM477 1005q-8 -47 -29.5 -68.5t-56.5 -21.5q-28 0 -45 10t-29.5 23.5t-26.5 23.5t-36 10q-27 0 -40.5 -16.5t-20.5 -49.5h-24q7 47 29 68.5t57 21.5q27 0 43.5 -10.5t29.5 -23.5t27 -23.5t36 -10.5q27 0 41 16.5t21 50.5h24
zM101 0v660h442v-25h-414v-286h330v-25h-330v-299h430v-25h-458z" />
    <glyph glyph-name="uni1EC5" unicode="&#x1ec5;" horiz-adv-x="542" 
d="M400 582h-28l-97 126l-98 -126h-27l109 146h32zM429 845q-7 -47 -28.5 -68.5t-56.5 -21.5q-28 0 -45 10t-29.5 23.5t-26.5 23.5t-37 10q-26 0 -39.5 -16.5t-20.5 -49.5h-24q7 47 29 68.5t56 21.5q27 0 44 -10.5t29.5 -23.5t26.5 -23.5t37 -10.5q27 0 41 16.5t20 50.5h24z
M287 -10q-67 0 -120 31t-84 89.5t-31 139.5q0 82 30.5 140t81.5 89t115 31q67 0 114.5 -30t73 -84.5t25.5 -129.5v-8.5t-1 -7.5h-422v25h410l-13 -6q-1 97 -49.5 157t-137.5 60q-57 0 -102 -28.5t-71 -81t-26 -126.5t26.5 -126.5t73 -80.5t106.5 -28t107 28t72 77l22 -12
q-17 -37 -47 -63t-69 -40.5t-84 -14.5z" />
    <glyph glyph-name="uni1EC6" unicode="&#x1ec6;" 
d="M101 0v660h442v-25h-414v-286h330v-25h-330v-299h430v-25h-458zM336 -120q3 0 5 -2t2 -5t-2 -4.5t-5 -1.5t-5 1.5t-2 4.5t2 5t5 2zM448 743h-28l-98 125l-98 -125h-28l110 145h32z" />
    <glyph glyph-name="uni1EC7" unicode="&#x1ec7;" horiz-adv-x="542" 
d="M287 -10q-67 0 -120 31t-84 89.5t-31 139.5q0 82 30.5 140t81.5 89t115 31q67 0 114.5 -30t73 -84.5t25.5 -129.5v-8.5t-1 -7.5h-422v25h410l-13 -6q-1 97 -49.5 157t-137.5 60q-57 0 -102 -28.5t-71 -81t-26 -126.5t26.5 -126.5t73 -80.5t106.5 -28t107 28t72 77l22 -12
q-17 -37 -47 -63t-69 -40.5t-84 -14.5zM287 -120q3 0 5 -2t2 -5t-2 -4.5t-5 -1.5t-5 1.5t-2 4.5t2 5t5 2zM400 582h-28l-97 126l-97 -126h-28l109 146h32z" />
    <glyph glyph-name="uni1EC8" unicode="&#x1ec8;" horiz-adv-x="229" 
d="M129 660v-660h-28v660h28zM116 716l-11 15q29 16 42 33t13 39q0 19 -13 30t-33 11t-33 -10.5t-18 -24.5l-21 11q10 23 29.5 36t45.5 13q19 0 34.5 -8t24.5 -22t9 -33q0 -20 -8 -36.5t-23.5 -29.5t-37.5 -24z" />
    <glyph glyph-name="uni1EC9" unicode="&#x1ec9;" horiz-adv-x="201" 
d="M115 500v-500h-28v500h28zM98 568l-11 15q30 19 44.5 37t14.5 43q0 21 -12.5 33t-34.5 12q-21 0 -33.5 -11.5t-20.5 -26.5l-20 14q7 17 25.5 33t50.5 16q22 0 37.5 -8.5t24.5 -23.5t9 -34q0 -22 -8.5 -39.5t-25 -31.5t-40.5 -28z" />
    <glyph glyph-name="uni1ECA" unicode="&#x1eca;" horiz-adv-x="229" 
d="M129 660v-660h-28v660h28zM115 -120q3 0 5 -2t2 -5t-2 -4.5t-5 -1.5t-5 1.5t-2 4.5t2 5t5 2z" />
    <glyph glyph-name="uni1ECB" unicode="&#x1ecb;" horiz-adv-x="201" 
d="M100 598q-13 0 -21 8t-8 21t8 21t22 8q13 0 21 -8t8 -21t-8 -21t-22 -8zM115 500v-500h-28v500h28zM101 -120q3 0 5 -2t2 -5t-2 -4.5t-5 -1.5t-5 1.5t-2 4.5t2 5t5 2z" />
    <glyph glyph-name="uni1ECC" unicode="&#x1ecc;" horiz-adv-x="720" 
d="M360 670q93 0 161 -41.5t104.5 -117.5t36.5 -181t-36.5 -181t-104.5 -117.5t-161 -41.5q-92 0 -160 41.5t-105 117.5t-37 181t37 181t105 117.5t160 41.5zM360 645q-83 0 -144.5 -38.5t-95 -109t-33.5 -167.5t33.5 -167.5t95 -109t144.5 -38.5q85 0 145.5 38.5t94 109
t33.5 167.5t-33.5 167.5t-94 109t-145.5 38.5zM360 -120q3 0 5 -2t2 -5t-2 -4.5t-5 -1.5t-5 1.5t-2 4.5t2 5t5 2z" />
    <glyph glyph-name="uni1ECD" unicode="&#x1ecd;" horiz-adv-x="575" 
d="M287 510q70 0 123 -31t83 -89.5t30 -139.5t-30 -139.5t-83 -89.5t-123 -31q-68 0 -121 31t-83.5 89.5t-30.5 139.5t30.5 139.5t83.5 89.5t121 31zM288 486q-62 0 -108.5 -28.5t-73 -81t-26.5 -126.5q0 -73 26.5 -126t73 -81.5t108.5 -28.5q61 0 108 28.5t73 81.5t26 126
q0 74 -26 126.5t-73 81t-108 28.5zM288 -120q3 0 5 -2t2 -5t-2 -4.5t-5 -1.5t-5 1.5t-2 4.5t2 5t5 2z" />
    <glyph glyph-name="uni1ECE" unicode="&#x1ece;" horiz-adv-x="720" 
d="M360 670q93 0 161 -41.5t104.5 -117.5t36.5 -181t-36.5 -181t-104.5 -117.5t-161 -41.5q-92 0 -160 41.5t-105 117.5t-37 181t37 181t105 117.5t160 41.5zM360 645q-83 0 -144.5 -38.5t-95 -109t-33.5 -167.5t33.5 -167.5t95 -109t144.5 -38.5q85 0 145.5 38.5t94 109
t33.5 167.5t-33.5 167.5t-94 109t-145.5 38.5zM362 716l-11 15q29 16 42 33t13 39q0 19 -13 30t-33 11t-33 -10.5t-18 -24.5l-21 11q10 23 29.5 36t45.5 13q19 0 34.5 -8t24.5 -22t9 -33q0 -20 -8 -36.5t-23.5 -29.5t-37.5 -24z" />
    <glyph glyph-name="uni1ECF" unicode="&#x1ecf;" horiz-adv-x="575" 
d="M287 510q70 0 123 -31t83 -89.5t30 -139.5t-30 -139.5t-83 -89.5t-123 -31q-68 0 -121 31t-83.5 89.5t-30.5 139.5t30.5 139.5t83.5 89.5t121 31zM288 486q-62 0 -108.5 -28.5t-73 -81t-26.5 -126.5q0 -73 26.5 -126t73 -81.5t108.5 -28.5q61 0 108 28.5t73 81.5t26 126
q0 74 -26 126.5t-73 81t-108 28.5zM285 565l-11 15q30 19 44.5 37t14.5 43q0 21 -12.5 33t-34.5 12q-21 0 -33.5 -11.5t-20.5 -26.5l-20 14q7 17 25.5 33t50.5 16q22 0 37.5 -8.5t24.5 -23.5t9 -34q0 -22 -8.5 -39.5t-25 -31.5t-40.5 -28z" />
    <glyph glyph-name="uni1ED0" unicode="&#x1ed0;" horiz-adv-x="720" 
d="M485 742h-27l-98 126l-97 -126h-28l109 146h32zM524 990h27l-72 -135h-21zM360 670q93 0 161 -41.5t104.5 -117.5t36.5 -181t-36.5 -181t-104.5 -117.5t-161 -41.5q-92 0 -160 41.5t-105 117.5t-37 181t37 181t105 117.5t160 41.5zM360 645q-83 0 -144.5 -38.5t-95 -109
t-33.5 -167.5t33.5 -167.5t95 -109t144.5 -38.5q85 0 145.5 38.5t94 109t33.5 167.5t-33.5 167.5t-94 109t-145.5 38.5z" />
    <glyph glyph-name="uni1ED1" unicode="&#x1ed1;" horiz-adv-x="575" 
d="M451 826h27l-71 -135h-22zM413 578h-28l-97 127l-98 -127h-27l109 147h32zM288 510q69 0 122 -31t83 -89.5t30 -139.5t-30 -139.5t-83 -89.5t-122 -31t-122 31t-83.5 89.5t-30.5 139.5t30.5 139.5t83.5 89.5t122 31zM288 486q-62 0 -108.5 -28.5t-73 -81t-26.5 -126.5
q0 -73 26.5 -126t73 -81.5t108.5 -28.5q61 0 108 28.5t73 81.5t26 126q0 74 -26 126.5t-73 81t-108 28.5z" />
    <glyph glyph-name="uni1ED2" unicode="&#x1ed2;" horiz-adv-x="720" 
d="M485 742h-27l-98 126l-97 -126h-28l109 146h32zM430 990l65 -135h-21l-72 135h28zM360 670q93 0 161 -41.5t104.5 -117.5t36.5 -181t-36.5 -181t-104.5 -117.5t-161 -41.5q-92 0 -160 41.5t-105 117.5t-37 181t37 181t105 117.5t160 41.5zM360 645q-83 0 -144.5 -38.5
t-95 -109t-33.5 -167.5t33.5 -167.5t95 -109t144.5 -38.5q85 0 145.5 38.5t94 109t33.5 167.5t-33.5 167.5t-94 109t-145.5 38.5z" />
    <glyph glyph-name="uni1ED3" unicode="&#x1ed3;" horiz-adv-x="575" 
d="M357 826l66 -135h-22l-71 135h27zM413 578h-28l-97 127l-98 -127h-27l109 147h32zM288 510q69 0 122 -31t83 -89.5t30 -139.5t-30 -139.5t-83 -89.5t-122 -31t-122 31t-83.5 89.5t-30.5 139.5t30.5 139.5t83.5 89.5t122 31zM288 486q-62 0 -108.5 -28.5t-73 -81
t-26.5 -126.5q0 -73 26.5 -126t73 -81.5t108.5 -28.5q61 0 108 28.5t73 81.5t26 126q0 74 -26 126.5t-73 81t-108 28.5z" />
    <glyph glyph-name="uni1ED4" unicode="&#x1ed4;" horiz-adv-x="720" 
d="M485 742h-27l-98 126l-97 -126h-28l109 146h32zM470 835l-12 15q30 17 43 33.5t13 38.5q0 19 -13 30.5t-33 11.5t-33 -10.5t-18 -25.5l-21 12q10 22 29.5 35t44.5 13q20 0 35.5 -7.5t24.5 -22t9 -32.5q0 -21 -8 -37.5t-23.5 -29t-37.5 -24.5zM360 670q93 0 161 -41.5
t104.5 -117.5t36.5 -181t-36.5 -181t-104.5 -117.5t-161 -41.5q-92 0 -160 41.5t-105 117.5t-37 181t37 181t105 117.5t160 41.5zM360 645q-83 0 -144.5 -38.5t-95 -109t-33.5 -167.5t33.5 -167.5t95 -109t144.5 -38.5q85 0 145.5 38.5t94 109t33.5 167.5t-33.5 167.5
t-94 109t-145.5 38.5z" />
    <glyph glyph-name="uni1ED5" unicode="&#x1ed5;" horiz-adv-x="575" 
d="M398 672l-12 15q29 17 42 33.5t13 38.5q0 19 -12.5 30.5t-32.5 11.5q-21 0 -33.5 -11t-18.5 -25l-20 12q9 22 28.5 35t45.5 13q20 0 35 -7.5t24.5 -22t9.5 -32.5q0 -21 -8 -37.5t-23.5 -29t-37.5 -24.5zM413 578h-28l-97 127l-98 -127h-27l109 147h32zM288 510
q69 0 122 -31t83 -89.5t30 -139.5t-30 -139.5t-83 -89.5t-122 -31t-122 31t-83.5 89.5t-30.5 139.5t30.5 139.5t83.5 89.5t122 31zM288 486q-62 0 -108.5 -28.5t-73 -81t-26.5 -126.5q0 -73 26.5 -126t73 -81.5t108.5 -28.5q61 0 108 28.5t73 81.5t26 126q0 74 -26 126.5
t-73 81t-108 28.5z" />
    <glyph glyph-name="uni1ED6" unicode="&#x1ed6;" horiz-adv-x="720" 
d="M485 742h-27l-98 126l-97 -126h-28l109 146h32zM515 1005q-8 -47 -29.5 -68.5t-56.5 -21.5q-28 0 -44.5 10t-29.5 23.5t-27 23.5t-36 10q-27 0 -40.5 -16.5t-20.5 -49.5h-24q7 47 29 68.5t57 21.5q27 0 43.5 -10.5t29.5 -23.5t27 -23.5t36 -10.5q27 0 41 16.5t21 50.5h24
zM360 670q93 0 161 -41.5t104.5 -117.5t36.5 -181t-36.5 -181t-104.5 -117.5t-161 -41.5q-92 0 -160 41.5t-105 117.5t-37 181t37 181t105 117.5t160 41.5zM360 645q-83 0 -144.5 -38.5t-95 -109t-33.5 -167.5t33.5 -167.5t95 -109t144.5 -38.5q85 0 145.5 38.5t94 109
t33.5 167.5t-33.5 167.5t-94 109t-145.5 38.5z" />
    <glyph glyph-name="uni1ED7" unicode="&#x1ed7;" horiz-adv-x="575" 
d="M413 578h-28l-97 127l-98 -127h-27l109 147h32zM442 841q-7 -47 -28.5 -68.5t-56.5 -21.5q-28 0 -45 10.5t-29.5 23.5t-26.5 23.5t-37 10.5q-26 0 -39.5 -16.5t-20.5 -49.5h-24q7 46 29 68t56 22q27 0 44 -10.5t29.5 -23.5t26.5 -23.5t37 -10.5q27 0 41 16.5t20 49.5h24z
M288 510q69 0 122 -31t83 -89.5t30 -139.5t-30 -139.5t-83 -89.5t-122 -31t-122 31t-83.5 89.5t-30.5 139.5t30.5 139.5t83.5 89.5t122 31zM288 486q-62 0 -108.5 -28.5t-73 -81t-26.5 -126.5q0 -73 26.5 -126t73 -81.5t108.5 -28.5q61 0 108 28.5t73 81.5t26 126
q0 74 -26 126.5t-73 81t-108 28.5z" />
    <glyph glyph-name="uni1ED8" unicode="&#x1ed8;" horiz-adv-x="720" 
d="M360 670q93 0 161 -41.5t104.5 -117.5t36.5 -181t-36.5 -181t-104.5 -117.5t-161 -41.5q-92 0 -160 41.5t-105 117.5t-37 181t37 181t105 117.5t160 41.5zM360 645q-83 0 -144.5 -38.5t-95 -109t-33.5 -167.5t33.5 -167.5t95 -109t144.5 -38.5q85 0 145.5 38.5t94 109
t33.5 167.5t-33.5 167.5t-94 109t-145.5 38.5zM360 -120q3 0 5 -2t2 -5t-2 -4.5t-5 -1.5t-5 1.5t-2 4.5t2 5t5 2zM486 743h-28l-98 125l-98 -125h-28l110 145h32z" />
    <glyph glyph-name="uni1ED9" unicode="&#x1ed9;" horiz-adv-x="575" 
d="M287 510q70 0 123 -31t83 -89.5t30 -139.5t-30 -139.5t-83 -89.5t-123 -31q-68 0 -121 31t-83.5 89.5t-30.5 139.5t30.5 139.5t83.5 89.5t121 31zM288 486q-62 0 -108.5 -28.5t-73 -81t-26.5 -126.5q0 -73 26.5 -126t73 -81.5t108.5 -28.5q61 0 108 28.5t73 81.5t26 126
q0 74 -26 126.5t-73 81t-108 28.5zM288 -120q3 0 5 -2t2 -5t-2 -4.5t-5 -1.5t-5 1.5t-2 4.5t2 5t5 2zM413 579h-28l-97 126l-97 -126h-28l109 146h32z" />
    <glyph glyph-name="uni1EDA" unicode="&#x1eda;" horiz-adv-x="720" 
d="M615 767q0 -61 -43.5 -95t-119.5 -34l-12 22q76 0 112.5 29t36.5 78h26zM360 670q93 0 161 -41.5t104.5 -117.5t36.5 -181t-36.5 -181t-104.5 -117.5t-161 -41.5q-92 0 -160 41.5t-105 117.5t-37 181t37 181t105 117.5t160 41.5zM360 645q-83 0 -144.5 -38.5t-95 -109
t-33.5 -167.5t33.5 -167.5t95 -109t144.5 -38.5q85 0 145.5 38.5t94 109t33.5 167.5t-33.5 167.5t-94 109t-145.5 38.5zM420 893h31l-80 -150h-24z" />
    <glyph glyph-name="uni1EDB" unicode="&#x1edb;" horiz-adv-x="575" 
d="M287 510q70 0 123 -31t83 -89.5t30 -139.5t-30 -139.5t-83 -89.5t-123 -31q-68 0 -121 31t-83.5 89.5t-30.5 139.5t30.5 139.5t83.5 89.5t121 31zM288 486q-62 0 -108.5 -28.5t-73 -81t-26.5 -126.5q0 -73 26.5 -126t73 -81.5t108.5 -28.5q61 0 108 28.5t73 81.5t26 126
q0 74 -26 126.5t-73 81t-108 28.5zM360 478v22q51 0 77 28.5t26 80.5h24q0 -63 -31.5 -97t-95.5 -34zM356 731h31l-89 -151h-25z" />
    <glyph glyph-name="uni1EDC" unicode="&#x1edc;" horiz-adv-x="720" 
d="M615 767q0 -61 -43.5 -95t-119.5 -34l-12 22q76 0 112.5 29t36.5 78h26zM360 670q93 0 161 -41.5t104.5 -117.5t36.5 -181t-36.5 -181t-104.5 -117.5t-161 -41.5q-92 0 -160 41.5t-105 117.5t-37 181t37 181t105 117.5t160 41.5zM360 645q-83 0 -144.5 -38.5t-95 -109
t-33.5 -167.5t33.5 -167.5t95 -109t144.5 -38.5q85 0 145.5 38.5t94 109t33.5 167.5t-33.5 167.5t-94 109t-145.5 38.5zM300 893l74 -150h-24l-80 150h30z" />
    <glyph glyph-name="uni1EDD" unicode="&#x1edd;" horiz-adv-x="575" 
d="M287 510q70 0 123 -31t83 -89.5t30 -139.5t-30 -139.5t-83 -89.5t-123 -31q-68 0 -121 31t-83.5 89.5t-30.5 139.5t30.5 139.5t83.5 89.5t121 31zM288 486q-62 0 -108.5 -28.5t-73 -81t-26.5 -126.5q0 -73 26.5 -126t73 -81.5t108.5 -28.5q61 0 108 28.5t73 81.5t26 126
q0 74 -26 126.5t-73 81t-108 28.5zM360 478v22q51 0 77 28.5t26 80.5h24q0 -63 -31.5 -97t-95.5 -34zM222 731l83 -151h-25l-89 151h31z" />
    <glyph glyph-name="uni1EDE" unicode="&#x1ede;" horiz-adv-x="720" 
d="M615 767q0 -61 -43.5 -95t-119.5 -34l-12 22q76 0 112.5 29t36.5 78h26zM360 670q93 0 161 -41.5t104.5 -117.5t36.5 -181t-36.5 -181t-104.5 -117.5t-161 -41.5q-92 0 -160 41.5t-105 117.5t-37 181t37 181t105 117.5t160 41.5zM360 645q-83 0 -144.5 -38.5t-95 -109
t-33.5 -167.5t33.5 -167.5t95 -109t144.5 -38.5q85 0 145.5 38.5t94 109t33.5 167.5t-33.5 167.5t-94 109t-145.5 38.5zM362 716l-11 15q29 16 42 33t13 39q0 19 -13 30t-33 11t-33 -10.5t-18 -24.5l-21 11q10 23 29.5 36t45.5 13q19 0 34.5 -8t24.5 -22t9 -33
q0 -20 -8 -36.5t-23.5 -29.5t-37.5 -24z" />
    <glyph glyph-name="uni1EDF" unicode="&#x1edf;" horiz-adv-x="575" 
d="M287 510q70 0 123 -31t83 -89.5t30 -139.5t-30 -139.5t-83 -89.5t-123 -31q-68 0 -121 31t-83.5 89.5t-30.5 139.5t30.5 139.5t83.5 89.5t121 31zM288 486q-62 0 -108.5 -28.5t-73 -81t-26.5 -126.5q0 -73 26.5 -126t73 -81.5t108.5 -28.5q61 0 108 28.5t73 81.5t26 126
q0 74 -26 126.5t-73 81t-108 28.5zM360 478v22q51 0 77 28.5t26 80.5h24q0 -63 -31.5 -97t-95.5 -34zM285 565l-11 15q30 19 44.5 37t14.5 43q0 21 -12.5 33t-34.5 12q-21 0 -33.5 -11.5t-20.5 -26.5l-20 14q7 17 25.5 33t50.5 16q22 0 37.5 -8.5t24.5 -23.5t9 -34
q0 -22 -8.5 -39.5t-25 -31.5t-40.5 -28z" />
    <glyph glyph-name="uni1EE0" unicode="&#x1ee0;" horiz-adv-x="720" 
d="M615 767q0 -61 -43.5 -95t-119.5 -34l-12 22q76 0 112.5 29t36.5 78h26zM360 670q93 0 161 -41.5t104.5 -117.5t36.5 -181t-36.5 -181t-104.5 -117.5t-161 -41.5q-92 0 -160 41.5t-105 117.5t-37 181t37 181t105 117.5t160 41.5zM360 645q-83 0 -144.5 -38.5t-95 -109
t-33.5 -167.5t33.5 -167.5t95 -109t144.5 -38.5q85 0 145.5 38.5t94 109t33.5 167.5t-33.5 167.5t-94 109t-145.5 38.5zM502 849q-5 -31 -16.5 -52t-29.5 -31t-42 -10q-27 0 -45.5 10.5t-34 24t-31 24t-35.5 10.5q-27 0 -43 -18t-24 -52h-24q8 47 32 70t60 23q25 0 43 -10.5
t33.5 -23.5t31.5 -23.5t36 -10.5q29 0 43.5 18t21.5 51h24z" />
    <glyph glyph-name="uni1EE1" unicode="&#x1ee1;" horiz-adv-x="575" 
d="M287 510q70 0 123 -31t83 -89.5t30 -139.5t-30 -139.5t-83 -89.5t-123 -31q-68 0 -121 31t-83.5 89.5t-30.5 139.5t30.5 139.5t83.5 89.5t121 31zM288 486q-62 0 -108.5 -28.5t-73 -81t-26.5 -126.5q0 -73 26.5 -126t73 -81.5t108.5 -28.5q61 0 108 28.5t73 81.5t26 126
q0 74 -26 126.5t-73 81t-108 28.5zM360 478v22q51 0 77 28.5t26 80.5h24q0 -63 -31.5 -97t-95.5 -34zM444 689q-5 -31 -16.5 -52t-29.5 -31t-42 -10q-27 0 -45.5 10.5t-34 24t-31 24t-35.5 10.5q-27 0 -43 -18t-24 -52h-24q8 47 32 70t60 23q25 0 43 -10.5t33.5 -23.5
t31.5 -23.5t36 -10.5q29 0 43.5 18t21.5 51h24z" />
    <glyph glyph-name="uni1EE2" unicode="&#x1ee2;" horiz-adv-x="720" 
d="M615 767q0 -61 -43.5 -95t-119.5 -34l-12 22q76 0 112.5 29t36.5 78h26zM360 670q93 0 161 -41.5t104.5 -117.5t36.5 -181t-36.5 -181t-104.5 -117.5t-161 -41.5q-92 0 -160 41.5t-105 117.5t-37 181t37 181t105 117.5t160 41.5zM360 645q-83 0 -144.5 -38.5t-95 -109
t-33.5 -167.5t33.5 -167.5t95 -109t144.5 -38.5q85 0 145.5 38.5t94 109t33.5 167.5t-33.5 167.5t-94 109t-145.5 38.5zM360 -120q3 0 5 -2t2 -5t-2 -4.5t-5 -1.5t-5 1.5t-2 4.5t2 5t5 2z" />
    <glyph glyph-name="uni1EE3" unicode="&#x1ee3;" horiz-adv-x="575" 
d="M287 510q70 0 123 -31t83 -89.5t30 -139.5t-30 -139.5t-83 -89.5t-123 -31q-68 0 -121 31t-83.5 89.5t-30.5 139.5t30.5 139.5t83.5 89.5t121 31zM288 486q-62 0 -108.5 -28.5t-73 -81t-26.5 -126.5q0 -73 26.5 -126t73 -81.5t108.5 -28.5q61 0 108 28.5t73 81.5t26 126
q0 74 -26 126.5t-73 81t-108 28.5zM360 478v22q51 0 77 28.5t26 80.5h24q0 -63 -31.5 -97t-95.5 -34zM288 -120q3 0 5 -2t2 -5t-2 -4.5t-5 -1.5t-5 1.5t-2 4.5t2 5t5 2z" />
    <glyph glyph-name="uni1EE4" unicode="&#x1ee4;" horiz-adv-x="672" 
d="M587 660v-423q0 -120 -66 -183.5t-185 -63.5q-118 0 -184.5 63.5t-66.5 183.5v423h28v-419q0 -109 58.5 -167.5t164.5 -58.5q107 0 165 58.5t58 167.5v419h28zM336 -120q3 0 5 -2t2 -5t-2 -4.5t-5 -1.5t-5 1.5t-2 4.5t2 5t5 2z" />
    <glyph glyph-name="uni1EE5" unicode="&#x1ee5;" horiz-adv-x="574" 
d="M258 -10q-54 0 -94 20t-61.5 60t-21.5 98v332h28v-326q0 -79 40.5 -119t114.5 -40q49 0 86 17t61 45t36 61t12 64v298h28v-500h-26l-1 122q-18 -58 -72 -95t-130 -37zM285 -120q3 0 5 -2t2 -5t-2 -4.5t-5 -1.5t-5 1.5t-2 4.5t2 5t5 2z" />
    <glyph glyph-name="uni1EE6" unicode="&#x1ee6;" horiz-adv-x="672" 
d="M587 660v-423q0 -120 -66 -183.5t-185 -63.5q-118 0 -184.5 63.5t-66.5 183.5v423h28v-419q0 -109 58.5 -167.5t164.5 -58.5q107 0 165 58.5t58 167.5v419h28zM338 679l-11 15q29 16 42 33t13 39q0 19 -13 30t-33 11t-33 -10.5t-18 -24.5l-21 11q10 23 29.5 36t45.5 13
q19 0 34.5 -8t24.5 -22t9 -33q0 -20 -8 -36.5t-23.5 -29.5t-37.5 -24z" />
    <glyph glyph-name="uni1EE7" unicode="&#x1ee7;" horiz-adv-x="574" 
d="M258 -10q-54 0 -94 20t-61.5 60t-21.5 98v332h28v-326q0 -79 40.5 -119t114.5 -40q49 0 86 17t61 45t36 61t12 64v298h28v-500h-26l-1 122q-18 -58 -72 -95t-130 -37zM282 550l-11 15q30 19 44.5 37t14.5 43q0 21 -12.5 33t-34.5 12q-21 0 -33.5 -11.5t-20.5 -26.5
l-20 14q7 17 25.5 33t50.5 16q22 0 37.5 -8.5t24.5 -23.5t9 -34q0 -22 -8.5 -39.5t-25 -31.5t-40.5 -28z" />
    <glyph glyph-name="uni1EE8" unicode="&#x1ee8;" horiz-adv-x="672" 
d="M587 660v-423q0 -120 -66 -183.5t-185 -63.5q-118 0 -184.5 63.5t-66.5 183.5v423h28v-419q0 -109 58.5 -167.5t164.5 -58.5q107 0 165 58.5t58 167.5v419h28zM692 767q0 -61 -35 -95t-90 -34l-4 22q49 0 76.5 29t27.5 78h25zM396 856h31l-80 -150h-24z" />
    <glyph glyph-name="uni1EE9" unicode="&#x1ee9;" horiz-adv-x="576" 
d="M258 -10q-54 0 -94 20t-61.5 60t-21.5 98v332h28v-326q0 -79 40.5 -119t114.5 -40q49 0 86 17t61 45t36 61t12 64v298h28v-500h-26l-1 122q-18 -58 -72 -95t-130 -37zM463 483v22q51 0 77 28.5t26 80.5h24q0 -63 -31.5 -97t-95.5 -34zM353 716h31l-89 -151h-25z" />
    <glyph glyph-name="uni1EEA" unicode="&#x1eea;" horiz-adv-x="672" 
d="M587 660v-423q0 -120 -66 -183.5t-185 -63.5q-118 0 -184.5 63.5t-66.5 183.5v423h28v-419q0 -109 58.5 -167.5t164.5 -58.5q107 0 165 58.5t58 167.5v419h28zM692 767q0 -61 -35 -95t-90 -34l-4 22q49 0 76.5 29t27.5 78h25zM276 856l74 -150h-24l-80 150h30z" />
    <glyph glyph-name="uni1EEB" unicode="&#x1eeb;" horiz-adv-x="576" 
d="M258 -10q-54 0 -94 20t-61.5 60t-21.5 98v332h28v-326q0 -79 40.5 -119t114.5 -40q49 0 86 17t61 45t36 61t12 64v298h28v-500h-26l-1 122q-18 -58 -72 -95t-130 -37zM463 483v22q51 0 77 28.5t26 80.5h24q0 -63 -31.5 -97t-95.5 -34zM219 716l83 -151h-25l-89 151h31z
" />
    <glyph glyph-name="uni1EEC" unicode="&#x1eec;" horiz-adv-x="672" 
d="M587 660v-423q0 -120 -66 -183.5t-185 -63.5q-118 0 -184.5 63.5t-66.5 183.5v423h28v-419q0 -109 58.5 -167.5t164.5 -58.5q107 0 165 58.5t58 167.5v419h28zM692 767q0 -61 -35 -95t-90 -34l-4 22q49 0 76.5 29t27.5 78h25zM338 679l-11 15q29 16 42 33t13 39
q0 19 -13 30t-33 11t-33 -10.5t-18 -24.5l-21 11q10 23 29.5 36t45.5 13q19 0 34.5 -8t24.5 -22t9 -33q0 -20 -8 -36.5t-23.5 -29.5t-37.5 -24z" />
    <glyph glyph-name="uni1EED" unicode="&#x1eed;" horiz-adv-x="576" 
d="M258 -10q-54 0 -94 20t-61.5 60t-21.5 98v332h28v-326q0 -79 40.5 -119t114.5 -40q49 0 86 17t61 45t36 61t12 64v298h28v-500h-26l-1 122q-18 -58 -72 -95t-130 -37zM463 483v22q51 0 77 28.5t26 80.5h24q0 -63 -31.5 -97t-95.5 -34zM282 550l-11 15q30 19 44.5 37
t14.5 43q0 21 -12.5 33t-34.5 12q-21 0 -33.5 -11.5t-20.5 -26.5l-20 14q7 17 25.5 33t50.5 16q22 0 37.5 -8.5t24.5 -23.5t9 -34q0 -22 -8.5 -39.5t-25 -31.5t-40.5 -28z" />
    <glyph glyph-name="uni1EEE" unicode="&#x1eee;" horiz-adv-x="672" 
d="M587 660v-423q0 -120 -66 -183.5t-185 -63.5q-118 0 -184.5 63.5t-66.5 183.5v423h28v-419q0 -109 58.5 -167.5t164.5 -58.5q107 0 165 58.5t58 167.5v419h28zM692 767q0 -61 -35 -95t-90 -34l-4 22q49 0 76.5 29t27.5 78h25zM499 812q-5 -31 -16.5 -52t-29.5 -31
t-42 -10q-27 0 -45.5 10.5t-34 24t-31 24t-35.5 10.5q-27 0 -43 -18t-24 -52h-24q8 47 32 70t60 23q25 0 43 -10.5t33.5 -23.5t31.5 -23.5t36 -10.5q29 0 43.5 18t21.5 51h24z" />
    </font>
</defs>
</svg>
