<?xml version="1.0" standalone="no"?>
<!DOCTYPE svg PUBLIC "-//W3C//DTD SVG 1.1//EN" "http://www.w3.org/Graphics/SVG/1.1/DTD/svg11.dtd" >
<svg xmlns="http://www.w3.org/2000/svg" xmlns:xlink="http://www.w3.org/1999/xlink" version="1.1">
<metadata>
Created by FontForge 20170731 at Wed Aug 11 21:25:12 2021
 By Aleksey,,,
Copyright 2019 The Work Sans Project Authors (https://github.com/weiweihuanghuang/Work-Sans)
</metadata>
<defs>
<font id="WorkSans-ExtraBoldItalic" horiz-adv-x="604" >
  <font-face 
    font-family="Work Sans ExtraBold"
    font-weight="800"
    font-style="italic"
    font-stretch="normal"
    units-per-em="1000"
    panose-1="0 0 0 0 0 0 0 0 0 0"
    ascent="800"
    descent="-200"
    x-height="500"
    cap-height="660"
    bbox="-315 -316 1425 1102"
    underline-thickness="50"
    underline-position="-175"
    slope="-13"
    unicode-range="U+000D-FB02"
  />
<missing-glyph horiz-adv-x="500" 
d="M130 80l128 233l112 267l-128 -233zM50 0l187 352l213 308l-187 -352z" />
    <glyph glyph-name="fi" unicode="fi" horiz-adv-x="727" 
d="M33 0l123 534q17 72 52 113.5t85 58.5t111 17q41 0 73.5 -7t52.5 -18l-42 -125q-9 4 -22.5 7.5t-35.5 3.5q-38 0 -56.5 -12.5t-26.5 -45.5l-16 -67l3 -28l-99 -431h-202zM32 361l32 139h410l-33 -139h-409zM655 544q-51 0 -78.5 20t-21.5 65q7 52 36 73t84 21
q52 0 79.5 -20.5t21.5 -62.5q-7 -56 -37 -76t-84 -20zM736 500l-116 -500h-202l116 500h202z" />
    <glyph glyph-name="fl" unicode="fl" horiz-adv-x="773" 
d="M33 0l123 534q17 72 52 113.5t85 58.5t111 17q41 0 73.5 -7t52.5 -18l-42 -125q-9 4 -22.5 7.5t-35.5 3.5q-38 0 -56.5 -12.5t-26.5 -45.5l-16 -67l3 -28l-99 -431h-202zM32 361l32 139h410l-33 -139h-409zM623 -9q-97 0 -137 52t-19 141l121 522h202l-120 -518
q-7 -31 3 -46.5t40 -15.5q11 0 19 1t13 2l-34 -126q-16 -7 -37 -9.5t-51 -2.5z" />
    <glyph glyph-name="f_f" unicode="ff" horiz-adv-x="817" 
d="M33 0l123 534q17 72 52 113.5t85 58.5t111 17q41 0 73.5 -7t52.5 -18l-42 -125q-9 4 -22.5 7.5t-35.5 3.5q-38 0 -56.5 -12.5t-26.5 -45.5l-16 -67l3 -28l-99 -431h-202zM32 361l32 139h410l-33 -139h-409zM426 0l123 534q17 72 52 113.5t85 58.5t111 17q41 0 73.5 -7
t52.5 -18l-42 -125q-9 4 -22.5 7.5t-35.5 3.5q-38 0 -56.5 -12.5t-26.5 -45.5l-16 -67l3 -28l-99 -431h-202zM425 361l32 139h410l-33 -139h-409z" />
    <glyph glyph-name="f_f_i" unicode="ffi" horiz-adv-x="1120" 
d="M33 0l123 534q17 72 52 113.5t85 58.5t111 17q41 0 73.5 -7t52.5 -18l-42 -125q-9 4 -22.5 7.5t-35.5 3.5q-38 0 -56.5 -12.5t-26.5 -45.5l-16 -67l3 -28l-99 -431h-202zM32 361l32 139h410l-33 -139h-409zM426 0l123 534q17 72 52 113.5t85 58.5t111 17q41 0 73.5 -7
t52.5 -18l-42 -125q-9 4 -22.5 7.5t-35.5 3.5q-38 0 -56.5 -12.5t-26.5 -45.5l-16 -67l3 -28l-99 -431h-202zM425 361l32 139h410l-33 -139h-409zM1048 544q-51 0 -78.5 20t-21.5 65q7 52 36 73t84 21q52 0 79.5 -20.5t21.5 -62.5q-7 -56 -37 -76t-84 -20zM1129 500
l-116 -500h-202l116 500h202z" />
    <glyph glyph-name="f_f_l" unicode="ffl" horiz-adv-x="1166" 
d="M33 0l123 534q17 72 52 113.5t85 58.5t111 17q41 0 73.5 -7t52.5 -18l-42 -125q-9 4 -22.5 7.5t-35.5 3.5q-38 0 -56.5 -12.5t-26.5 -45.5l-16 -67l3 -28l-99 -431h-202zM32 361l32 139h410l-33 -139h-409zM426 0l123 534q17 72 52 113.5t85 58.5t111 17q41 0 73.5 -7
t52.5 -18l-42 -125q-9 4 -22.5 7.5t-35.5 3.5q-38 0 -56.5 -12.5t-26.5 -45.5l-16 -67l3 -28l-99 -431h-202zM425 361l32 139h410l-33 -139h-409zM1016 -9q-97 0 -137 52t-19 141l121 522h202l-120 -518q-7 -31 3 -46.5t40 -15.5q11 0 19 1t13 2l-34 -126q-16 -7 -37 -9.5
t-51 -2.5z" />
    <glyph glyph-name=".notdef" horiz-adv-x="500" 
d="M130 80l128 233l112 267l-128 -233zM50 0l187 352l213 308l-187 -352z" />
    <glyph glyph-name=".null" horiz-adv-x="0" 
 />
    <glyph glyph-name="nonmarkingreturn" horiz-adv-x="333" 
 />
    <glyph glyph-name="NULL" horiz-adv-x="0" 
 />
    <glyph glyph-name="NULL" horiz-adv-x="0" 
 />
    <glyph glyph-name="CR" unicode="&#xd;" horiz-adv-x="266" 
 />
    <glyph glyph-name="space" unicode=" " horiz-adv-x="266" 
 />
    <glyph glyph-name="exclam" unicode="!" horiz-adv-x="311" 
d="M64 218l37 255l43 187h211l-43 -187l-81 -255h-167zM114 -8q-47 0 -74.5 19.5t-27.5 57.5q0 48 30 76.5t83 28.5q46 0 73.5 -19.5t27.5 -57.5q0 -48 -29.5 -76.5t-82.5 -28.5z" />
    <glyph glyph-name="quotedbl" unicode="&#x22;" horiz-adv-x="470" 
d="M532 674l-98 -288h-136l66 288h168zM321 674l-98 -288h-136l66 288h168z" />
    <glyph glyph-name="numbersign" unicode="#" horiz-adv-x="706" 
d="M322 0l210 660h137l-211 -660h-136zM34 150v116h607v-116h-607zM72 0l210 660h137l-210 -660h-137zM102 394v116h607v-116h-607z" />
    <glyph glyph-name="dollar" unicode="$" horiz-adv-x="639" 
d="M331 -2q-70 0 -134.5 15.5t-118.5 49t-92 84.5l112 116q24 -40 63 -67.5t85.5 -43t92.5 -15.5q28 0 45.5 6.5t26 18t8.5 26.5q0 18 -14 29.5t-53 23.5l-105 32q-50 15 -86 39.5t-55 59t-19 79.5q0 69 36.5 115.5t100 70t143.5 23.5q57 0 113.5 -14t106.5 -44.5t85 -76.5
l-107 -108q-29 37 -60.5 60t-67 34t-78.5 11q-46 0 -69.5 -15t-23.5 -35q0 -11 5.5 -20t17 -16.5t30.5 -13.5l138 -40q65 -19 102 -61.5t37 -101.5q0 -73 -35.5 -122.5t-96 -74t-133.5 -24.5zM188 -84l191 828h119l-192 -828h-118z" />
    <glyph glyph-name="percent" unicode="%" horiz-adv-x="1042" 
d="M143 0l630 661h162l-630 -661h-162zM265 290q-54 0 -95.5 21.5t-64.5 61t-23 92.5q0 59 27 105t74 73t106 27q54 0 95 -21.5t64.5 -60.5t23.5 -93q0 -58 -27 -105t-74 -73.5t-106 -26.5zM271 422q17 0 29.5 9.5t19.5 25t7 34.5q0 22 -12.5 34.5t-31.5 12.5
q-18 0 -30.5 -9t-19.5 -25t-7 -35q0 -22 13 -34.5t32 -12.5zM790 -9q-54 0 -95.5 21.5t-64.5 61t-23 92.5q0 59 27 105t74 73t106 27q54 0 95 -21.5t64 -60.5t23 -93q0 -58 -27 -105t-73.5 -73.5t-105.5 -26.5zM796 123q17 0 29.5 9t19.5 25t7 35q0 22 -12.5 34.5
t-31.5 12.5q-18 0 -30.5 -9t-19.5 -25t-7 -35q0 -22 12.5 -34.5t32.5 -12.5z" />
    <glyph glyph-name="ampersand" unicode="&#x26;" horiz-adv-x="656" 
d="M229 -10q-68 0 -118 23t-76.5 64.5t-26.5 94.5q0 64 29 109.5t80.5 73t119.5 34.5l51 24q39 5 69 12.5t47 24.5t17 47q0 21 -12.5 33t-32.5 12q-32 0 -45.5 -20t-13.5 -47q0 -14 3 -31t12.5 -39.5t28.5 -55.5t50 -80q31 -48 61.5 -83.5t65.5 -53.5t81 -13l-36 -129h-23
q-55 0 -98 20t-83.5 61t-84.5 106q-52 73 -80 124.5t-40 91.5t-12 78q0 58 27.5 103t77 70.5t118.5 25.5q86 0 136 -37.5t50 -101.5q0 -60 -32 -102.5t-87 -68t-127 -35.5l-7 -25q-37 -7 -67.5 -20.5t-48 -34t-17.5 -51.5q0 -38 25.5 -58.5t69.5 -20.5q36 0 62 15.5t52 40.5
l23 12q24 20 40 52t27 78l132 -1q-19 -71 -52.5 -127.5t-79.5 -89.5l-21 -13q-30 -25 -63 -46t-74.5 -33.5t-96.5 -12.5z" />
    <glyph glyph-name="quotesingle" unicode="'" horiz-adv-x="259" 
d="M321 674l-98 -288h-136l66 288h168z" />
    <glyph glyph-name="parenleft" unicode="(" horiz-adv-x="411" 
d="M213 -192q-69 77 -105.5 171.5t-36.5 210.5q0 89 24.5 170t70.5 151.5t110.5 126.5t143.5 93l71 -91q-82 -57 -137 -129.5t-82 -160.5t-27 -195q0 -78 19.5 -141.5t54.5 -118.5z" />
    <glyph glyph-name="parenright" unicode=")" horiz-adv-x="411" 
d="M207 731q69 -77 106 -171.5t37 -211.5q0 -88 -25 -169.5t-71 -152t-110 -126t-144 -92.5l-71 90q83 58 137.5 130.5t82 161t27.5 193.5q0 79 -19.5 142t-55.5 118z" />
    <glyph glyph-name="asterisk" unicode="*" horiz-adv-x="592" 
d="M385 223l-52 126l-6 24l-19 -25l-105 -108l-95 98l111 102l26 17l-25 7l-126 55l70 126l120 -65l24 -17l1 32l26 135h142l-39 -149l-12 -28l28 10l143 34l12 -137l-143 -25l-32 -1l17 -24l60 -122z" />
    <glyph glyph-name="plus" unicode="+" 
d="M461 598l-125 -541h-156l124 541h157zM590 397l-31 -138h-509l31 138h509z" />
    <glyph glyph-name="comma" unicode="," horiz-adv-x="293" 
d="M111 190q60 0 85.5 -30.5t25.5 -76.5q0 -54 -28 -104t-78.5 -88t-118.5 -54l-45 72q37 9 68.5 24t54 33.5t34.5 36.5l-2 3q-7 -3 -13.5 -4.5t-17.5 -1.5q-31 0 -55.5 24t-24.5 60q0 49 32 77.5t83 28.5z" />
    <glyph glyph-name="hyphen" unicode="-" horiz-adv-x="534" 
d="M479 349l-36 -158h-379l36 158h379z" />
    <glyph glyph-name="period" unicode="." horiz-adv-x="295" 
d="M105 -8q-48 0 -77 21.5t-29 62.5q0 52 31 83t86 31q49 0 77.5 -21t28.5 -63q0 -52 -30.5 -83t-86.5 -31z" />
    <glyph glyph-name="slash" unicode="/" horiz-adv-x="475" 
d="M576 706l-447 -776h-198l446 776h199z" />
    <glyph glyph-name="zero" unicode="0" horiz-adv-x="647" 
d="M311 -10q-85 0 -142.5 31.5t-86.5 90.5t-29 139q0 27 3 54.5t8 56.5q13 61 35.5 117t58.5 99t89 68t127 25q85 0 142 -32.5t86 -91t29 -139.5q0 -26 -3 -53t-8 -56q-13 -61 -35.5 -117t-58.5 -99.5t-89 -68t-126 -24.5zM311 147q28 0 47.5 17.5t35 55t29.5 95.5
q11 37 15 66t4 51q0 42 -17 62t-52 20q-28 0 -48 -17.5t-35.5 -54.5t-30.5 -96q-10 -36 -14.5 -65.5t-4.5 -51.5q0 -28 8 -46.5t24 -27t39 -8.5z" />
    <glyph glyph-name="one" unicode="1" horiz-adv-x="440" 
d="M119 0l79 339q7 29 14.5 59.5t16.5 61.5q-24 -19 -53.5 -34.5t-59 -27t-56.5 -15.5l27 171q33 6 73.5 23t80.5 39.5t67 43.5h160l-153 -660h-196z" />
    <glyph glyph-name="two" unicode="2" horiz-adv-x="584" 
d="M-4 0l30 128q62 34 124.5 74.5t115.5 83.5t85 85.5t32 81.5q0 26 -16 43t-46 17q-40 0 -63 -30.5t-30 -87.5l-172 56q13 68 49 117.5t95 75.5t142 26q85 0 139 -28.5t80 -72t26 -89.5q0 -52 -19.5 -95t-52.5 -77.5t-75.5 -63t-88 -52.5t-88.5 -44v-2q21 3 57 4t73 1h149
l-35 -151h-511z" />
    <glyph glyph-name="three" unicode="3" horiz-adv-x="589" 
d="M290 -10q-125 0 -196 56t-79 148l187 37q1 -46 21.5 -67t61.5 -21q20 0 36 9t25 24t9 35q0 37 -24.5 48.5t-57.5 11.5q-7 0 -12 -0.5t-12 -1.5l28 122q7 -2 17.5 -3t21.5 -1q26 0 44 9t26.5 25t8.5 37q0 20 -8.5 32.5t-23 18.5t-32.5 6q-34 0 -54 -16.5t-28 -52.5
l-171 58q29 82 96 124t167 42q80 0 135.5 -21.5t84.5 -61t29 -93.5q0 -47 -19 -83.5t-52 -58.5t-79 -25l-1 -4q29 -4 54.5 -19.5t41 -43t15.5 -67.5q0 -65 -35.5 -110.5t-95 -69t-129.5 -23.5z" />
    <glyph glyph-name="four" unicode="4" horiz-adv-x="653" 
d="M292 0l31 135h-309l32 135q20 28 42.5 54.5t46.5 53.5l247 282h240l-90 -390h112l-31 -135h-112l-32 -135h-177zM199 270h156l60 247l-141 -165q-18 -22 -36.5 -41.5t-38.5 -40.5z" />
    <glyph glyph-name="five" unicode="5" horiz-adv-x="570" 
d="M274 -10q-66 0 -120 20.5t-92 57.5t-55 86l182 66q3 -22 12.5 -40.5t28.5 -29.5t50 -11q29 0 48.5 12t29.5 32t10 44q0 23 -11 38t-31 23.5t-47 8.5q-25 0 -43 -6t-36 -17l-144 32l113 354h435l-36 -153h-282l-44 -128q21 22 52 34t73 12q55 0 96.5 -22.5t64.5 -63
t23 -93.5q0 -79 -36 -136.5t-98.5 -88.5t-142.5 -31z" />
    <glyph glyph-name="six" unicode="6" horiz-adv-x="607" 
d="M331 -12q-82 0 -144 32.5t-96.5 93.5t-34.5 146q0 84 22 157t65 129t107 87.5t148 31.5q96 0 157 -44t75 -120l-170 -67q-1 33 -20.5 54t-55.5 21q-32 0 -56 -16t-41 -42t-26.5 -58t-13.5 -64q21 34 63 52.5t88 18.5q82 0 133.5 -47t51.5 -127q0 -70 -32.5 -123.5
t-89 -84t-130.5 -30.5zM324 133q24 0 41 11t25.5 29t8.5 41q0 31 -20.5 47.5t-52.5 16.5q-23 0 -40.5 -10.5t-27 -28t-9.5 -38.5q0 -16 6 -28.5t15.5 -21t23.5 -13.5t30 -5z" />
    <glyph glyph-name="seven" unicode="7" horiz-adv-x="619" 
d="M129 660h552l-34 -143q-91 -75 -149.5 -156.5t-93 -171.5t-54.5 -189h-200q20 108 65.5 206.5t122.5 188t190 168.5l28 -59h-464z" />
    <glyph glyph-name="eight" unicode="8" horiz-adv-x="638" 
d="M327 -12q-59 0 -113 12t-96.5 36.5t-67.5 61t-25 85.5q0 51 21 86t58.5 55.5t87.5 28.5l-1 -2q-26 14 -44.5 33t-28 43t-9.5 52q0 63 32.5 104.5t87.5 63.5t123 22q74 0 136.5 -21t101 -61.5t38.5 -102.5q0 -67 -38.5 -110.5t-108.5 -58.5v2q31 -14 53 -34t34.5 -45.5
t12.5 -55.5q0 -64 -34 -107.5t-91.5 -65t-128.5 -21.5zM312 133q24 0 41 9t26 25t9 36q0 21 -11.5 36t-31.5 23.5t-46 8.5q-23 0 -40.5 -9.5t-26.5 -25.5t-9 -36t11 -35t31 -23.5t47 -8.5zM368 393q23 0 38.5 9t24.5 25t9 35q0 28 -20.5 45.5t-55.5 17.5q-24 0 -40.5 -9.5
t-25 -24.5t-8.5 -34q0 -18 9.5 -32.5t27 -23t41.5 -8.5z" />
    <glyph glyph-name="nine" unicode="9" horiz-adv-x="607" 
d="M261 -10q-62 0 -113.5 20.5t-84.5 59t-41 94.5l183 45q2 -20 10.5 -35.5t24 -24t37.5 -8.5q28 0 48 13t34 36.5t23 53.5t14 62q-12 -20 -31.5 -34t-44.5 -20.5t-53 -6.5q-58 0 -103.5 23.5t-70.5 66.5t-25 99q0 71 35 124t94.5 82.5t133.5 29.5q81 0 138 -29t88 -88
t31 -148q0 -80 -20 -154.5t-60 -133t-101.5 -93t-145.5 -34.5zM324 377q22 0 40 9t28.5 26.5t10.5 41.5q0 21 -10 35.5t-26.5 22.5t-37.5 8q-24 0 -42 -10t-27 -27.5t-9 -39.5q0 -18 9 -33.5t25.5 -24t38.5 -8.5z" />
    <glyph glyph-name="colon" unicode=":" horiz-adv-x="296" 
d="M122 -8q-48 0 -77 21.5t-29 62.5q0 52 31 83t86 31q49 0 77.5 -21t28.5 -63q0 -52 -30.5 -83t-86.5 -31zM212 382q-48 0 -77 21.5t-29 62.5q0 52 31 83t86 31q49 0 77.5 -21t28.5 -63q0 -52 -30.5 -83t-86.5 -31z" />
    <glyph glyph-name="semicolon" unicode=";" horiz-adv-x="301" 
d="M193 510q49 0 77.5 -21t28.5 -63q0 -52 -30.5 -83t-86.5 -31q-48 0 -77 21.5t-29 62.5q0 52 31 83t86 31zM114 190q60 0 85 -30.5t25 -76.5q0 -54 -28 -104t-78 -88t-119 -54l-44 72q37 9 68.5 24t54 33.5t34.5 36.5l-3 3q-7 -3 -13 -4.5t-17 -1.5q-31 0 -55.5 24
t-24.5 60q0 49 32 77.5t83 28.5z" />
    <glyph glyph-name="less" unicode="&#x3c;" 
d="M635 594l-46 -195l-354 -106l301 -125l-39 -171l-446 215l38 167z" />
    <glyph glyph-name="equal" unicode="=" 
d="M596 498l-30 -132h-474l30 132h474zM545 276l-31 -132h-474l31 132h474z" />
    <glyph glyph-name="greater" unicode="&#x3e;" horiz-adv-x="605" 
d="M-9 -3l46 195l354 106l-302 124l40 172l446 -215l-39 -167z" />
    <glyph glyph-name="question" unicode="?" horiz-adv-x="621" 
d="M194 216l34 155q53 1 95.5 8.5t68 27.5t25.5 56q0 24 -16.5 36.5t-45.5 12.5q-34 0 -55.5 -20.5t-33.5 -60.5l-188 66q15 46 51 85.5t97.5 63.5t152.5 24q76 0 132.5 -21.5t88 -61.5t31.5 -96q0 -62 -27.5 -106t-81.5 -69t-134 -33l-21 -67h-173zM252 -7
q-46 0 -73.5 19.5t-27.5 57.5q0 47 29 75t83 28q46 0 73.5 -19t27.5 -57q0 -47 -29.5 -75.5t-82.5 -28.5z" />
    <glyph glyph-name="at" unicode="@" horiz-adv-x="928" 
d="M457 -182q-120 0 -215 44.5t-149.5 130t-54.5 210.5q0 104 33.5 189t95.5 146.5t146 95t185 33.5q86 0 157.5 -25t124 -72t81 -115t28.5 -155q0 -86 -21.5 -145t-56 -94.5t-75 -51t-77.5 -15.5q-47 0 -81 16t-52 45.5t-17 70.5q-22 -53 -63.5 -83.5t-91.5 -30.5
q-40 0 -72.5 21.5t-51.5 63.5t-19 102q0 49 14 96.5t41.5 86.5t67 62t89.5 23q26 0 51 -9.5t43.5 -31t25.5 -58.5l21 90h173l-62 -271q-3 -13 -5 -24.5t-2 -22.5q0 -26 12 -38t35 -12q18 0 34.5 11.5t29.5 36.5t20.5 63.5t7.5 92.5q0 72 -22.5 127t-64 92t-98.5 56t-126 19
q-81 0 -148.5 -27t-116.5 -77t-75.5 -121t-26.5 -160q0 -77 26.5 -134.5t73.5 -95.5t108 -57t130 -19q48 0 87 9.5t66 20.5l23 -72q-22 -10 -49.5 -18.5t-61 -13.5t-75.5 -5zM437 138q25 0 43 23t27.5 56t9.5 62q0 19 -5.5 32.5t-16.5 21t-27 7.5q-22 0 -37.5 -14t-26.5 -35
t-16 -44.5t-5 -42.5q0 -20 6 -35t18 -23t30 -8z" />
    <glyph glyph-name="A" unicode="A" horiz-adv-x="680" 
d="M-62 0l375 660h247l66 -660h-193l-7 143h-204l-73 -143h-211zM290 275h131l-11 236z" />
    <glyph glyph-name="B" unicode="B" horiz-adv-x="696" 
d="M2 0l153 660h332q95 0 150.5 -41.5t55.5 -114.5q0 -51 -22.5 -88.5t-59 -59.5t-81.5 -30v-1q57 -4 92.5 -38.5t35.5 -88.5q0 -67 -32 -110.5t-90.5 -65.5t-136.5 -22h-397zM230 138h130q43 0 67.5 16.5t24.5 49.5q0 17 -7.5 28.5t-22.5 17.5t-38 6h-126zM291 397h106
q28 0 47.5 8.5t30 24t10.5 35.5q0 26 -18 38.5t-48 12.5h-101z" />
    <glyph glyph-name="C" unicode="C" horiz-adv-x="694" 
d="M354 -10q-88 0 -156.5 35t-108 99t-39.5 151q0 88 25 160.5t72 125t115 81t154 28.5q79 0 139.5 -26.5t99 -77t49.5 -122.5l-195 -40q-1 55 -24 82.5t-72 27.5q-41 0 -71 -24t-50 -61t-29 -80t-9 -82q0 -37 13 -64t37.5 -42t61.5 -15q46 0 72 26.5t44 68.5l181 -68
q-43 -86 -118.5 -134.5t-190.5 -48.5z" />
    <glyph glyph-name="D" unicode="D" horiz-adv-x="708" 
d="M2 0l153 660h248q97 0 162 -34t98 -94.5t33 -141.5q0 -88 -24.5 -160t-72.5 -123t-116 -79t-156 -28h-325zM242 149h74q45 0 78.5 21.5t54.5 57t31.5 79t10.5 86.5q0 37 -12 63.5t-36 40.5t-62 14h-56z" />
    <glyph glyph-name="E" unicode="E" horiz-adv-x="626" 
d="M2 0l153 660h535l-35 -153h-331l-25 -107h261l-32 -142h-261l-24 -105h338l-36 -153h-543z" />
    <glyph glyph-name="F" unicode="F" horiz-adv-x="605" 
d="M642 507h-318l-26 -115h259l-35 -153h-260l-55 -239h-205l153 660h523z" />
    <glyph glyph-name="G" unicode="G" horiz-adv-x="718" 
d="M315 -10q-75 0 -135 35t-95 99t-35 153q0 82 24.5 152.5t71.5 125t116 85t158 30.5q78 0 138.5 -25.5t99 -74t47.5 -117.5l-191 -31q-4 42 -27.5 67t-70.5 25q-35 0 -64.5 -17t-51.5 -47t-34 -70t-12 -88q0 -46 13.5 -80t42 -53t73.5 -19q31 0 54 9.5t38.5 26t23.5 37.5
l8 20h-141l29 128h301l-92 -361h-132l36 164l17 -19q-17 -50 -45 -84.5t-68.5 -52.5t-96.5 -18z" />
    <glyph glyph-name="H" unicode="H" horiz-adv-x="742" 
d="M777 660l-153 -660h-205l153 660h205zM360 660l-153 -660h-205l153 660h205zM626 409l-36 -153h-430l36 153h430z" />
    <glyph glyph-name="I" unicode="I" horiz-adv-x="325" 
d="M360 660l-153 -660h-205l153 660h205z" />
    <glyph glyph-name="J" unicode="J" horiz-adv-x="630" 
d="M279 -10q-81 0 -137.5 25.5t-87 68t-34.5 98t19 115.5l205 8q-22 -56 -21 -91t19.5 -51.5t50.5 -16.5q40 0 58.5 30.5t34.5 100.5l89 383h204l-96 -416q-17 -76 -52 -133t-95.5 -89t-156.5 -32z" />
    <glyph glyph-name="K" unicode="K" horiz-adv-x="702" 
d="M2 0l153 660h205l-57 -244l260 244h225l-291 -277l145 -383h-208l-95 254l-93 -85l-39 -169h-205z" />
    <glyph glyph-name="L" unicode="L" horiz-adv-x="610" 
d="M242 153h321l-36 -153h-525l153 660h205z" />
    <glyph glyph-name="M" unicode="M" horiz-adv-x="927" 
d="M2 0l153 660h254l26 -288l6 -166h1l81 166l151 288h288l-153 -660h-179l61 264l47 201h-1l-253 -465h-155l-48 460h-2l-36 -196l-61 -264h-180z" />
    <glyph glyph-name="N" unicode="N" horiz-adv-x="741" 
d="M2 0l153 660h215l103 -335l27 -100h2l29 149l66 286h179l-153 -660h-212l-107 327l-28 100h-2l-27 -141l-66 -286h-179z" />
    <glyph glyph-name="O" unicode="O" horiz-adv-x="728" 
d="M352 -10q-85 0 -153.5 34.5t-108 99.5t-39.5 157q0 84 24.5 155.5t71 124t114 81t152.5 28.5q86 0 154 -34.5t107.5 -99.5t39.5 -157q0 -84 -24 -155t-70.5 -124t-114 -81.5t-153.5 -28.5zM357 147q39 0 67.5 23t47.5 60.5t28.5 81.5t9.5 85q0 38 -11.5 64t-34 39
t-56.5 13q-39 0 -67.5 -23t-47.5 -60.5t-28.5 -81.5t-9.5 -85q0 -37 11.5 -63.5t34.5 -39.5t56 -13z" />
    <glyph glyph-name="P" unicode="P" horiz-adv-x="683" 
d="M2 0l153 660h268q125 0 195.5 -53.5t70.5 -151.5q0 -74 -35.5 -131t-101.5 -89t-157 -32h-238l33 148h192q34 0 57 12.5t35.5 32.5t12.5 45q0 33 -20.5 52t-67.5 19h-74l-118 -512h-205z" />
    <glyph glyph-name="Q" unicode="Q" horiz-adv-x="728" 
d="M467 -207q-40 0 -79.5 9.5t-71.5 29t-51.5 50.5t-19.5 75q0 12 1.5 26.5t6.5 34.5l129 3q-3 -8 -4.5 -15.5t-1.5 -13.5q0 -29 30.5 -41t76.5 -12q36 0 62.5 6t46.5 15l2 -139q-24 -13 -54.5 -20.5t-72.5 -7.5zM352 -10q-85 0 -153.5 34.5t-108 99.5t-39.5 157
q0 84 24.5 155.5t71 124t114 81t152.5 28.5q86 0 154 -34.5t107.5 -99.5t39.5 -157q0 -84 -24 -155t-70.5 -124t-114 -81.5t-153.5 -28.5zM357 147q39 0 67.5 23t47.5 60.5t28.5 81.5t9.5 85q0 38 -11.5 64t-34 39t-56.5 13q-39 0 -67.5 -23t-47.5 -60.5t-28.5 -81.5
t-9.5 -85q0 -37 11.5 -63.5t34.5 -39.5t56 -13z" />
    <glyph glyph-name="R" unicode="R" horiz-adv-x="691" 
d="M2 0l153 660h307q106 0 168 -50.5t62 -140.5q0 -77 -36 -129.5t-98.5 -80t-143.5 -28.5l-33 -10h-141l31 139h114q34 0 57.5 11t36.5 30.5t13 45.5q0 34 -23 49t-58 15h-90l-118 -511h-201zM432 0l-107 288l182 29l129 -317h-204z" />
    <glyph glyph-name="S" unicode="S" horiz-adv-x="640" 
d="M330 -12q-69 0 -131.5 17t-115 51t-92.5 85l109 120q26 -37 64 -64t80.5 -41.5t82.5 -14.5q25 0 39.5 6.5t21.5 17.5t7 24q0 16 -13 26t-41 19l-95 32q-43 15 -79.5 39.5t-59 61.5t-22.5 87q0 72 36.5 119.5t99.5 72t142 24.5q106 0 179 -35.5t126 -96.5l-115 -116
q-23 30 -53.5 51t-65 31.5t-69.5 10.5q-23 0 -37.5 -5t-22 -14.5t-7.5 -22.5q0 -16 17 -28t46 -22l91 -31q77 -26 117 -68.5t40 -112.5t-37 -120.5t-100 -76.5t-142 -26z" />
    <glyph glyph-name="T" unicode="T" horiz-adv-x="668" 
d="M741 660l-35 -153h-210l-117 -507h-204l117 507h-211l36 153h624z" />
    <glyph glyph-name="U" unicode="U" horiz-adv-x="708" 
d="M331 -10q-104 0 -173 36.5t-96 105t-5 163.5l85 365h206l-90 -391q-8 -39 0.5 -66.5t32 -42t58.5 -14.5q46 0 71.5 27.5t37.5 83.5l94 403h204l-93 -401q-33 -137 -111.5 -203t-220.5 -66z" />
    <glyph glyph-name="V" unicode="V" horiz-adv-x="676" 
d="M776 660l-373 -660h-242l-66 660h193l20 -374l4 -129l58 128l198 375h208z" />
    <glyph glyph-name="W" unicode="W" horiz-adv-x="1006" 
d="M129 0l-34 660h201l-9 -492l206 492h181l4 -493l198 493h224l-341 -660h-224v282l12 171h-3l-69 -171l-122 -282h-224z" />
    <glyph glyph-name="X" unicode="X" horiz-adv-x="686" 
d="M-57 0l308 342l-143 318h222l66 -175l136 175h229l-292 -327l156 -333h-222l-69 180l-145 -180h-246z" />
    <glyph glyph-name="Y" unicode="Y" horiz-adv-x="685" 
d="M182 0l56 241l-133 419h194l47 -166l25 -113l70 115l113 164h216l-331 -433l-52 -227h-205z" />
    <glyph glyph-name="Z" unicode="Z" horiz-adv-x="634" 
d="M-22 0l35 151l418 360h-344l35 149h569l-35 -151l-418 -360h353l-35 -149h-578z" />
    <glyph glyph-name="bracketleft" unicode="[" horiz-adv-x="406" 
d="M457 571h-126l-140 -603h127l-32 -136h-299l202 874h299z" />
    <glyph glyph-name="backslash" unicode="\" horiz-adv-x="465" 
d="M110 706h177l99 -776h-177z" />
    <glyph glyph-name="bracketright" unicode="]" horiz-adv-x="406" 
d="M-42 -32h126l139 603h-126l31 135h299l-202 -874h-299z" />
    <glyph glyph-name="asciicircum" unicode="^" horiz-adv-x="631" 
d="M48 355l293 367h168l122 -367h-168l-68 239l-166 -239h-181z" />
    <glyph glyph-name="underscore" unicode="_" horiz-adv-x="539" 
d="M469 -55l-37 -156h-539l37 156h539z" />
    <glyph glyph-name="grave" unicode="`" horiz-adv-x="500" 
d="M421 734l24 -175h-136l-71 175h183z" />
    <glyph glyph-name="a" unicode="a" horiz-adv-x="618" 
d="M188 -10q-46 0 -84 22t-60 65t-22 107q0 60 17 118t48.5 105t76.5 75t103 28q29 0 57.5 -11t50 -35t28.5 -66l24 102h202l-116 -500h-184l17 95q-25 -49 -66 -77t-92 -28zM282 135q21 0 38 15t29.5 39.5t19 52.5t6.5 53q0 22 -7 37.5t-19.5 24t-30.5 8.5q-24 0 -42 -16
t-30 -40t-18 -51t-6 -48q0 -23 6.5 -40t19.5 -26t34 -9z" />
    <glyph glyph-name="b" unicode="b" horiz-adv-x="618" 
d="M440 510q47 0 82 -21.5t54.5 -64.5t19.5 -106q0 -59 -16.5 -117.5t-46.5 -106t-72.5 -76t-95.5 -28.5q-33 0 -65.5 11t-55.5 35t-31 65l-28 -101h-195l163 706h202l-66 -286q26 42 65 66t86 24zM301 135q24 0 41.5 16t29.5 40t18.5 51t6.5 48q0 25 -6.5 41t-20 25
t-32.5 9q-22 0 -40 -15t-30 -39.5t-18 -52t-6 -53.5q0 -32 14.5 -51t42.5 -19z" />
    <glyph glyph-name="c" unicode="c" horiz-adv-x="571" 
d="M289 -10q-82 0 -141 29t-90.5 80.5t-31.5 118.5q0 79 34 145.5t100 106.5t162 40q74 0 128.5 -24t85 -67t29.5 -102l-191 -28q5 37 -6.5 59t-45.5 22q-25 0 -43 -17t-30.5 -43t-19 -56t-6.5 -56q0 -23 8 -39t22.5 -23.5t33.5 -7.5q24 0 43 17.5t27 46.5l178 -57
q-29 -67 -92.5 -106t-153.5 -39z" />
    <glyph glyph-name="d" unicode="d" horiz-adv-x="618" 
d="M188 -10q-46 0 -84 22t-60 65t-22 107q0 60 17 118t48.5 105t76.5 75t103 28q29 0 57.5 -11t50 -35t28.5 -66l71 308h202l-163 -706h-184l17 95q-25 -49 -66 -77t-92 -28zM282 135q21 0 38.5 15t29.5 39.5t18.5 52.5t6.5 53q0 22 -7 37.5t-19.5 24t-30.5 8.5
q-24 0 -42 -16t-30 -40t-18 -51t-6 -48q0 -23 6.5 -40t19.5 -26t34 -9z" />
    <glyph glyph-name="e" unicode="e" horiz-adv-x="585" 
d="M284 -9q-75 0 -133.5 27.5t-91 79t-32.5 120.5q0 87 35.5 152.5t100.5 102.5t153 37q78 0 132 -28t82.5 -78t28.5 -117q0 -20 -2 -40.5t-8 -40.5h-387l-1 88h252l-52 -23q5 13 5.5 22.5t0.5 18.5q0 22 -7 35.5t-19.5 20t-28.5 6.5q-30 0 -50 -16t-31 -41.5t-15 -55
t-4 -55.5q0 -27 10 -45t28 -26.5t41 -8.5q30 0 48 15t27 36l168 -58q-16 -41 -53 -69.5t-87.5 -43.5t-109.5 -15z" />
    <glyph glyph-name="f" unicode="f" horiz-adv-x="424" 
d="M33 0l123 534q17 72 52 113.5t85 58.5t111 17q41 0 73.5 -7t52.5 -18l-42 -125q-9 4 -22.5 7.5t-35.5 3.5q-38 0 -56.5 -12.5t-26.5 -45.5l-16 -67l3 -28l-99 -431h-202zM32 361l32 139h410l-33 -139h-409z" />
    <glyph glyph-name="g" unicode="g" horiz-adv-x="617" 
d="M209 -215q-46 0 -88.5 11t-76.5 34.5t-52.5 59.5t-17.5 85l202 15q-1 -37 10 -59t48 -22q20 0 35.5 10.5t27.5 32t20 58.5l41 177l7 -5q-15 -82 -59 -125.5t-113 -43.5q-47 0 -84.5 22t-59.5 64.5t-22 104.5q0 58 16.5 113t48 98.5t76 69t100.5 25.5q35 0 67 -16
t52.5 -51.5t18.5 -92.5l-21 -31l41 181h202l-108 -467q-21 -94 -62 -148t-102.5 -77t-146.5 -23zM287 156q28 0 47.5 21.5t30 53.5t10.5 65q0 21 -7 36.5t-20 24t-31 8.5q-31 0 -51 -22.5t-30 -54t-10 -58.5q0 -33 14.5 -53.5t46.5 -20.5z" />
    <glyph glyph-name="h" unicode="h" horiz-adv-x="615" 
d="M-10 0l163 706h202l-75 -326l-17 -28q12 42 37 77.5t64.5 58t93.5 22.5q47 0 81 -22.5t47.5 -63t1.5 -95.5l-77 -329h-202l69 292q7 31 -5 49t-40 18q-20 0 -35.5 -10t-26 -29t-17.5 -48l-62 -272h-202z" />
    <glyph glyph-name="i" unicode="i" horiz-adv-x="299" 
d="M227 544q-51 0 -78.5 20t-21.5 65q7 52 36 73t84 21q52 0 79.5 -20.5t21.5 -62.5q-7 -56 -37 -76t-84 -20zM308 500l-116 -500h-202l116 500h202z" />
    <glyph glyph-name="j" unicode="j" horiz-adv-x="299" 
d="M227 544q-51 0 -78.5 20t-21.5 65q7 52 36 73t84 21q52 0 79.5 -20.5t21.5 -62.5q-7 -56 -37 -76t-84 -20zM-23 -215q-40 0 -79 7.5t-66 26.5l42 123q11 -7 24 -11.5t26 -4.5q30 0 43 15.5t22 55.5l117 503h202l-121 -525q-24 -100 -73.5 -145t-136.5 -45z" />
    <glyph glyph-name="k" unicode="k" horiz-adv-x="636" 
d="M682 500l-296 -262l-22 -8l-176 -157l15 183l251 244h228zM355 706l-163 -706h-202l163 706h202zM437 358l152 -358h-196l-95 243z" />
    <glyph glyph-name="l" unicode="l" horiz-adv-x="337" 
d="M187 -9q-97 0 -137 52t-19 141l121 522h202l-120 -518q-7 -31 3 -46.5t40 -15.5q11 0 19 1t13 2l-34 -126q-16 -7 -37 -9.5t-51 -2.5z" />
    <glyph glyph-name="m" unicode="m" horiz-adv-x="932" 
d="M-10 0l116 500h179l-28 -176l-8 17q21 81 73.5 125t126.5 44q52 0 87 -23t48.5 -65t-0.5 -101l-75 -321h-202l69 292q7 31 -5 49t-38 18q-20 0 -35.5 -10t-26 -29t-17.5 -48l-62 -272h-202zM626 0l68 292q7 31 -4.5 49t-37.5 18q-20 0 -35.5 -10t-26.5 -29t-17 -48
l-10 64q22 84 75 129t126 45q53 0 89 -23t49.5 -65t0.5 -101l-75 -321h-202z" />
    <glyph glyph-name="n" unicode="n" horiz-adv-x="615" 
d="M-10 0l116 500h179l-28 -176l-8 17q21 81 74 125t127 44q52 0 87 -23t49 -65t0 -101l-75 -321h-202l69 292q7 31 -5 49t-40 18q-20 0 -35.5 -10t-26 -29t-17.5 -48l-62 -272h-202z" />
    <glyph glyph-name="o" unicode="o" horiz-adv-x="602" 
d="M280 -10q-77 0 -134 29.5t-88.5 81t-31.5 117.5q0 79 34 145.5t99.5 106.5t161.5 40q78 0 135 -29.5t88.5 -80.5t31.5 -117q0 -79 -34 -146t-99.5 -107t-162.5 -40zM283 128q22 0 39.5 17t30 44t19 57t6.5 56q0 24 -7 39t-20.5 23t-32.5 8q-22 0 -39.5 -17t-30 -44
t-19.5 -57t-7 -56q0 -23 7.5 -38.5t21 -23.5t32.5 -8z" />
    <glyph glyph-name="p" unicode="p" horiz-adv-x="618" 
d="M-58 -210l164 710h183l-33 -187l-10 13q11 57 39.5 98t69 63.5t86.5 22.5t81 -21.5t54.5 -64t19.5 -106.5q0 -59 -16 -117.5t-46.5 -106t-72.5 -76t-95 -28.5q-37 0 -72.5 14t-59 47t-23.5 89l22 41l-89 -391h-202zM301 135q24 0 41.5 16t29.5 40t18.5 51t6.5 49
q0 23 -6.5 39.5t-20 25.5t-33.5 9q-21 0 -38.5 -15t-30 -39.5t-18.5 -52t-6 -53.5q0 -32 14.5 -51t42.5 -19z" />
    <glyph glyph-name="q" unicode="q" horiz-adv-x="618" 
d="M269 -210l91 395l10 -15q-17 -83 -65.5 -131.5t-116.5 -48.5q-46 0 -84 22t-60 65t-22 107q0 60 17 118t48.5 105t77 75t102.5 28q35 0 67.5 -15t53 -51t18.5 -97l-20 -26l41 179h202l-165 -710h-195zM282 135q21 0 38.5 15t29.5 39.5t18.5 52.5t6.5 53q0 22 -7 37.5
t-19.5 24t-30.5 8.5q-24 0 -42 -16t-30 -40t-18 -51t-6 -48q0 -23 6.5 -40t19.5 -26t34 -9z" />
    <glyph glyph-name="r" unicode="r" horiz-adv-x="436" 
d="M-10 0l116 500h180l-37 -205l-6 20q16 58 41.5 102t64 68.5t91.5 24.5q17 0 28.5 -2.5t18.5 -6.5l-47 -167q-10 5 -24 8t-36 3q-29 0 -56.5 -13t-49 -40.5t-32.5 -74.5l-50 -217h-202z" />
    <glyph glyph-name="s" unicode="s" horiz-adv-x="525" 
d="M255 -10q-53 0 -105 14t-96 40t-72 64l93 94q28 -36 71 -60t84 -24q24 0 36.5 6.5t12.5 19.5q0 10 -7.5 18t-25.5 12l-50 17q-80 25 -113 60.5t-33 90.5q0 54 29 91.5t80 57t117 19.5q80 0 142.5 -26t101.5 -70l-87 -99q-15 19 -38.5 34t-51.5 24t-56 9q-22 0 -32.5 -6.5
t-10.5 -18.5q0 -11 9.5 -17.5t24.5 -10.5l92 -30q54 -16 83 -50t29 -83q0 -54 -27 -93.5t-77.5 -61t-122.5 -21.5z" />
    <glyph glyph-name="t" unicode="t" horiz-adv-x="448" 
d="M263 -10q-66 0 -112.5 23t-65 68t-3.5 113l96 413l215 56l-107 -462q-10 -36 8.5 -55.5t56.5 -19.5q23 0 36 2.5t24 7.5l-20 -125q-28 -11 -60.5 -16t-67.5 -5zM32 361l32 139h421l-32 -139h-421z" />
    <glyph glyph-name="u" unicode="u" horiz-adv-x="614" 
d="M167 -10q-52 0 -88 22.5t-50 64t-1 98.5l75 325h202l-67 -292q-8 -33 5.5 -49.5t40.5 -16.5q21 0 35 9.5t24.5 29t16.5 47.5l63 272h202l-116 -500h-180l28 176l8 -19q-21 -80 -73 -123.5t-125 -43.5z" />
    <glyph glyph-name="v" unicode="v" horiz-adv-x="570" 
d="M409 500h226l-283 -500h-248l-53 500h199l3 -469l-38 6z" />
    <glyph glyph-name="w" unicode="w" horiz-adv-x="908" 
d="M71 0l-17 500h197l-9 -347l160 347h199l9 -348l145 348h213l-253 -500h-245l-10 276l-136 -276h-253z" />
    <glyph glyph-name="x" unicode="x" horiz-adv-x="609" 
d="M-62 0l257 280l65 -20l173 240h234l-250 -275l-76 17l-163 -242h-240zM338 0l-77 244l-75 -12l-123 268h217l61 -241l83 16l130 -275h-216z" />
    <glyph glyph-name="y" unicode="y" horiz-adv-x="577" 
d="M56 -215q-45 0 -84 10t-61 25l52 138q35 -29 89 -29q26 0 46.5 9t32.5 28l11 18l-88 516h205l4 -263l-1 -121l51 120l117 264h212l-301 -522q-40 -70 -81.5 -112.5t-90.5 -61.5t-113 -19z" />
    <glyph glyph-name="z" unicode="z" horiz-adv-x="511" 
d="M-24 0l28 119l210 200l57 48l-75 -4h-140l32 137h445l-28 -120l-203 -193l-63 -54l87 4h138l-31 -137h-457z" />
    <glyph glyph-name="braceleft" unicode="{" horiz-adv-x="441" 
d="M314 -192q-122 0 -179 48t-34 153l19 87q14 59 -7 85t-68 26h-9l29 124h27q39 0 65.5 19.5t36.5 65.5l34 145q21 90 76 130t154 40h75l-29 -123h-30q-36 0 -62 -22t-38 -72l-31 -136q-10 -47 -39 -74.5t-75 -35.5q42 -12 57 -42t4 -77l-28 -124q-12 -50 7.5 -72.5
t62.5 -22.5h16l-28 -122h-6z" />
    <glyph glyph-name="bar" unicode="|" horiz-adv-x="347" 
d="M368 706l-202 -874h-179l202 874h179z" />
    <glyph glyph-name="braceright" unicode="}" horiz-adv-x="441" 
d="M-83 -192l29 122h29q42 0 66.5 23.5t34.5 70.5l31 137q11 46 39.5 73.5t74.5 35.5q-41 13 -56 42.5t-5 76.5l28 124q12 50 -6.5 72.5t-55.5 22.5h-24l28 123h47q61 0 105.5 -20.5t64.5 -61.5t6 -103l-23 -103q-13 -59 8 -85.5t70 -26.5h7l-29 -124h-27q-39 0 -65.5 -19
t-37.5 -66l-33 -145q-20 -89 -74.5 -129t-148.5 -40h-83z" />
    <glyph glyph-name="asciitilde" unicode="~" horiz-adv-x="611" 
d="M610 439q-14 -82 -44.5 -128t-69.5 -64t-79 -18q-35 0 -59 9.5t-43 22t-36 22t-37 9.5q-17 0 -30.5 -14t-21.5 -42h-148q12 78 42.5 124t72 66t85.5 20q29 0 51.5 -9.5t41.5 -22t36.5 -22t37.5 -9.5q17 0 31 13.5t22 42.5h148z" />
    <glyph glyph-name="uni00A0" unicode="&#xa0;" horiz-adv-x="266" 
 />
    <glyph glyph-name="exclamdown" unicode="&#xa1;" horiz-adv-x="310" 
d="M246 282l-37 -255l-44 -187h-211l43 187l82 255h167zM195 508q47 0 74.5 -19.5t27.5 -57.5q0 -48 -29.5 -76.5t-83.5 -28.5q-46 0 -73.5 19.5t-27.5 57.5q0 48 29.5 76.5t82.5 28.5z" />
    <glyph glyph-name="cent" unicode="&#xa2;" horiz-adv-x="578" 
d="M281 -10q-76 0 -133 29.5t-89 82t-32 120.5q0 87 35 151.5t99 100.5t150 36q79 0 134 -25.5t85.5 -69t32.5 -97.5l-165 -22q3 42 -18.5 67.5t-65.5 25.5q-39 0 -66 -25.5t-40.5 -66t-13.5 -86.5q0 -30 10.5 -52.5t31 -35t50.5 -12.5q33 0 55.5 19t34.5 61l159 -50
q-24 -68 -91.5 -109.5t-162.5 -41.5zM156 -100l160 700h118l-160 -700h-118z" />
    <glyph glyph-name="sterling" unicode="&#xa3;" horiz-adv-x="633" 
d="M61 269l18 80h422l-19 -80h-421zM419 -11q-44 0 -77.5 13t-61.5 31.5t-53 36.5t-49.5 31t-53.5 13q-14 0 -23.5 -8t-9.5 -21t9 -21t23 -8q27 0 41 18.5t20 46.5t6 55q0 41 -8 75.5t-17.5 65t-17.5 62.5t-8 68q0 67 31.5 116.5t88 78t128.5 28.5q68 0 121 -22.5t83 -67.5
t27 -112l-166 -33q0 42 -15.5 67t-52.5 25q-22 0 -39 -10t-27 -29t-10 -45q0 -27 5.5 -56t11 -60.5t5.5 -68.5q0 -50 -14.5 -98.5t-42.5 -87t-66 -61t-86 -22.5q-49 0 -80 25t-31 67q0 47 34.5 72.5t83.5 25.5q29 0 59 -6t59.5 -15t56.5 -18t52.5 -15t46.5 -6q28 0 44 17.5
t22 60.5l123 -21q1 -61 -24 -102.5t-64.5 -63t-83.5 -21.5z" />
    <glyph glyph-name="currency" unicode="&#xa4;" horiz-adv-x="656" 
d="M347 537q63 0 111 -26.5t75 -72.5t27 -108t-27 -108.5t-75 -73t-111 -26.5q-64 0 -112.5 26.5t-75.5 73t-27 108.5t27 108t75.5 72.5t112.5 26.5zM347 399q-31 0 -49.5 -18.5t-18.5 -50.5t18.5 -51t49.5 -19q30 0 48 19t18 51t-18 50.5t-48 18.5zM165 624l135 -157
l-92 -92l-157 135zM207 284l93 -92l-135 -158l-114 115zM489 279l152 -130l-115 -115l-131 152zM526 624l115 -114l-151 -132l-94 94z" />
    <glyph glyph-name="yen" unicode="&#xa5;" horiz-adv-x="679" 
d="M180 0l30 127h-171l13 58h171l15 63h-172l14 60h94l66 -4l-141 356h187l52 -193l26 -103h2l57 104l106 192h221l-289 -357l66 5h94l-14 -60h-172l-14 -63h171l-13 -58h-171l-30 -127h-198z" />
    <glyph glyph-name="brokenbar" unicode="&#xa6;" horiz-adv-x="347" 
d="M368 706l-89 -385h-178l88 385h179zM256 218l-90 -386h-179l90 386h179z" />
    <glyph glyph-name="section" unicode="&#xa7;" horiz-adv-x="633" 
d="M282 -111q-57 0 -112 15t-99.5 45.5t-69.5 76.5l113 74q27 -42 75.5 -67t101.5 -25q32 0 52.5 10.5t20.5 30.5q0 15 -13.5 25.5t-43.5 20.5l-127 44q-70 23 -110.5 58t-40.5 100q0 54 28.5 88t77.5 49.5t111 14.5l35 -81q-63 -3 -87.5 -14t-24.5 -36q0 -20 17 -32t50 -22
l137 -43q66 -21 102.5 -54t36.5 -83q0 -58 -29 -102t-81 -68.5t-120 -24.5zM390 106l-35 84q30 -1 56 2.5t42 14t16 29.5q0 17 -15.5 27.5t-39.5 17.5l-169 55q-34 11 -59 31t-38 48t-13 64q0 59 29 101.5t81 65.5t119 23q57 0 107 -12.5t91 -40t70 -73.5l-115 -78
q-25 41 -63.5 59t-90.5 18q-25 0 -40.5 -6.5t-23 -16.5t-7.5 -23q0 -16 13 -29.5t61 -26.5l82 -23q79 -21 119.5 -58t40.5 -92q0 -56 -28 -95.5t-77 -56.5t-113 -9z" />
    <glyph glyph-name="dieresis" unicode="&#xa8;" horiz-adv-x="500" 
d="M446 545q-40 0 -64.5 16t-24.5 52q0 54 29 77t78 23q40 0 64 -16t24 -51q0 -54 -28.5 -77.5t-77.5 -23.5zM214 545q-40 0 -64.5 16t-24.5 52q0 54 29 77t78 23q40 0 64 -16t24 -51q0 -54 -29 -77.5t-77 -23.5z" />
    <glyph glyph-name="copyright" unicode="&#xa9;" horiz-adv-x="768" 
d="M402 -10q-99 0 -177.5 43t-123 119.5t-44.5 177.5q0 102 44.5 178t123 119t177.5 43q101 0 178.5 -43t122.5 -119t45 -178q0 -101 -45 -177.5t-122.5 -119.5t-178.5 -43zM402 80q76 0 132.5 31.5t88 88t31.5 130.5q0 75 -31.5 131t-88 87.5t-132.5 31.5
q-75 0 -131.5 -31.5t-88 -87.5t-31.5 -131q0 -74 31.5 -130.5t88 -88t131.5 -31.5zM408 136q-92 0 -143 53t-51 141t51 140.5t143 52.5q71 0 116.5 -31.5t62.5 -84.5l-113 -54q-10 20 -24 27t-35 7q-27 0 -43.5 -14.5t-16.5 -42.5t16.5 -43t44.5 -15q19 0 35 7t25 30
l108 -53q-25 -64 -66 -92t-110 -28z" />
    <glyph glyph-name="ordfeminine" unicode="&#xaa;" horiz-adv-x="453" 
d="M182 299q-47 0 -80 34t-33 100q0 42 11.5 82.5t34 73.5t54 52.5t71.5 19.5q23 0 45 -10.5t36 -35.5t12 -71l-16 -22l31 132h145l-81 -348h-132l28 147l4 -22q-12 -62 -47 -97t-83 -35zM11 133l24 101h374l-23 -101h-375zM250 402q20 0 33.5 18.5t20.5 44t7 46.5t-9 33.5
t-27 12.5q-22 0 -35.5 -19t-20.5 -43.5t-7 -43.5q0 -23 9.5 -36t28.5 -13z" />
    <glyph glyph-name="guillemotleft" unicode="&#xab;" horiz-adv-x="610" 
d="M371 461l-203 -239l3 110l106 -263h-165l-80 196l169 196h170zM629 461l-203 -239l3 110l106 -263h-165l-80 196l169 196h170z" />
    <glyph glyph-name="logicalnot" unicode="&#xac;" 
d="M559 312l-52 -227h-158l52 227h158zM578 397l-32 -138h-484l32 138h484z" />
    <glyph glyph-name="uni00AD" unicode="&#xad;" horiz-adv-x="534" 
d="M479 349l-36 -158h-379l36 158h379z" />
    <glyph glyph-name="registered" unicode="&#xae;" horiz-adv-x="770" 
d="M403 670q105 0 182.5 -42.5t120.5 -118.5t43 -179q0 -102 -43 -178.5t-120.5 -119t-182.5 -42.5q-104 0 -181.5 42.5t-120.5 119t-43 178.5q0 103 43 179t120.5 118.5t181.5 42.5zM369 516v-362h-113v362h113zM471 319l105 -165h-138l-66 142zM403 580q-75 0 -131 -31.5
t-87 -87t-31 -131.5q0 -75 31 -131t87 -87.5t131 -31.5q76 0 132 31.5t87 87.5t31 131q0 76 -31 131.5t-87 87t-132 31.5zM439 516q37 0 65.5 -15.5t45.5 -42.5t17 -62q0 -58 -39 -89.5t-105 -31.5h-103v77h88q19 0 31 7.5t12 26.5t-12 27t-31 8h-88v95h119z" />
    <glyph glyph-name="macron" unicode="&#xaf;" horiz-adv-x="500" 
d="M536 678l-28 -119h-374l28 119h374z" />
    <glyph glyph-name="degree" unicode="&#xb0;" horiz-adv-x="490" 
d="M297 283q-66 0 -114 23.5t-74 67t-26 103.5q0 59 26 102.5t74 67t114 23.5q67 0 114 -23.5t73 -67t26 -102.5q0 -60 -26 -103.5t-73 -67t-114 -23.5zM297 407q32 0 51.5 20t19.5 50q0 31 -19.5 50t-51.5 19q-31 0 -51 -19t-20 -50q0 -30 20 -50t51 -20z" />
    <glyph glyph-name="plusminus" unicode="&#xb1;" 
d="M467 656l-107 -460h-140l107 460h140zM612 493l-31 -133h-508l30 133h509zM529 129l-30 -128h-509l30 128h509z" />
    <glyph glyph-name="uni00B2" unicode="&#xb2;" horiz-adv-x="392" 
d="M50 334l21 92q39 17 79 37.5t74.5 42t56 44t21.5 44.5q0 19 -8.5 26t-22.5 7q-22 0 -34 -15.5t-15 -44.5l-133 29q12 66 58.5 103t134.5 37q79 0 120.5 -31.5t41.5 -80.5q0 -42 -17.5 -71t-46.5 -49t-63 -34t-67 -27v-1q17 1 38 1.5t43 0.5h87l-25 -110h-343z" />
    <glyph glyph-name="uni00B3" unicode="&#xb3;" horiz-adv-x="387" 
d="M239 327q-85 0 -132.5 34.5t-51.5 90.5l130 23q1 -25 13.5 -36.5t33.5 -11.5q19 0 30 9.5t11 27.5q0 16 -11 23.5t-29 7.5q-8 0 -13.5 -0.5t-10.5 -1.5l18 73q7 -1 13.5 -2t13.5 -1q23 0 32.5 10t9.5 25q0 16 -9.5 23t-26.5 7t-28.5 -8.5t-16.5 -26.5l-121 39
q13 46 57 75.5t123 29.5q69 0 115 -28t46 -80q0 -40 -24.5 -69.5t-68.5 -31.5l-1 -3q30 -2 51 -19.5t21 -52.5q0 -41 -23.5 -69.5t-63 -42.5t-87.5 -14z" />
    <glyph glyph-name="acute" unicode="&#xb4;" horiz-adv-x="600" 
d="M350 734h188l-148 -175h-145z" />
    <glyph glyph-name="uni00B5" unicode="&#xb5;" horiz-adv-x="617" 
d="M-58 -210l164 710h202l-68 -292q-7 -30 4.5 -48t41.5 -18q21 0 35.5 9.5t24.5 29t16 47.5l63 272h202l-116 -500h-180l17 105q-27 -54 -71 -84t-103 -30q-24 0 -50 6t-51 19l142 73l-71 -299h-202z" />
    <glyph glyph-name="paragraph" unicode="&#xb6;" horiz-adv-x="783" 
d="M220 -100l61 267q-31 0 -67.5 12.5t-70.5 39t-55 70t-21 105.5q0 84 39.5 143.5t111.5 91t167 31.5h435l-176 -760h-161l140 608h-101l-140 -608h-162zM311 325l42 183h-21q-33 0 -57 -12t-37.5 -35t-13.5 -59q0 -34 23 -55.5t64 -21.5z" />
    <glyph glyph-name="periodcentered" unicode="&#xb7;" horiz-adv-x="287" 
d="M162 254q-48 0 -77 21.5t-29 62.5q0 52 31 83t86 31q49 0 77.5 -21t28.5 -63q0 -52 -30.5 -83t-86.5 -31z" />
    <glyph glyph-name="cedilla" unicode="&#xb8;" horiz-adv-x="500" 
d="M123 6l46 23q59 -8 91.5 -37t32.5 -75q0 -41 -19 -71.5t-51.5 -46.5t-75.5 -16q-39 0 -68.5 10.5t-50.5 29.5l49 82q11 -10 28.5 -15t30.5 -5q24 0 40 16.5t16 37.5t-17 38t-52 29z" />
    <glyph glyph-name="uni00B9" unicode="&#xb9;" horiz-adv-x="297" 
d="M133 334l45 194q3 9 7 23.5t7.5 26.5t3.5 13q-24 -14 -59 -24t-59 -11l24 110q27 6 56 16t55 22.5t42 25.5h112l-92 -396h-142z" />
    <glyph glyph-name="ordmasculine" unicode="&#xba;" horiz-adv-x="444" 
d="M260 299q-85 0 -131 43.5t-46 113.5q0 54 23.5 101t69.5 75.5t114 28.5q85 0 130.5 -43.5t45.5 -113.5q0 -54 -22.5 -101t-68.5 -75.5t-115 -28.5zM9 133l23 101h372l-24 -101h-371zM261 397q21 0 35 21t21.5 49.5t7.5 50.5q0 23 -10.5 33.5t-26.5 10.5
q-21 0 -35.5 -20.5t-21.5 -48.5t-7 -51t10 -34t27 -11z" />
    <glyph glyph-name="guillemotright" unicode="&#xbb;" horiz-adv-x="610" 
d="M-12 69l191 231l10 -107l-108 268h162l84 -196l-167 -196h-172zM246 69l191 231l10 -107l-108 268h162l84 -196l-167 -196h-172z" />
    <glyph glyph-name="onequarter" unicode="&#xbc;" horiz-adv-x="898" 
d="M118 269l45 194q3 9 7 23.5t7.5 26.5t3.5 13q-24 -14 -59 -24t-59 -11l24 110q27 6 56 16t55 22.5t42 25.5h112l-92 -396h-142zM71 0l625 661h142l-625 -661h-142zM640 -3l18 78h-186l21 86q12 14 21.5 26.5t20 25t23.5 26.5l131 154h166l-51 -224h68l-21 -94h-68
l-18 -78h-125zM611 169h69l32 132l-72 -97q-8 -10 -15 -19t-14 -16z" />
    <glyph glyph-name="onehalf" unicode="&#xbd;" horiz-adv-x="967" 
d="M118 269l45 194q3 9 7 23.5t7.5 26.5t3.5 13q-24 -14 -59 -24t-59 -11l24 110q27 6 56 16t55 22.5t42 25.5h112l-92 -396h-142zM71 0l625 661h142l-625 -661h-142zM547 -3l21 92q39 17 79 37.5t74.5 42t56 44t21.5 44.5q0 19 -8.5 26t-22.5 7q-22 0 -34 -15.5t-15 -44.5
l-133 29q12 66 58.5 103t134.5 37q79 0 120.5 -31.5t41.5 -80.5q0 -42 -17.5 -71t-46.5 -49t-63 -34t-67 -27v-1q17 1 38 1.5t43 0.5h87l-25 -110h-343z" />
    <glyph glyph-name="threequarters" unicode="&#xbe;" horiz-adv-x="988" 
d="M224 262q-85 0 -132.5 34.5t-51.5 90.5l130 23q1 -25 13.5 -36.5t33.5 -11.5q19 0 30 9.5t11 27.5q0 16 -11 23.5t-29 7.5q-8 0 -13.5 -0.5t-10.5 -1.5l18 73q7 -1 13.5 -2t13.5 -1q23 0 32.5 10t9.5 25q0 16 -9.5 23t-26.5 7t-28.5 -8.5t-16.5 -26.5l-121 39
q13 46 57 75.5t123 29.5q69 0 115 -28t46 -80q0 -40 -24.5 -69.5t-68.5 -31.5l-1 -3q30 -2 51 -19.5t21 -52.5q0 -41 -23.5 -69.5t-63 -42.5t-87.5 -14zM161 0l625 661h142l-625 -661h-142zM730 -3l18 78h-186l21 86q12 14 21.5 26.5t20 25t23.5 26.5l131 154h166l-51 -224
h68l-21 -94h-68l-18 -78h-125zM701 169h69l32 132l-72 -97q-8 -10 -15 -19t-14 -16z" />
    <glyph glyph-name="questiondown" unicode="&#xbf;" horiz-adv-x="619" 
d="M427 285l-34 -155q-52 -1 -95 -9t-68.5 -27.5t-25.5 -55.5q0 -24 17 -37t45 -13q34 0 55.5 20.5t33.5 61.5l187 -66q-14 -47 -50 -86t-97.5 -63t-152.5 -24q-75 0 -132 21.5t-88.5 61.5t-31.5 95q0 63 27 107t81.5 69.5t133.5 32.5l21 67h174zM369 508q46 0 73.5 -19.5
t27.5 -57.5q0 -47 -29 -75t-83 -28q-46 0 -73.5 19t-27.5 57q0 47 29.5 75.5t82.5 28.5z" />
    <glyph glyph-name="Agrave" unicode="&#xc0;" horiz-adv-x="680" 
d="M-62 0l375 660h247l66 -660h-193l-7 143h-204l-73 -143h-211zM290 275h131l-11 236zM489 881l29 -166h-131l-68 166h170z" />
    <glyph glyph-name="Aacute" unicode="&#xc1;" horiz-adv-x="680" 
d="M-62 0l375 660h247l66 -660h-193l-7 143h-204l-73 -143h-211zM290 275h131l-11 236zM465 881h180l-128 -166h-149z" />
    <glyph glyph-name="Acircumflex" unicode="&#xc2;" horiz-adv-x="680" 
d="M-62 0l375 660h247l66 -660h-193l-7 143h-204l-73 -143h-211zM290 275h131l-11 236zM583 881l58 -166h-128l-41 87l-79 -87h-140l136 166h194z" />
    <glyph glyph-name="Atilde" unicode="&#xc3;" horiz-adv-x="680" 
d="M-62 0l375 660h247l66 -660h-193l-7 143h-204l-73 -143h-211zM290 275h131l-11 236zM671 879q-12 -86 -54 -127.5t-94 -41.5q-27 0 -45.5 8.5t-32 19.5t-26 19.5t-26.5 8.5q-15 0 -25 -14.5t-16 -39.5h-106q14 85 53 126.5t94 41.5q22 0 40 -8.5t33 -19t29 -19t28 -8.5
q15 0 25.5 13.5t16.5 40.5h106z" />
    <glyph glyph-name="Adieresis" unicode="&#xc4;" horiz-adv-x="680" 
d="M-62 0l375 660h247l66 -660h-193l-7 143h-204l-73 -143h-211zM290 275h131l-11 236zM566 705q-40 0 -64.5 16t-24.5 52q0 54 29 77t78 23q40 0 64 -16t24 -51q0 -54 -28.5 -77.5t-77.5 -23.5zM334 705q-40 0 -64.5 16t-24.5 52q0 54 29 77t78 23q40 0 64 -16t24 -51
q0 -54 -29 -77.5t-77 -23.5z" />
    <glyph glyph-name="Aring" unicode="&#xc5;" horiz-adv-x="680" 
d="M-62 0l375 660h247l66 -660h-193l-7 143h-204l-73 -143h-211zM290 275h131l-11 236zM448 840q64 0 101.5 -32t37.5 -83q0 -62 -42 -101.5t-108 -39.5q-64 0 -101.5 31.5t-37.5 82.5q0 62 42 102t108 40zM445 758q-20 0 -35 -13.5t-15 -38.5q0 -18 12.5 -29.5t32.5 -11.5
t34.5 14t14.5 38q0 19 -11.5 30t-32.5 11z" />
    <glyph glyph-name="AE" unicode="&#xc6;" horiz-adv-x="910" 
d="M-65 0l388 660h647l-35 -145h-276l-28 -118h212l-31 -135h-211l-28 -117h290l-34 -145h-478l44 190h-144l-101 -190h-215zM312 315h111l48 207h-46z" />
    <glyph glyph-name="Ccedilla" unicode="&#xc7;" horiz-adv-x="694" 
d="M354 -10q-88 0 -156.5 35t-108 99t-39.5 151q0 88 25 160.5t72 125t115 81t154 28.5q79 0 139.5 -26.5t99 -77t49.5 -122.5l-195 -40q-1 55 -24 82.5t-72 27.5q-41 0 -71 -24t-50 -61t-29 -80t-9 -82q0 -37 13 -64t37.5 -42t61.5 -15q46 0 72 26.5t44 68.5l181 -68
q-43 -86 -118.5 -134.5t-190.5 -48.5zM247 6l46 23q59 -8 91.5 -37t32.5 -75q0 -41 -19 -71.5t-51.5 -46.5t-75.5 -16q-39 0 -68.5 10.5t-50.5 29.5l49 82q11 -10 28.5 -15t30.5 -5q24 0 40 16.5t16 37.5t-17 38t-52 29z" />
    <glyph glyph-name="Egrave" unicode="&#xc8;" horiz-adv-x="626" 
d="M2 0l153 660h535l-35 -153h-331l-25 -107h261l-32 -142h-261l-24 -105h338l-36 -153h-543zM471 881l29 -166h-131l-68 166h170z" />
    <glyph glyph-name="Eacute" unicode="&#xc9;" horiz-adv-x="626" 
d="M2 0l153 660h535l-35 -153h-331l-25 -107h261l-32 -142h-261l-24 -105h338l-36 -153h-543zM440 881h180l-128 -166h-149z" />
    <glyph glyph-name="Ecircumflex" unicode="&#xca;" horiz-adv-x="626" 
d="M2 0l153 660h535l-35 -153h-331l-25 -107h261l-32 -142h-261l-24 -105h338l-36 -153h-543zM567 881l58 -166h-128l-41 87l-79 -87h-140l136 166h194z" />
    <glyph glyph-name="Edieresis" unicode="&#xcb;" horiz-adv-x="626" 
d="M2 0l153 660h535l-35 -153h-331l-25 -107h261l-32 -142h-261l-24 -105h338l-36 -153h-543zM550 705q-40 0 -64.5 16t-24.5 52q0 54 29 77t78 23q40 0 64 -16t24 -51q0 -54 -28.5 -77.5t-77.5 -23.5zM318 705q-40 0 -64.5 16t-24.5 52q0 54 29 77t78 23q40 0 64 -16
t24 -51q0 -54 -29 -77.5t-77 -23.5z" />
    <glyph glyph-name="Igrave" unicode="&#xcc;" horiz-adv-x="325" 
d="M360 660l-153 -660h-205l153 660h205zM308 881l29 -166h-131l-68 166h170z" />
    <glyph glyph-name="Iacute" unicode="&#xcd;" horiz-adv-x="325" 
d="M360 660l-153 -660h-205l153 660h205zM290 881h180l-128 -166h-149z" />
    <glyph glyph-name="Icircumflex" unicode="&#xce;" horiz-adv-x="325" 
d="M360 660l-153 -660h-205l153 660h205zM405 881l58 -166h-128l-41 87l-79 -87h-140l136 166h194z" />
    <glyph glyph-name="Idieresis" unicode="&#xcf;" horiz-adv-x="325" 
d="M386 705q-40 0 -64.5 16t-24.5 52q0 54 29 77t79 23q40 0 63.5 -16t23.5 -51q0 -54 -28.5 -77.5t-77.5 -23.5zM158 705q-40 0 -64.5 16t-24.5 52q0 54 29 77t78 23q40 0 64 -16t24 -51q0 -54 -29 -77.5t-77 -23.5zM360 660l-153 -660h-205l153 660h205z" />
    <glyph glyph-name="Eth" unicode="&#xd0;" horiz-adv-x="735" 
d="M9 261l31 136h390l-31 -136h-390zM29 0l153 660h248q97 0 161.5 -34t97.5 -94.5t33 -141.5q0 -88 -24.5 -160t-72 -123t-115.5 -79t-156 -28h-325zM268 149h74q45 0 78.5 21.5t55 57t32 79t10.5 86.5q0 37 -12.5 63.5t-36.5 40.5t-62 14h-56z" />
    <glyph glyph-name="Ntilde" unicode="&#xd1;" horiz-adv-x="741" 
d="M2 0l153 660h215l103 -335l27 -100h2l29 149l66 286h179l-153 -660h-212l-107 327l-28 100h-2l-27 -141l-66 -286h-179zM700 879q-12 -86 -54 -127.5t-94 -41.5q-27 0 -45.5 8.5t-32 19.5t-26 19.5t-26.5 8.5q-15 0 -25 -14.5t-16 -39.5h-106q14 85 53 126.5t94 41.5
q22 0 40 -8.5t33 -19t29 -19t28 -8.5q15 0 25.5 13.5t16.5 40.5h106z" />
    <glyph glyph-name="Ograve" unicode="&#xd2;" horiz-adv-x="728" 
d="M352 -10q-85 0 -153.5 34.5t-108 99.5t-39.5 157q0 84 24.5 155.5t71 124t114 81t152.5 28.5q86 0 154 -34.5t107.5 -99.5t39.5 -157q0 -84 -24 -155t-70.5 -124t-114 -81.5t-153.5 -28.5zM357 147q39 0 67.5 23t47.5 60.5t28.5 81.5t9.5 85q0 38 -11.5 64t-34 39
t-56.5 13q-39 0 -67.5 -23t-47.5 -60.5t-28.5 -81.5t-9.5 -85q0 -37 11.5 -63.5t34.5 -39.5t56 -13zM489 881l29 -166h-131l-68 166h170z" />
    <glyph glyph-name="Oacute" unicode="&#xd3;" horiz-adv-x="728" 
d="M352 -10q-85 0 -153.5 34.5t-108 99.5t-39.5 157q0 84 24.5 155.5t71 124t114 81t152.5 28.5q86 0 154 -34.5t107.5 -99.5t39.5 -157q0 -84 -24 -155t-70.5 -124t-114 -81.5t-153.5 -28.5zM357 147q39 0 67.5 23t47.5 60.5t28.5 81.5t9.5 85q0 38 -11.5 64t-34 39
t-56.5 13q-39 0 -67.5 -23t-47.5 -60.5t-28.5 -81.5t-9.5 -85q0 -37 11.5 -63.5t34.5 -39.5t56 -13zM467 881h180l-128 -166h-149z" />
    <glyph glyph-name="Ocircumflex" unicode="&#xd4;" horiz-adv-x="728" 
d="M352 -10q-85 0 -153.5 34.5t-108 99.5t-39.5 157q0 84 24.5 155.5t71 124t114 81t152.5 28.5q86 0 154 -34.5t107.5 -99.5t39.5 -157q0 -84 -24 -155t-70.5 -124t-114 -81.5t-153.5 -28.5zM357 147q39 0 67.5 23t47.5 60.5t28.5 81.5t9.5 85q0 38 -11.5 64t-34 39
t-56.5 13q-39 0 -67.5 -23t-47.5 -60.5t-28.5 -81.5t-9.5 -85q0 -37 11.5 -63.5t34.5 -39.5t56 -13zM585 881l58 -166h-128l-41 87l-79 -87h-140l136 166h194z" />
    <glyph glyph-name="Otilde" unicode="&#xd5;" horiz-adv-x="728" 
d="M352 -10q-85 0 -153.5 34.5t-108 99.5t-39.5 157q0 84 24.5 155.5t71 124t114 81t152.5 28.5q86 0 154 -34.5t107.5 -99.5t39.5 -157q0 -84 -24 -155t-70.5 -124t-114 -81.5t-153.5 -28.5zM357 147q39 0 67.5 23t47.5 60.5t28.5 81.5t9.5 85q0 38 -11.5 64t-34 39
t-56.5 13q-39 0 -67.5 -23t-47.5 -60.5t-28.5 -81.5t-9.5 -85q0 -37 11.5 -63.5t34.5 -39.5t56 -13zM673 879q-12 -86 -54 -127.5t-94 -41.5q-27 0 -45.5 8.5t-32 19.5t-26 19.5t-26.5 8.5q-15 0 -25 -14.5t-16 -39.5h-106q14 85 53 126.5t94 41.5q22 0 40 -8.5t33 -19
t29 -19t28 -8.5q15 0 25.5 13.5t16.5 40.5h106z" />
    <glyph glyph-name="Odieresis" unicode="&#xd6;" horiz-adv-x="728" 
d="M352 -10q-85 0 -153.5 34.5t-108 99.5t-39.5 157q0 84 24.5 155.5t71 124t114 81t152.5 28.5q86 0 154 -34.5t107.5 -99.5t39.5 -157q0 -84 -24 -155t-70.5 -124t-114 -81.5t-153.5 -28.5zM357 147q39 0 67.5 23t47.5 60.5t28.5 81.5t9.5 85q0 38 -11.5 64t-34 39
t-56.5 13q-39 0 -67.5 -23t-47.5 -60.5t-28.5 -81.5t-9.5 -85q0 -37 11.5 -63.5t34.5 -39.5t56 -13zM568 705q-40 0 -64.5 16t-24.5 52q0 54 29 77t78 23q40 0 64 -16t24 -51q0 -54 -28.5 -77.5t-77.5 -23.5zM336 705q-40 0 -64.5 16t-24.5 52q0 54 29 77t78 23q40 0 64 -16
t24 -51q0 -54 -29 -77.5t-77 -23.5z" />
    <glyph glyph-name="multiply" unicode="&#xd7;" 
d="M119 72l-91 119l488 396l91 -119zM419 72l-322 422l118 93l321 -422z" />
    <glyph glyph-name="Oslash" unicode="&#xd8;" horiz-adv-x="728" 
d="M254 138l-41 53l300 346l36 -58zM20 -19l137 153l44 -48l-97 -105h-84zM575 502l-16 78l90 99h84zM352 -10q-85 0 -153.5 34.5t-108 99.5t-39.5 157q0 84 24.5 155.5t71 124t114 81t152.5 28.5q86 0 154 -34.5t107.5 -99.5t39.5 -157q0 -84 -24 -155t-70.5 -124
t-114 -81.5t-153.5 -28.5zM357 147q39 0 67.5 23t47.5 60.5t28.5 81.5t9.5 85q0 38 -11.5 64t-34 39t-56.5 13q-39 0 -67.5 -23t-47.5 -60.5t-28.5 -81.5t-9.5 -85q0 -37 11.5 -63.5t34.5 -39.5t56 -13z" />
    <glyph glyph-name="Ugrave" unicode="&#xd9;" horiz-adv-x="708" 
d="M331 -10q-104 0 -173 36.5t-96 105t-5 163.5l85 365h206l-90 -391q-8 -39 0.5 -66.5t32 -42t58.5 -14.5q46 0 71.5 27.5t37.5 83.5l94 403h204l-93 -401q-33 -137 -111.5 -203t-220.5 -66zM499 877l29 -166h-131l-68 166h170z" />
    <glyph glyph-name="Uacute" unicode="&#xda;" horiz-adv-x="708" 
d="M331 -10q-104 0 -173 36.5t-96 105t-5 163.5l85 365h206l-90 -391q-8 -39 0.5 -66.5t32 -42t58.5 -14.5q46 0 71.5 27.5t37.5 83.5l94 403h204l-93 -401q-33 -137 -111.5 -203t-220.5 -66zM477 877h180l-128 -166h-149z" />
    <glyph glyph-name="Ucircumflex" unicode="&#xdb;" horiz-adv-x="708" 
d="M331 -10q-104 0 -173 36.5t-96 105t-5 163.5l85 365h206l-90 -391q-8 -39 0.5 -66.5t32 -42t58.5 -14.5q46 0 71.5 27.5t37.5 83.5l94 403h204l-93 -401q-33 -137 -111.5 -203t-220.5 -66zM595 877l58 -166h-128l-41 87l-79 -87h-140l136 166h194z" />
    <glyph glyph-name="Udieresis" unicode="&#xdc;" horiz-adv-x="708" 
d="M331 -10q-104 0 -173 36.5t-96 105t-5 163.5l85 365h206l-90 -391q-8 -39 0.5 -66.5t32 -42t58.5 -14.5q46 0 71.5 27.5t37.5 83.5l94 403h204l-93 -401q-33 -137 -111.5 -203t-220.5 -66zM578 701q-40 0 -64.5 16t-24.5 52q0 54 29 77t78 23q40 0 64 -16t24 -51
q0 -54 -28.5 -77.5t-77.5 -23.5zM346 701q-40 0 -64.5 16t-24.5 52q0 54 29 77t78 23q40 0 64 -16t24 -51q0 -54 -29 -77.5t-77 -23.5z" />
    <glyph glyph-name="Yacute" unicode="&#xdd;" horiz-adv-x="685" 
d="M182 0l56 241l-133 419h194l47 -166l25 -113l70 115l113 164h216l-331 -433l-52 -227h-205zM449 877h180l-128 -166h-149z" />
    <glyph glyph-name="Thorn" unicode="&#xde;" horiz-adv-x="687" 
d="M146 108l34 148h189q34 0 57 12.5t35.5 33t12.5 45.5q0 32 -20.5 51t-67.5 19h-173l35 148h162q125 0 195 -53.5t70 -151.5q0 -74 -35 -131t-100.5 -89t-156.5 -32h-237zM2 0l153 660h205l-153 -660h-205z" />
    <glyph glyph-name="germandbls" unicode="&#xdf;" horiz-adv-x="652" 
d="M381 -10q-50 0 -88 8.5t-59 22.5l52 128q13 -8 29 -12.5t36 -4.5q26 0 44 11t27 29t9 40q0 35 -23 52t-67 17q-9 0 -17 -0.5t-18 -1.5l43 139q10 -1 18.5 -1.5t15.5 -0.5q29 0 48.5 11.5t29 32t9.5 43.5q0 24 -9 38.5t-25 22t-36 7.5q-41 0 -64.5 -25t-36.5 -81
l-107 -465h-202l111 483q26 114 103 171t211 57q81 0 136 -23t83.5 -62.5t28.5 -90.5q0 -60 -24 -100.5t-65.5 -61.5t-95.5 -25v-2q39 -3 71 -19.5t50.5 -47t18.5 -74.5q0 -64 -30 -112.5t-83 -75.5t-124 -27z" />
    <glyph glyph-name="agrave" unicode="&#xe0;" horiz-adv-x="618" 
d="M188 -10q-46 0 -84 22t-60 65t-22 107q0 60 17 118t48.5 105t76.5 75t103 28q29 0 57.5 -11t50 -35t28.5 -66l24 102h202l-116 -500h-184l17 95q-25 -49 -66 -77t-92 -28zM282 135q21 0 38 15t29.5 39.5t19 52.5t6.5 53q0 22 -7 37.5t-19.5 24t-30.5 8.5q-24 0 -42 -16
t-30 -40t-18 -51t-6 -48q0 -23 6.5 -40t19.5 -26t34 -9zM406 734l24 -175h-136l-71 175h183z" />
    <glyph glyph-name="aacute" unicode="&#xe1;" horiz-adv-x="618" 
d="M188 -10q-46 0 -84 22t-60 65t-22 107q0 60 17 118t48.5 105t76.5 75t103 28q29 0 57.5 -11t50 -35t28.5 -66l24 102h202l-116 -500h-184l17 95q-25 -49 -66 -77t-92 -28zM282 135q21 0 38 15t29.5 39.5t19 52.5t6.5 53q0 22 -7 37.5t-19.5 24t-30.5 8.5q-24 0 -42 -16
t-30 -40t-18 -51t-6 -48q0 -23 6.5 -40t19.5 -26t34 -9zM374 734h188l-148 -175h-145z" />
    <glyph glyph-name="acircumflex" unicode="&#xe2;" horiz-adv-x="618" 
d="M188 -10q-46 0 -84 22t-60 65t-22 107q0 60 17 118t48.5 105t76.5 75t103 28q29 0 57.5 -11t50 -35t28.5 -66l24 102h202l-116 -500h-184l17 95q-25 -49 -66 -77t-92 -28zM282 135q21 0 38 15t29.5 39.5t19 52.5t6.5 53q0 22 -7 37.5t-19.5 24t-30.5 8.5q-24 0 -42 -16
t-30 -40t-18 -51t-6 -48q0 -23 6.5 -40t19.5 -26t34 -9zM153 552l148 176h191l67 -176h-135l-45 79l-80 -79h-146z" />
    <glyph glyph-name="atilde" unicode="&#xe3;" horiz-adv-x="618" 
d="M188 -10q-46 0 -84 22t-60 65t-22 107q0 60 17 118t48.5 105t76.5 75t103 28q29 0 57.5 -11t50 -35t28.5 -66l24 102h202l-116 -500h-184l17 95q-25 -49 -66 -77t-92 -28zM282 135q21 0 38 15t29.5 39.5t19 52.5t6.5 53q0 22 -7 37.5t-19.5 24t-30.5 8.5q-24 0 -42 -16
t-30 -40t-18 -51t-6 -48q0 -23 6.5 -40t19.5 -26t34 -9zM585 719q-12 -86 -54 -127.5t-94 -41.5q-27 0 -45.5 8.5t-32 19.5t-26 19.5t-26.5 8.5q-15 0 -25 -14.5t-16 -39.5h-106q14 85 53 126.5t94 41.5q22 0 40 -8.5t33 -19t29 -19t28 -8.5q15 0 25.5 13.5t16.5 40.5h106z
" />
    <glyph glyph-name="adieresis" unicode="&#xe4;" horiz-adv-x="618" 
d="M188 -10q-46 0 -84 22t-60 65t-22 107q0 60 17 118t48.5 105t76.5 75t103 28q29 0 57.5 -11t50 -35t28.5 -66l24 102h202l-116 -500h-184l17 95q-25 -49 -66 -77t-92 -28zM282 135q21 0 38 15t29.5 39.5t19 52.5t6.5 53q0 22 -7 37.5t-19.5 24t-30.5 8.5q-24 0 -42 -16
t-30 -40t-18 -51t-6 -48q0 -23 6.5 -40t19.5 -26t34 -9zM480 545q-40 0 -64.5 16t-24.5 52q0 54 29 77t78 23q40 0 64 -16t24 -51q0 -54 -28.5 -77.5t-77.5 -23.5zM248 545q-40 0 -64.5 16t-24.5 52q0 54 29 77t78 23q40 0 64 -16t24 -51q0 -54 -29 -77.5t-77 -23.5z" />
    <glyph glyph-name="aring" unicode="&#xe5;" horiz-adv-x="618" 
d="M188 -10q-46 0 -84 22t-60 65t-22 107q0 60 17 118t48.5 105t76.5 75t103 28q29 0 57.5 -11t50 -35t28.5 -66l24 102h202l-116 -500h-184l17 95q-25 -49 -66 -77t-92 -28zM282 135q21 0 38 15t29.5 39.5t19 52.5t6.5 53q0 22 -7 37.5t-19.5 24t-30.5 8.5q-24 0 -42 -16
t-30 -40t-18 -51t-6 -48q0 -23 6.5 -40t19.5 -26t34 -9zM379 799q64 0 101.5 -32t37.5 -83q0 -62 -42 -101.5t-108 -39.5q-64 0 -101.5 31.5t-37.5 82.5q0 62 42 102t108 40zM376 717q-20 0 -35 -13.5t-15 -38.5q0 -18 12.5 -29.5t32.5 -11.5t34.5 14t14.5 38q0 19 -11.5 30
t-32.5 11z" />
    <glyph glyph-name="ae" unicode="&#xe6;" horiz-adv-x="884" 
d="M179 -10q-78 0 -123.5 37t-45.5 102q0 48 23.5 78.5t61.5 47.5t81 21l174 21l-16 -84l-80 -12q-30 -4 -47.5 -15t-17.5 -35q0 -19 12.5 -29.5t35.5 -10.5q27 0 43.5 12.5t22.5 39.5l31 133q2 8 2 15v12q0 26 -13.5 40.5t-43.5 14.5q-29 0 -45 -18t-25 -51l-166 32
q14 76 73 122.5t167 46.5q53 0 91 -15t60 -41t25 -64l-37 14q24 32 53 55.5t67.5 37t91.5 13.5q69 0 119 -28t77.5 -76.5t27.5 -112.5q0 -21 -2 -43t-9 -44h-350l10 89h158q1 5 1 10v9q0 21 -7 34.5t-19 19.5t-27 6q-29 0 -49 -16t-31 -42t-16 -55.5t-5 -55.5
q0 -27 10 -44.5t28 -26t40 -8.5q30 0 48 14.5t27 36.5l168 -59q-17 -40 -53 -68.5t-84 -43.5t-103 -15q-57 0 -104 19.5t-77.5 56t-41.5 84.5l44 -5q-10 -40 -38 -76t-77 -58t-120 -22z" />
    <glyph glyph-name="ccedilla" unicode="&#xe7;" horiz-adv-x="571" 
d="M289 -10q-82 0 -141 29t-90.5 80.5t-31.5 118.5q0 79 34 145.5t100 106.5t162 40q74 0 128.5 -24t85 -67t29.5 -102l-191 -28q5 37 -6.5 59t-45.5 22q-25 0 -43 -17t-30.5 -43t-19 -56t-6.5 -56q0 -23 8 -39t22.5 -23.5t33.5 -7.5q24 0 43 17.5t27 46.5l178 -57
q-29 -67 -92.5 -106t-153.5 -39zM200 8l46 23q59 -8 91.5 -37t32.5 -75q0 -41 -19 -71.5t-51.5 -46.5t-75.5 -16q-39 0 -68.5 10.5t-50.5 29.5l49 82q11 -10 28.5 -15t30.5 -5q24 0 40 16.5t16 37.5t-17 38t-52 29z" />
    <glyph glyph-name="egrave" unicode="&#xe8;" horiz-adv-x="585" 
d="M284 -9q-75 0 -133.5 27.5t-91 79t-32.5 120.5q0 87 35.5 152.5t100.5 102.5t153 37q78 0 132 -28t82.5 -78t28.5 -117q0 -20 -2 -40.5t-8 -40.5h-387l-1 88h252l-52 -23q5 13 5.5 22.5t0.5 18.5q0 22 -7 35.5t-19.5 20t-28.5 6.5q-30 0 -50 -16t-31 -41.5t-15 -55
t-4 -55.5q0 -27 10 -45t28 -26.5t41 -8.5q30 0 48 15t27 36l168 -58q-16 -41 -53 -69.5t-87.5 -43.5t-109.5 -15zM392 734l24 -175h-136l-71 175h183z" />
    <glyph glyph-name="eacute" unicode="&#xe9;" horiz-adv-x="585" 
d="M284 -9q-75 0 -133.5 27.5t-91 79t-32.5 120.5q0 87 35.5 152.5t100.5 102.5t153 37q78 0 132 -28t82.5 -78t28.5 -117q0 -20 -2 -40.5t-8 -40.5h-387l-1 88h252l-52 -23q5 13 5.5 22.5t0.5 18.5q0 22 -7 35.5t-19.5 20t-28.5 6.5q-30 0 -50 -16t-31 -41.5t-15 -55
t-4 -55.5q0 -27 10 -45t28 -26.5t41 -8.5q30 0 48 15t27 36l168 -58q-16 -41 -53 -69.5t-87.5 -43.5t-109.5 -15zM360 734h188l-148 -175h-145z" />
    <glyph glyph-name="ecircumflex" unicode="&#xea;" horiz-adv-x="585" 
d="M284 -9q-75 0 -133.5 27.5t-91 79t-32.5 120.5q0 87 35.5 152.5t100.5 102.5t153 37q78 0 132 -28t82.5 -78t28.5 -117q0 -20 -2 -40.5t-8 -40.5h-387l-1 88h252l-52 -23q5 13 5.5 22.5t0.5 18.5q0 22 -7 35.5t-19.5 20t-28.5 6.5q-30 0 -50 -16t-31 -41.5t-15 -55
t-4 -55.5q0 -27 10 -45t28 -26.5t41 -8.5q30 0 48 15t27 36l168 -58q-16 -41 -53 -69.5t-87.5 -43.5t-109.5 -15zM139 552l148 176h191l67 -176h-135l-45 79l-80 -79h-146z" />
    <glyph glyph-name="edieresis" unicode="&#xeb;" horiz-adv-x="585" 
d="M284 -9q-75 0 -133.5 27.5t-91 79t-32.5 120.5q0 87 35.5 152.5t100.5 102.5t153 37q78 0 132 -28t82.5 -78t28.5 -117q0 -20 -2 -40.5t-8 -40.5h-387l-1 88h252l-52 -23q5 13 5.5 22.5t0.5 18.5q0 22 -7 35.5t-19.5 20t-28.5 6.5q-30 0 -50 -16t-31 -41.5t-15 -55
t-4 -55.5q0 -27 10 -45t28 -26.5t41 -8.5q30 0 48 15t27 36l168 -58q-16 -41 -53 -69.5t-87.5 -43.5t-109.5 -15zM466 545q-40 0 -64.5 16t-24.5 52q0 54 29 77t78 23q40 0 64 -16t24 -51q0 -54 -28.5 -77.5t-77.5 -23.5zM234 545q-40 0 -64.5 16t-24.5 52q0 54 29 77t78 23
q40 0 64 -16t24 -51q0 -54 -29 -77.5t-77 -23.5z" />
    <glyph glyph-name="igrave" unicode="&#xec;" horiz-adv-x="299" 
d="M308 500l-116 -500h-202l116 500h202zM264 734l24 -175h-136l-71 175h183z" />
    <glyph glyph-name="iacute" unicode="&#xed;" horiz-adv-x="299" 
d="M308 500l-116 -500h-202l116 500h202zM232 734h188l-148 -175h-145z" />
    <glyph glyph-name="icircumflex" unicode="&#xee;" horiz-adv-x="299" 
d="M308 500l-116 -500h-202l116 500h202zM11 552l148 176h191l67 -176h-135l-45 79l-80 -79h-146z" />
    <glyph glyph-name="idieresis" unicode="&#xef;" horiz-adv-x="299" 
d="M336 545q-39 0 -64 16t-25 52q0 54 29 77t79 23q40 0 63.5 -16t23.5 -51q0 -54 -28.5 -77.5t-77.5 -23.5zM108 545q-40 0 -64.5 16t-24.5 52q0 54 29 77t78 23q40 0 64 -16t24 -51q0 -54 -28.5 -77.5t-77.5 -23.5zM308 500l-116 -500h-202l116 500h202z" />
    <glyph glyph-name="eth" unicode="&#xf0;" horiz-adv-x="599" 
d="M274 -10q-72 0 -127 29t-85.5 81.5t-30.5 121.5q0 80 33 143.5t91.5 100t135.5 36.5q50 0 83.5 -15.5t50.5 -45.5t18 -74l-11 -18q3 15 4 30t1 30q0 66 -21.5 120t-61 100.5t-92.5 89.5h166q30 -21 58 -52.5t50.5 -72t35.5 -89t13 -104.5q0 -86 -20.5 -161t-60.5 -131.5
t-98 -87.5t-132 -31zM287 128q22 0 40 17t30.5 43.5t19 57t6.5 58.5q0 22 -7 37t-19.5 22.5t-31.5 7.5q-23 0 -41.5 -18t-31 -45.5t-19.5 -58t-7 -55.5q0 -21 7 -35.5t20.5 -22.5t33.5 -8zM250 544l-8 60l156 23l28 -54zM485 582l-17 55l165 28l10 -59z" />
    <glyph glyph-name="ntilde" unicode="&#xf1;" horiz-adv-x="615" 
d="M-10 0l116 500h179l-28 -176l-8 17q21 81 74 125t127 44q52 0 87 -23t49 -65t0 -101l-75 -321h-202l69 292q7 31 -5 49t-40 18q-20 0 -35.5 -10t-26 -29t-17.5 -48l-62 -272h-202zM601 719q-12 -86 -54 -127.5t-94 -41.5q-27 0 -45.5 8.5t-32 19.5t-26 19.5t-26.5 8.5
q-15 0 -25 -14.5t-16 -39.5h-106q14 85 53 126.5t94 41.5q22 0 40 -8.5t33 -19t29 -19t28 -8.5q15 0 25.5 13.5t16.5 40.5h106z" />
    <glyph glyph-name="ograve" unicode="&#xf2;" horiz-adv-x="602" 
d="M280 -10q-77 0 -134 29.5t-88.5 81t-31.5 117.5q0 79 34 145.5t99.5 106.5t161.5 40q78 0 135 -29.5t88.5 -80.5t31.5 -117q0 -79 -34 -146t-99.5 -107t-162.5 -40zM283 128q22 0 39.5 17t30 44t19 57t6.5 56q0 24 -7 39t-20.5 23t-32.5 8q-22 0 -39.5 -17t-30 -44
t-19.5 -57t-7 -56q0 -23 7.5 -38.5t21 -23.5t32.5 -8zM406 734l24 -175h-136l-71 175h183z" />
    <glyph glyph-name="oacute" unicode="&#xf3;" horiz-adv-x="602" 
d="M280 -10q-77 0 -134 29.5t-88.5 81t-31.5 117.5q0 79 34 145.5t99.5 106.5t161.5 40q78 0 135 -29.5t88.5 -80.5t31.5 -117q0 -79 -34 -146t-99.5 -107t-162.5 -40zM283 128q22 0 39.5 17t30 44t19 57t6.5 56q0 24 -7 39t-20.5 23t-32.5 8q-22 0 -39.5 -17t-30 -44
t-19.5 -57t-7 -56q0 -23 7.5 -38.5t21 -23.5t32.5 -8zM374 734h188l-148 -175h-145z" />
    <glyph glyph-name="ocircumflex" unicode="&#xf4;" horiz-adv-x="602" 
d="M280 -10q-77 0 -134 29.5t-88.5 81t-31.5 117.5q0 79 34 145.5t99.5 106.5t161.5 40q78 0 135 -29.5t88.5 -80.5t31.5 -117q0 -79 -34 -146t-99.5 -107t-162.5 -40zM283 128q22 0 39.5 17t30 44t19 57t6.5 56q0 24 -7 39t-20.5 23t-32.5 8q-22 0 -39.5 -17t-30 -44
t-19.5 -57t-7 -56q0 -23 7.5 -38.5t21 -23.5t32.5 -8zM153 552l148 176h191l67 -176h-135l-45 79l-80 -79h-146z" />
    <glyph glyph-name="otilde" unicode="&#xf5;" horiz-adv-x="602" 
d="M280 -10q-77 0 -134 29.5t-88.5 81t-31.5 117.5q0 79 34 145.5t99.5 106.5t161.5 40q78 0 135 -29.5t88.5 -80.5t31.5 -117q0 -79 -34 -146t-99.5 -107t-162.5 -40zM283 128q22 0 39.5 17t30 44t19 57t6.5 56q0 24 -7 39t-20.5 23t-32.5 8q-22 0 -39.5 -17t-30 -44
t-19.5 -57t-7 -56q0 -23 7.5 -38.5t21 -23.5t32.5 -8zM585 719q-12 -86 -54 -127.5t-94 -41.5q-27 0 -45.5 8.5t-32 19.5t-26 19.5t-26.5 8.5q-15 0 -25 -14.5t-16 -39.5h-106q14 85 53 126.5t94 41.5q22 0 40 -8.5t33 -19t29 -19t28 -8.5q15 0 25.5 13.5t16.5 40.5h106z
" />
    <glyph glyph-name="odieresis" unicode="&#xf6;" horiz-adv-x="602" 
d="M280 -10q-77 0 -134 29.5t-88.5 81t-31.5 117.5q0 79 34 145.5t99.5 106.5t161.5 40q78 0 135 -29.5t88.5 -80.5t31.5 -117q0 -79 -34 -146t-99.5 -107t-162.5 -40zM283 128q22 0 39.5 17t30 44t19 57t6.5 56q0 24 -7 39t-20.5 23t-32.5 8q-22 0 -39.5 -17t-30 -44
t-19.5 -57t-7 -56q0 -23 7.5 -38.5t21 -23.5t32.5 -8zM480 545q-40 0 -64.5 16t-24.5 52q0 54 29 77t78 23q40 0 64 -16t24 -51q0 -54 -28.5 -77.5t-77.5 -23.5zM248 545q-40 0 -64.5 16t-24.5 52q0 54 29 77t78 23q40 0 64 -16t24 -51q0 -54 -29 -77.5t-77 -23.5z" />
    <glyph glyph-name="divide" unicode="&#xf7;" horiz-adv-x="630" 
d="M604 397l-32 -138h-510l32 138h510zM277 19q-39 0 -62 19t-23 55q0 45 25 72.5t69 27.5q39 0 62 -18.5t23 -55.5q0 -45 -25 -72.5t-69 -27.5zM380 463q-39 0 -62 19t-23 55q0 45 25 72.5t69 27.5q39 0 62 -19t23 -55q0 -45 -25 -72.5t-69 -27.5z" />
    <glyph glyph-name="oslash" unicode="&#xf8;" horiz-adv-x="602" 
d="M280 -10q-77 0 -134 29.5t-88.5 81t-31.5 117.5q0 79 34 145.5t99.5 106.5t161.5 40q78 0 135 -29.5t88.5 -80.5t31.5 -117q0 -79 -34 -146t-99.5 -107t-162.5 -40zM283 128q22 0 39.5 17t30 44t19 57t6.5 56q0 24 -7 39t-20.5 23t-32.5 8q-22 0 -39.5 -17t-30 -44
t-19.5 -57t-7 -56q0 -23 7.5 -38.5t21 -23.5t32.5 -8zM-16 -22l557 543h75l-556 -543h-76z" />
    <glyph glyph-name="ugrave" unicode="&#xf9;" horiz-adv-x="614" 
d="M167 -10q-52 0 -88 22.5t-50 64t-1 98.5l75 325h202l-67 -292q-8 -33 5.5 -49.5t40.5 -16.5q21 0 35 9.5t24.5 29t16.5 47.5l63 272h202l-116 -500h-180l28 176l8 -19q-21 -80 -73 -123.5t-125 -43.5zM415 732l24 -175h-136l-71 175h183z" />
    <glyph glyph-name="uacute" unicode="&#xfa;" horiz-adv-x="614" 
d="M167 -10q-52 0 -88 22.5t-50 64t-1 98.5l75 325h202l-67 -292q-8 -33 5.5 -49.5t40.5 -16.5q21 0 35 9.5t24.5 29t16.5 47.5l63 272h202l-116 -500h-180l28 176l8 -19q-21 -80 -73 -123.5t-125 -43.5zM383 732h188l-148 -175h-145z" />
    <glyph glyph-name="ucircumflex" unicode="&#xfb;" horiz-adv-x="614" 
d="M167 -10q-52 0 -88 22.5t-50 64t-1 98.5l75 325h202l-67 -292q-8 -33 5.5 -49.5t40.5 -16.5q21 0 35 9.5t24.5 29t16.5 47.5l63 272h202l-116 -500h-180l28 176l8 -19q-21 -80 -73 -123.5t-125 -43.5zM162 550l148 176h191l67 -176h-135l-45 79l-80 -79h-146z" />
    <glyph glyph-name="udieresis" unicode="&#xfc;" horiz-adv-x="614" 
d="M167 -10q-52 0 -88 22.5t-50 64t-1 98.5l75 325h202l-67 -292q-8 -33 5.5 -49.5t40.5 -16.5q21 0 35 9.5t24.5 29t16.5 47.5l63 272h202l-116 -500h-180l28 176l8 -19q-21 -80 -73 -123.5t-125 -43.5zM489 543q-40 0 -64.5 16t-24.5 52q0 54 29 77t78 23q40 0 64 -16
t24 -51q0 -54 -28.5 -77.5t-77.5 -23.5zM257 543q-40 0 -64.5 16t-24.5 52q0 54 29 77t78 23q40 0 64 -16t24 -51q0 -54 -29 -77.5t-77 -23.5z" />
    <glyph glyph-name="yacute" unicode="&#xfd;" horiz-adv-x="577" 
d="M56 -215q-45 0 -84 10t-61 25l52 138q35 -29 89 -29q26 0 46.5 9t32.5 28l11 18l-88 516h205l4 -263l-1 -121l51 120l117 264h212l-301 -522q-40 -70 -81.5 -112.5t-90.5 -61.5t-113 -19zM391 732h188l-148 -175h-145z" />
    <glyph glyph-name="thorn" unicode="&#xfe;" horiz-adv-x="618" 
d="M-58 -210l211 916h202l-87 -378l-13 -2q16 85 66 134.5t120 49.5q46 0 81 -21.5t54.5 -64t19.5 -106.5q0 -59 -16 -117.5t-46.5 -106t-72.5 -76t-95 -28.5q-37 0 -72.5 14t-59 47t-23.5 89l22 41l-89 -391h-202zM301 135q24 0 41.5 16t29.5 40t18.5 51t6.5 49
q0 23 -6.5 39.5t-20 25.5t-33.5 9q-21 0 -38.5 -15t-30 -39.5t-18.5 -52t-6 -53.5q0 -32 14.5 -51t42.5 -19z" />
    <glyph glyph-name="ydieresis" unicode="&#xff;" horiz-adv-x="577" 
d="M56 -215q-45 0 -84 10t-61 25l52 138q35 -29 89 -29q26 0 46.5 9t32.5 28l11 18l-88 516h205l4 -263l-1 -121l51 120l117 264h212l-301 -522q-40 -70 -81.5 -112.5t-90.5 -61.5t-113 -19zM497 543q-40 0 -64.5 16t-24.5 52q0 54 29 77t78 23q40 0 64 -16t24 -51
q0 -54 -28.5 -77.5t-77.5 -23.5zM265 543q-40 0 -64.5 16t-24.5 52q0 54 29 77t78 23q40 0 64 -16t24 -51q0 -54 -29 -77.5t-77 -23.5z" />
    <glyph glyph-name="Amacron" unicode="&#x100;" horiz-adv-x="680" 
d="M-62 0l375 660h247l66 -660h-193l-7 143h-204l-73 -143h-211zM290 275h131l-11 236zM664 838l-28 -119h-374l28 119h374z" />
    <glyph glyph-name="amacron" unicode="&#x101;" horiz-adv-x="618" 
d="M188 -10q-46 0 -84 22t-60 65t-22 107q0 60 17 118t48.5 105t76.5 75t103 28q29 0 57.5 -11t50 -35t28.5 -66l24 102h202l-116 -500h-184l17 95q-25 -49 -66 -77t-92 -28zM282 135q21 0 38 15t29.5 39.5t19 52.5t6.5 53q0 22 -7 37.5t-19.5 24t-30.5 8.5q-24 0 -42 -16
t-30 -40t-18 -51t-6 -48q0 -23 6.5 -40t19.5 -26t34 -9zM578 678l-28 -119h-374l28 119h374z" />
    <glyph glyph-name="Abreve" unicode="&#x102;" horiz-adv-x="680" 
d="M-62 0l375 660h247l66 -660h-193l-7 143h-204l-73 -143h-211zM290 275h131l-11 236zM650 875q-13 -77 -67.5 -122.5t-137.5 -45.5q-73 0 -112.5 34.5t-39.5 92.5q0 10 1 20.5t3 20.5h125q-1 -5 -2 -10.5t-1 -10.5q0 -18 12 -29t33 -11q24 0 40 16t21 45h125z" />
    <glyph glyph-name="abreve" unicode="&#x103;" horiz-adv-x="618" 
d="M188 -10q-46 0 -84 22t-60 65t-22 107q0 60 17 118t48.5 105t76.5 75t103 28q29 0 57.5 -11t50 -35t28.5 -66l24 102h202l-116 -500h-184l17 95q-25 -49 -66 -77t-92 -28zM282 135q21 0 38 15t29.5 39.5t19 52.5t6.5 53q0 22 -7 37.5t-19.5 24t-30.5 8.5q-24 0 -42 -16
t-30 -40t-18 -51t-6 -48q0 -23 6.5 -40t19.5 -26t34 -9zM565 715q-13 -77 -67.5 -122.5t-137.5 -45.5q-73 0 -112.5 34.5t-39.5 92.5q0 10 1 20.5t3 20.5h125q-1 -5 -2 -10.5t-1 -10.5q0 -18 12 -29t33 -11q24 0 40 16t21 45h125z" />
    <glyph glyph-name="Aogonek" unicode="&#x104;" horiz-adv-x="680" 
d="M514 -219q-38 0 -72 11.5t-55.5 36t-21.5 64.5q0 44 25.5 74.5t69 48.5t98.5 23l68 -39q-30 -3 -58 -11t-45.5 -22.5t-17.5 -39.5q0 -23 17 -32t36 -9q10 0 18 1.5t14 4.5l-6 -97q-17 -7 -35.5 -10.5t-34.5 -3.5zM-62 0l375 660h247l66 -660h-193l-7 143h-204l-73 -143
h-211zM290 275h131l-11 236z" />
    <glyph glyph-name="aogonek" unicode="&#x105;" horiz-adv-x="618" 
d="M400 -219q-38 0 -72 11t-55 35t-21 64q0 44 25.5 74.5t68.5 49t97 24.5l70 -39q-52 -14 -85.5 -30t-33.5 -47q0 -21 15.5 -29.5t34.5 -8.5q10 0 18 2t14 5l-6 -97q-17 -7 -35.5 -10.5t-34.5 -3.5zM188 -10q-46 0 -84 22t-60 65t-22 107q0 60 17 118t48.5 105t76.5 75
t103 28q29 0 57.5 -11t50 -35t28.5 -66l24 102h202l-116 -500h-184l17 95q-25 -49 -66 -77t-92 -28zM282 135q21 0 38 15t29.5 39.5t19 52.5t6.5 53q0 22 -7 37.5t-19.5 24t-30.5 8.5q-24 0 -42 -16t-30 -40t-18 -51t-6 -48q0 -23 6.5 -40t19.5 -26t34 -9z" />
    <glyph glyph-name="Cacute" unicode="&#x106;" horiz-adv-x="694" 
d="M354 -10q-88 0 -156.5 35t-108 99t-39.5 151q0 88 25 160.5t72 125t115 81t154 28.5q79 0 139.5 -26.5t99 -77t49.5 -122.5l-195 -40q-1 55 -24 82.5t-72 27.5q-41 0 -71 -24t-50 -61t-29 -80t-9 -82q0 -37 13 -64t37.5 -42t61.5 -15q46 0 72 26.5t44 68.5l181 -68
q-43 -86 -118.5 -134.5t-190.5 -48.5zM466 881h180l-128 -166h-149z" />
    <glyph glyph-name="cacute" unicode="&#x107;" horiz-adv-x="571" 
d="M289 -10q-82 0 -141 29t-90.5 80.5t-31.5 118.5q0 79 34 145.5t100 106.5t162 40q74 0 128.5 -24t85 -67t29.5 -102l-191 -28q5 37 -6.5 59t-45.5 22q-25 0 -43 -17t-30.5 -43t-19 -56t-6.5 -56q0 -23 8 -39t22.5 -23.5t33.5 -7.5q24 0 43 17.5t27 46.5l178 -57
q-29 -67 -92.5 -106t-153.5 -39zM374 734h188l-148 -175h-145z" />
    <glyph glyph-name="Ccircumflex" unicode="&#x108;" horiz-adv-x="694" 
d="M354 -10q-88 0 -156.5 35t-108 99t-39.5 151q0 88 25 160.5t72 125t115 81t154 28.5q79 0 139.5 -26.5t99 -77t49.5 -122.5l-195 -40q-1 55 -24 82.5t-72 27.5q-41 0 -71 -24t-50 -61t-29 -80t-9 -82q0 -37 13 -64t37.5 -42t61.5 -15q46 0 72 26.5t44 68.5l181 -68
q-43 -86 -118.5 -134.5t-190.5 -48.5zM584 881l58 -166h-128l-41 87l-79 -87h-140l136 166h194z" />
    <glyph glyph-name="ccircumflex" unicode="&#x109;" horiz-adv-x="571" 
d="M289 -10q-82 0 -141 29t-90.5 80.5t-31.5 118.5q0 79 34 145.5t100 106.5t162 40q74 0 128.5 -24t85 -67t29.5 -102l-191 -28q5 37 -6.5 59t-45.5 22q-25 0 -43 -17t-30.5 -43t-19 -56t-6.5 -56q0 -23 8 -39t22.5 -23.5t33.5 -7.5q24 0 43 17.5t27 46.5l178 -57
q-29 -67 -92.5 -106t-153.5 -39zM153 552l148 176h191l67 -176h-135l-45 79l-80 -79h-146z" />
    <glyph glyph-name="Cdotaccent" unicode="&#x10a;" horiz-adv-x="694" 
d="M354 -10q-88 0 -156.5 35t-108 99t-39.5 151q0 88 25 160.5t72 125t115 81t154 28.5q79 0 139.5 -26.5t99 -77t49.5 -122.5l-195 -40q-1 55 -24 82.5t-72 27.5q-41 0 -71 -24t-50 -61t-29 -80t-9 -82q0 -37 13 -64t37.5 -42t61.5 -15q46 0 72 26.5t44 68.5l181 -68
q-43 -86 -118.5 -134.5t-190.5 -48.5zM449 709q-43 0 -69 16.5t-26 53.5q0 56 31 80.5t83 24.5q46 0 71.5 -17t25.5 -52q0 -58 -31 -82t-85 -24z" />
    <glyph glyph-name="cdotaccent" unicode="&#x10b;" horiz-adv-x="571" 
d="M289 -10q-82 0 -141 29t-90.5 80.5t-31.5 118.5q0 79 34 145.5t100 106.5t162 40q74 0 128.5 -24t85 -67t29.5 -102l-191 -28q5 37 -6.5 59t-45.5 22q-25 0 -43 -17t-30.5 -43t-19 -56t-6.5 -56q0 -23 8 -39t22.5 -23.5t33.5 -7.5q24 0 43 17.5t27 46.5l178 -57
q-29 -67 -92.5 -106t-153.5 -39zM362 549q-43 0 -69 16.5t-26 53.5q0 56 31 80.5t83 24.5q46 0 71.5 -17t25.5 -52q0 -58 -31 -82t-85 -24z" />
    <glyph glyph-name="Ccaron" unicode="&#x10c;" horiz-adv-x="694" 
d="M354 -10q-88 0 -156.5 35t-108 99t-39.5 151q0 88 25 160.5t72 125t115 81t154 28.5q79 0 139.5 -26.5t99 -77t49.5 -122.5l-195 -40q-1 55 -24 82.5t-72 27.5q-41 0 -71 -24t-50 -61t-29 -80t-9 -82q0 -37 13 -64t37.5 -42t61.5 -15q46 0 72 26.5t44 68.5l181 -68
q-43 -86 -118.5 -134.5t-190.5 -48.5zM343 715l-59 166h129l40 -87l79 87h140l-136 -166h-193z" />
    <glyph glyph-name="ccaron" unicode="&#x10d;" horiz-adv-x="571" 
d="M289 -10q-82 0 -141 29t-90.5 80.5t-31.5 118.5q0 79 34 145.5t100 106.5t162 40q74 0 128.5 -24t85 -67t29.5 -102l-191 -28q5 37 -6.5 59t-45.5 22q-25 0 -43 -17t-30.5 -43t-19 -56t-6.5 -56q0 -23 8 -39t22.5 -23.5t33.5 -7.5q24 0 43 17.5t27 46.5l178 -57
q-29 -67 -92.5 -106t-153.5 -39zM248 559l-67 175h131l46 -82l83 82h146l-148 -175h-191z" />
    <glyph glyph-name="Dcaron" unicode="&#x10e;" horiz-adv-x="708" 
d="M2 0l153 660h248q97 0 162 -34t98 -94.5t33 -141.5q0 -88 -24.5 -160t-72.5 -123t-116 -79t-156 -28h-325zM242 149h74q45 0 78.5 21.5t54.5 57t31.5 79t10.5 86.5q0 37 -12 63.5t-36 40.5t-62 14h-56zM331 715l-59 166h129l40 -87l79 87h140l-136 -166h-193z" />
    <glyph glyph-name="dcaron" unicode="&#x10f;" horiz-adv-x="728" 
d="M887 706l-115 -254h-117l80 254h152zM190 -10q-47 0 -84.5 22t-59.5 65t-22 107q0 60 16.5 118t48 105t77 75t103.5 28q29 0 57.5 -11t50 -35t28.5 -66l71 308h202l-163 -706h-184l17 95q-25 -49 -66.5 -77t-91.5 -28zM283 135q22 0 39 15t29.5 39.5t18.5 52.5t6 53
q0 22 -6.5 37.5t-19 24t-30.5 8.5q-25 0 -43 -16t-29.5 -40t-18 -51t-6.5 -48q0 -23 7 -40t20 -26t33 -9z" />
    <glyph glyph-name="Dcroat" unicode="&#x110;" horiz-adv-x="735" 
d="M9 261l31 136h390l-31 -136h-390zM29 0l153 660h248q97 0 161.5 -34t97.5 -94.5t33 -141.5q0 -88 -24.5 -160t-72 -123t-115.5 -79t-156 -28h-325zM268 149h74q45 0 78.5 21.5t55 57t32 79t10.5 86.5q0 37 -12.5 63.5t-36.5 40.5t-62 14h-56z" />
    <glyph glyph-name="dcroat" unicode="&#x111;" horiz-adv-x="627" 
d="M743 638l-25 -110h-403l25 110h403zM188 -10q-46 0 -84 22t-60 65t-22 107q0 60 17 118t48.5 105t76.5 75t103 28q29 0 57.5 -11t50 -35t28.5 -66l71 308h202l-163 -706h-184l17 95q-25 -49 -66 -77t-92 -28zM282 135q21 0 38.5 15t29.5 39.5t18.5 52.5t6.5 53
q0 22 -7 37.5t-19.5 24t-30.5 8.5q-24 0 -42 -16t-30 -40t-18 -51t-6 -48q0 -23 6.5 -40t19.5 -26t34 -9z" />
    <glyph glyph-name="Emacron" unicode="&#x112;" horiz-adv-x="626" 
d="M2 0l153 660h535l-35 -153h-331l-25 -107h261l-32 -142h-261l-24 -105h338l-36 -153h-543zM648 838l-28 -119h-374l28 119h374z" />
    <glyph glyph-name="emacron" unicode="&#x113;" horiz-adv-x="585" 
d="M284 -9q-75 0 -133.5 27.5t-91 79t-32.5 120.5q0 87 35.5 152.5t100.5 102.5t153 37q78 0 132 -28t82.5 -78t28.5 -117q0 -20 -2 -40.5t-8 -40.5h-387l-1 88h252l-52 -23q5 13 5.5 22.5t0.5 18.5q0 22 -7 35.5t-19.5 20t-28.5 6.5q-30 0 -50 -16t-31 -41.5t-15 -55
t-4 -55.5q0 -27 10 -45t28 -26.5t41 -8.5q30 0 48 15t27 36l168 -58q-16 -41 -53 -69.5t-87.5 -43.5t-109.5 -15zM564 678l-28 -119h-374l28 119h374z" />
    <glyph glyph-name="Ebreve" unicode="&#x114;" horiz-adv-x="626" 
d="M2 0l153 660h535l-35 -153h-331l-25 -107h261l-32 -142h-261l-24 -105h338l-36 -153h-543zM634 875q-13 -77 -67.5 -122.5t-137.5 -45.5q-73 0 -112.5 34.5t-39.5 92.5q0 10 1 20.5t3 20.5h125q-1 -5 -2 -10.5t-1 -10.5q0 -18 12 -29t33 -11q24 0 40 16t21 45h125z" />
    <glyph glyph-name="ebreve" unicode="&#x115;" horiz-adv-x="585" 
d="M284 -9q-75 0 -133.5 27.5t-91 79t-32.5 120.5q0 87 35.5 152.5t100.5 102.5t153 37q78 0 132 -28t82.5 -78t28.5 -117q0 -20 -2 -40.5t-8 -40.5h-387l-1 88h252l-52 -23q5 13 5.5 22.5t0.5 18.5q0 22 -7 35.5t-19.5 20t-28.5 6.5q-30 0 -50 -16t-31 -41.5t-15 -55
t-4 -55.5q0 -27 10 -45t28 -26.5t41 -8.5q30 0 48 15t27 36l168 -58q-16 -41 -53 -69.5t-87.5 -43.5t-109.5 -15zM551 715q-13 -77 -67.5 -122.5t-137.5 -45.5q-73 0 -112.5 34.5t-39.5 92.5q0 10 1 20.5t3 20.5h125q-1 -5 -2 -10.5t-1 -10.5q0 -18 12 -29t33 -11
q24 0 40 16t21 45h125z" />
    <glyph glyph-name="Edotaccent" unicode="&#x116;" horiz-adv-x="626" 
d="M2 0l153 660h535l-35 -153h-331l-25 -107h261l-32 -142h-261l-24 -105h338l-36 -153h-543zM432 709q-43 0 -69 16.5t-26 53.5q0 56 31 80.5t83 24.5q46 0 71.5 -17t25.5 -52q0 -58 -31 -82t-85 -24z" />
    <glyph glyph-name="edotaccent" unicode="&#x117;" horiz-adv-x="585" 
d="M284 -9q-75 0 -133.5 27.5t-91 79t-32.5 120.5q0 87 35.5 152.5t100.5 102.5t153 37q78 0 132 -28t82.5 -78t28.5 -117q0 -20 -2 -40.5t-8 -40.5h-387l-1 88h252l-52 -23q5 13 5.5 22.5t0.5 18.5q0 22 -7 35.5t-19.5 20t-28.5 6.5q-30 0 -50 -16t-31 -41.5t-15 -55
t-4 -55.5q0 -27 10 -45t28 -26.5t41 -8.5q30 0 48 15t27 36l168 -58q-16 -41 -53 -69.5t-87.5 -43.5t-109.5 -15zM348 549q-43 0 -69 16.5t-26 53.5q0 56 31 80.5t83 24.5q46 0 71.5 -17t25.5 -52q0 -58 -31 -82t-85 -24z" />
    <glyph glyph-name="Eogonek" unicode="&#x118;" horiz-adv-x="626" 
d="M434 -219q-38 0 -72 10.5t-55.5 33.5t-21.5 59q0 38 19.5 65.5t65.5 44t124 20.5l52 -14q-34 -3 -62 -11t-43.5 -22.5t-15.5 -39.5q0 -23 17 -32t36 -9q9 0 16.5 1.5t13.5 4.5l-6 -97q-18 -7 -35 -10.5t-33 -3.5zM2 0l153 660h535l-35 -153h-331l-25 -107h261l-32 -142
h-261l-24 -105h338l-36 -153h-543z" />
    <glyph glyph-name="eogonek" unicode="&#x119;" horiz-adv-x="585" 
d="M284 -9q-75 0 -133.5 27.5t-91 79t-32.5 120.5q0 87 35.5 152.5t100.5 102.5t153 37q78 0 132 -28t82.5 -78t28.5 -117q0 -20 -2 -40.5t-8 -40.5h-387l-1 88h252l-52 -23q5 13 5.5 22.5t0.5 18.5q0 22 -7 35.5t-19.5 20t-28.5 6.5q-30 0 -50 -16t-31 -41.5t-15 -55
t-4 -55.5q0 -27 10 -45t28 -26.5t41 -8.5q30 0 48 15t27 36l168 -58q-16 -41 -53 -69.5t-87.5 -43.5t-109.5 -15zM286 -219q-38 0 -71 12.5t-53 37.5t-20 65q0 45 24.5 74t67.5 45.5t98 20.5l66 -25q-32 -12 -59 -23t-43.5 -25t-16.5 -36q0 -21 16 -30t36 -9q9 0 17 2t14 4
l-6 -99q-17 -7 -35.5 -10.5t-34.5 -3.5z" />
    <glyph glyph-name="Ecaron" unicode="&#x11a;" horiz-adv-x="626" 
d="M2 0l153 660h535l-35 -153h-331l-25 -107h261l-32 -142h-261l-24 -105h338l-36 -153h-543zM326 715l-59 166h129l40 -87l79 87h140l-136 -166h-193z" />
    <glyph glyph-name="ecaron" unicode="&#x11b;" horiz-adv-x="585" 
d="M284 -9q-75 0 -133.5 27.5t-91 79t-32.5 120.5q0 87 35.5 152.5t100.5 102.5t153 37q78 0 132 -28t82.5 -78t28.5 -117q0 -20 -2 -40.5t-8 -40.5h-387l-1 88h252l-52 -23q5 13 5.5 22.5t0.5 18.5q0 22 -7 35.5t-19.5 20t-28.5 6.5q-30 0 -50 -16t-31 -41.5t-15 -55
t-4 -55.5q0 -27 10 -45t28 -26.5t41 -8.5q30 0 48 15t27 36l168 -58q-16 -41 -53 -69.5t-87.5 -43.5t-109.5 -15zM234 559l-67 175h131l46 -82l83 82h146l-148 -175h-191z" />
    <glyph glyph-name="Gcircumflex" unicode="&#x11c;" horiz-adv-x="718" 
d="M315 -10q-75 0 -135 35t-95 99t-35 153q0 82 24.5 152.5t71.5 125t116 85t158 30.5q78 0 138.5 -25.5t99 -74t47.5 -117.5l-191 -31q-4 42 -27.5 67t-70.5 25q-35 0 -64.5 -17t-51.5 -47t-34 -70t-12 -88q0 -46 13.5 -80t42 -53t73.5 -19q31 0 54 9.5t38.5 26t23.5 37.5
l8 20h-141l29 128h301l-92 -361h-132l36 164l17 -19q-17 -50 -45 -84.5t-68.5 -52.5t-96.5 -18zM586 881l58 -166h-128l-41 87l-79 -87h-140l136 166h194z" />
    <glyph glyph-name="gcircumflex" unicode="&#x11d;" horiz-adv-x="617" 
d="M209 -215q-46 0 -88.5 11t-76.5 34.5t-52.5 59.5t-17.5 85l202 15q-1 -37 10 -59t48 -22q20 0 35.5 10.5t27.5 32t20 58.5l41 177l7 -5q-15 -82 -59 -125.5t-113 -43.5q-47 0 -84.5 22t-59.5 64.5t-22 104.5q0 58 16.5 113t48 98.5t76 69t100.5 25.5q35 0 67 -16
t52.5 -51.5t18.5 -92.5l-21 -31l41 181h202l-108 -467q-21 -94 -62 -148t-102.5 -77t-146.5 -23zM287 156q28 0 47.5 21.5t30 53.5t10.5 65q0 21 -7 36.5t-20 24t-31 8.5q-31 0 -51 -22.5t-30 -54t-10 -58.5q0 -33 14.5 -53.5t46.5 -20.5zM164 552l148 176h191l67 -176h-135
l-45 79l-80 -79h-146z" />
    <glyph glyph-name="Gbreve" unicode="&#x11e;" horiz-adv-x="718" 
d="M315 -10q-75 0 -135 35t-95 99t-35 153q0 82 24.5 152.5t71.5 125t116 85t158 30.5q78 0 138.5 -25.5t99 -74t47.5 -117.5l-191 -31q-4 42 -27.5 67t-70.5 25q-35 0 -64.5 -17t-51.5 -47t-34 -70t-12 -88q0 -46 13.5 -80t42 -53t73.5 -19q31 0 54 9.5t38.5 26t23.5 37.5
l8 20h-141l29 128h301l-92 -361h-132l36 164l17 -19q-17 -50 -45 -84.5t-68.5 -52.5t-96.5 -18zM653 875q-13 -77 -67.5 -122.5t-137.5 -45.5q-73 0 -112.5 34.5t-39.5 92.5q0 10 1 20.5t3 20.5h125q-1 -5 -2 -10.5t-1 -10.5q0 -18 12 -29t33 -11q24 0 40 16t21 45h125z" />
    <glyph glyph-name="gbreve" unicode="&#x11f;" horiz-adv-x="617" 
d="M209 -215q-46 0 -88.5 11t-76.5 34.5t-52.5 59.5t-17.5 85l202 15q-1 -37 10 -59t48 -22q20 0 35.5 10.5t27.5 32t20 58.5l41 177l7 -5q-15 -82 -59 -125.5t-113 -43.5q-47 0 -84.5 22t-59.5 64.5t-22 104.5q0 58 16.5 113t48 98.5t76 69t100.5 25.5q35 0 67 -16
t52.5 -51.5t18.5 -92.5l-21 -31l41 181h202l-108 -467q-21 -94 -62 -148t-102.5 -77t-146.5 -23zM287 156q28 0 47.5 21.5t30 53.5t10.5 65q0 21 -7 36.5t-20 24t-31 8.5q-31 0 -51 -22.5t-30 -54t-10 -58.5q0 -33 14.5 -53.5t46.5 -20.5zM577 715q-13 -77 -67.5 -122.5
t-137.5 -45.5q-73 0 -112.5 34.5t-39.5 92.5q0 10 1 20.5t3 20.5h125q-1 -5 -2 -10.5t-1 -10.5q0 -18 12 -29t33 -11q24 0 40 16t21 45h125z" />
    <glyph glyph-name="Gdotaccent" unicode="&#x120;" horiz-adv-x="718" 
d="M315 -10q-75 0 -135 35t-95 99t-35 153q0 82 24.5 152.5t71.5 125t116 85t158 30.5q78 0 138.5 -25.5t99 -74t47.5 -117.5l-191 -31q-4 42 -27.5 67t-70.5 25q-35 0 -64.5 -17t-51.5 -47t-34 -70t-12 -88q0 -46 13.5 -80t42 -53t73.5 -19q31 0 54 9.5t38.5 26t23.5 37.5
l8 20h-141l29 128h301l-92 -361h-132l36 164l17 -19q-17 -50 -45 -84.5t-68.5 -52.5t-96.5 -18zM451 709q-43 0 -69 16.5t-26 53.5q0 56 31 80.5t83 24.5q46 0 71.5 -17t25.5 -52q0 -58 -31 -82t-85 -24z" />
    <glyph glyph-name="gdotaccent" unicode="&#x121;" horiz-adv-x="617" 
d="M209 -215q-46 0 -88.5 11t-76.5 34.5t-52.5 59.5t-17.5 85l202 15q-1 -37 10 -59t48 -22q20 0 35.5 10.5t27.5 32t20 58.5l41 177l7 -5q-15 -82 -59 -125.5t-113 -43.5q-47 0 -84.5 22t-59.5 64.5t-22 104.5q0 58 16.5 113t48 98.5t76 69t100.5 25.5q35 0 67 -16
t52.5 -51.5t18.5 -92.5l-21 -31l41 181h202l-108 -467q-21 -94 -62 -148t-102.5 -77t-146.5 -23zM287 156q28 0 47.5 21.5t30 53.5t10.5 65q0 21 -7 36.5t-20 24t-31 8.5q-31 0 -51 -22.5t-30 -54t-10 -58.5q0 -33 14.5 -53.5t46.5 -20.5zM373 549q-43 0 -69 16.5t-26 53.5
q0 56 31 80.5t83 24.5q46 0 71.5 -17t25.5 -52q0 -58 -31 -82t-85 -24z" />
    <glyph glyph-name="uni0122" unicode="&#x122;" horiz-adv-x="718" 
d="M315 -10q-75 0 -135 35t-95 99t-35 153q0 82 24.5 152.5t71.5 125t116 85t158 30.5q78 0 138.5 -25.5t99 -74t47.5 -117.5l-191 -31q-4 42 -27.5 67t-70.5 25q-35 0 -64.5 -17t-51.5 -47t-34 -70t-12 -88q0 -46 13.5 -80t42 -53t73.5 -19q31 0 54 9.5t38.5 26t23.5 37.5
l8 20h-141l29 128h301l-92 -361h-132l36 164l17 -19q-17 -50 -45 -84.5t-68.5 -52.5t-96.5 -18zM421 -55l-116 -187h-132l71 187h177z" />
    <glyph glyph-name="uni0123" unicode="&#x123;" horiz-adv-x="617" 
d="M209 -215q-46 0 -88.5 11t-76.5 34.5t-52.5 59.5t-17.5 85l202 15q-1 -37 10 -59t48 -22q20 0 35.5 10.5t27.5 32t20 58.5l41 177l7 -5q-15 -82 -59 -125.5t-113 -43.5q-47 0 -84.5 22t-59.5 64.5t-22 104.5q0 58 16.5 113t48 98.5t76 69t100.5 25.5q35 0 67 -16
t52.5 -51.5t18.5 -92.5l-21 -31l41 181h202l-108 -467q-21 -94 -62 -148t-102.5 -77t-146.5 -23zM287 156q28 0 47.5 21.5t30 53.5t10.5 65q0 21 -7 36.5t-20 24t-31 8.5q-31 0 -51 -22.5t-30 -54t-10 -58.5q0 -33 14.5 -53.5t46.5 -20.5zM547 770l-84 -216h-165l121 216
h128z" />
    <glyph glyph-name="Hcircumflex" unicode="&#x124;" horiz-adv-x="742" 
d="M777 660l-153 -660h-205l153 660h205zM360 660l-153 -660h-205l153 660h205zM626 409l-36 -153h-430l36 153h430zM614 881l58 -166h-128l-41 87l-79 -87h-140l136 166h194z" />
    <glyph glyph-name="hcircumflex" unicode="&#x125;" horiz-adv-x="615" 
d="M-10 0l163 706h202l-75 -326l-17 -28q12 42 37 77.5t64.5 58t93.5 22.5q47 0 81 -22.5t47.5 -63t1.5 -95.5l-77 -329h-202l69 292q7 31 -5 49t-40 18q-20 0 -35.5 -10t-26 -29t-17.5 -48l-62 -272h-202zM401 923l58 -166h-128l-41 87l-79 -87h-140l136 166h194z" />
    <glyph glyph-name="Hbar" unicode="&#x126;" horiz-adv-x="742" 
d="M777 660l-153 -660h-205l153 660h205zM360 660l-153 -660h-205l153 660h205zM626 409l-36 -153h-430l36 153h430zM829 584l-24 -105h-761l24 105h761z" />
    <glyph glyph-name="hbar" unicode="&#x127;" horiz-adv-x="615" 
d="M62 638h383l-26 -110h-382zM-10 0l163 706h202l-75 -326l-17 -28q12 42 37 77.5t64.5 58t93.5 22.5q47 0 81 -22.5t47.5 -63t1.5 -95.5l-77 -329h-202l69 292q7 31 -5 49t-40 18q-20 0 -35.5 -10t-26 -29t-17.5 -48l-62 -272h-202z" />
    <glyph glyph-name="Itilde" unicode="&#x128;" horiz-adv-x="325" 
d="M360 660l-153 -660h-205l153 660h205zM493 879q-12 -86 -54 -127.5t-94 -41.5q-27 0 -45.5 8.5t-32 19.5t-26 19.5t-26.5 8.5q-15 0 -25 -14.5t-16 -39.5h-106q14 85 53 126.5t94 41.5q22 0 40 -8.5t33 -19t29 -19t28 -8.5q15 0 25.5 13.5t16.5 40.5h106z" />
    <glyph glyph-name="itilde" unicode="&#x129;" horiz-adv-x="299" 
d="M308 500l-116 -500h-202l116 500h202zM443 719q-12 -86 -54 -127.5t-94 -41.5q-27 0 -45.5 8.5t-32 19.5t-26 19.5t-26.5 8.5q-15 0 -25 -14.5t-16 -39.5h-106q14 85 53 126.5t94 41.5q22 0 40 -8.5t33 -19t29 -19t28 -8.5q15 0 25.5 13.5t16.5 40.5h106z" />
    <glyph glyph-name="Imacron" unicode="&#x12a;" horiz-adv-x="326" 
d="M451 838l-27 -119h-308l28 119h307zM360 660l-153 -660h-205l153 660h205z" />
    <glyph glyph-name="imacron" unicode="&#x12b;" horiz-adv-x="299" 
d="M393 678l-28 -119h-289l28 119h289zM308 500l-116 -500h-202l116 500h202z" />
    <glyph glyph-name="Ibreve" unicode="&#x12c;" horiz-adv-x="325" 
d="M360 660l-153 -660h-205l153 660h205zM472 875q-13 -77 -67.5 -122.5t-137.5 -45.5q-73 0 -112.5 34.5t-39.5 92.5q0 10 1 20.5t3 20.5h125q-1 -5 -2 -10.5t-1 -10.5q0 -18 12 -29t33 -11q24 0 40 16t21 45h125z" />
    <glyph glyph-name="ibreve" unicode="&#x12d;" horiz-adv-x="299" 
d="M308 500l-116 -500h-202l116 500h202zM424 715q-13 -77 -67.5 -122.5t-137.5 -45.5q-73 0 -112.5 34.5t-39.5 92.5q0 10 1 20.5t3 20.5h125q-1 -5 -2 -10.5t-1 -10.5q0 -18 12 -29t33 -11q24 0 40 16t21 45h125z" />
    <glyph glyph-name="Iogonek" unicode="&#x12e;" horiz-adv-x="325" 
d="M97 -229q-38 0 -72 11t-55 35.5t-21 64.5q0 43 25 74t67.5 49.5t97.5 22.5l68 -28q-32 -12 -58.5 -23t-42 -26t-15.5 -38q0 -21 15.5 -29.5t34.5 -8.5q10 0 17.5 2t14.5 4l-6 -97q-17 -7 -35.5 -10t-34.5 -3zM360 660l-153 -660h-205l153 660h205z" />
    <glyph glyph-name="iogonek" unicode="&#x12f;" horiz-adv-x="299" 
d="M82 -229q-38 0 -71.5 11t-54.5 35.5t-21 64.5q0 43 24.5 74t67.5 49.5t97 22.5l68 -28q-32 -12 -58.5 -23t-41.5 -26t-15 -38q0 -21 15 -29.5t35 -8.5q10 0 17.5 2t14.5 4l-6 -97q-17 -7 -36 -10t-35 -3zM227 544q-51 0 -78.5 20t-21.5 65q7 52 36 73t84 21
q52 0 79.5 -20.5t21.5 -62.5q-7 -56 -37 -76t-84 -20zM308 500l-116 -500h-202l116 500h202z" />
    <glyph glyph-name="Idotaccent" unicode="&#x130;" horiz-adv-x="325" 
d="M360 660l-153 -660h-205l153 660h205zM270 709q-43 0 -69 16.5t-26 53.5q0 56 31 80.5t83 24.5q46 0 71.5 -17t25.5 -52q0 -58 -31 -82t-85 -24z" />
    <glyph glyph-name="dotlessi" unicode="&#x131;" horiz-adv-x="299" 
d="M308 500l-116 -500h-202l116 500h202z" />
    <glyph glyph-name="IJ" unicode="&#x132;" horiz-adv-x="955" 
d="M360 660l-153 -660h-205l153 660h205zM604 -10q-81 0 -137.5 25.5t-87 68t-34.5 98t19 115.5l205 8q-22 -56 -21 -91t19.5 -51.5t50.5 -16.5q40 0 58.5 30.5t34.5 100.5l89 383h204l-96 -416q-17 -76 -52 -133t-95.5 -89t-156.5 -32z" />
    <glyph glyph-name="ij" unicode="&#x133;" horiz-adv-x="598" 
d="M227 544q-51 0 -78.5 20t-21.5 65q7 52 36 73t84 21q52 0 79.5 -20.5t21.5 -62.5q-7 -56 -37 -76t-84 -20zM308 500l-116 -500h-202l116 500h202zM526 544q-51 0 -78.5 20t-21.5 65q7 52 36 73t84 21q52 0 79.5 -20.5t21.5 -62.5q-7 -56 -37 -76t-84 -20zM276 -215
q-40 0 -79 7.5t-66 26.5l42 123q11 -7 24 -11.5t26 -4.5q30 0 43 15.5t22 55.5l117 503h202l-121 -525q-24 -100 -73.5 -145t-136.5 -45z" />
    <glyph glyph-name="Jcircumflex" unicode="&#x134;" horiz-adv-x="630" 
d="M279 -10q-81 0 -137.5 25.5t-87 68t-34.5 98t19 115.5l205 8q-22 -56 -21 -91t19.5 -51.5t50.5 -16.5q40 0 58.5 30.5t34.5 100.5l89 383h204l-96 -416q-17 -76 -52 -133t-95.5 -89t-156.5 -32zM726 881l58 -166h-128l-41 87l-79 -87h-140l136 166h194z" />
    <glyph glyph-name="jcircumflex" unicode="&#x135;" horiz-adv-x="299" 
d="M-23 -215q-40 0 -79 7.5t-66 26.5l42 123q11 -7 24 -11.5t26 -4.5q30 0 43 15.5t22 55.5l117 503h202l-121 -525q-24 -100 -73.5 -145t-136.5 -45zM11 552l148 176h191l67 -176h-135l-45 79l-80 -79h-146z" />
    <glyph glyph-name="uni0136" unicode="&#x136;" horiz-adv-x="702" 
d="M2 0l153 660h205l-57 -244l260 244h225l-291 -277l145 -383h-208l-95 254l-93 -85l-39 -169h-205zM393 -55l-116 -187h-132l71 187h177z" />
    <glyph glyph-name="uni0137" unicode="&#x137;" horiz-adv-x="636" 
d="M682 500l-296 -262l-22 -8l-176 -157l15 183l251 244h228zM355 706l-163 -706h-202l163 706h202zM437 358l152 -358h-196l-95 243zM365 -55l-116 -187h-132l71 187h177z" />
    <glyph glyph-name="kgreenlandic" unicode="&#x138;" horiz-adv-x="636" 
d="M682 500l-296 -263l-22 -9l-176 -155l15 198l251 229h228zM308 500l-116 -500h-202l116 500h202zM437 357l152 -357h-196l-95 241z" />
    <glyph glyph-name="Lacute" unicode="&#x139;" horiz-adv-x="610" 
d="M242 153h321l-36 -153h-525l153 660h205zM287 881h180l-128 -166h-149z" />
    <glyph glyph-name="lacute" unicode="&#x13a;" horiz-adv-x="337" 
d="M187 -9q-97 0 -137 52t-19 141l121 522h202l-120 -518q-7 -31 3 -46.5t40 -15.5q11 0 19 1t13 2l-34 -126q-16 -7 -37 -9.5t-51 -2.5zM185 756l94 160h178l-125 -160h-147z" />
    <glyph glyph-name="uni013B" unicode="&#x13b;" horiz-adv-x="610" 
d="M242 153h321l-36 -153h-525l153 660h205zM368 -55l-116 -187h-132l71 187h177z" />
    <glyph glyph-name="uni013C" unicode="&#x13c;" horiz-adv-x="337" 
d="M187 -9q-97 0 -137 52t-19 141l121 522h202l-120 -518q-7 -31 3 -46.5t40 -15.5q11 0 19 1t13 2l-34 -126q-16 -7 -37 -9.5t-51 -2.5zM228 -55l-116 -187h-132l71 187h177z" />
    <glyph glyph-name="Lcaron" unicode="&#x13d;" horiz-adv-x="610" 
d="M674 660l-136 -254h-138l95 254h179zM242 153h321l-36 -153h-525l153 660h205z" />
    <glyph glyph-name="lcaron" unicode="&#x13e;" horiz-adv-x="414" 
d="M565 706l-115 -254h-117l80 254h152zM187 -9q-97 0 -137 52t-19 141l121 522h202l-120 -518q-7 -31 3 -46.5t40 -15.5q11 0 19 1t13 2l-34 -126q-16 -7 -37 -9.5t-51 -2.5z" />
    <glyph glyph-name="Ldot" unicode="&#x13f;" horiz-adv-x="653" 
d="M242 153h321l-36 -153h-525l153 660h205zM513 285q-48 0 -77 21.5t-29 62.5q0 52 31 83t86 31q49 0 77.5 -21t28.5 -63q0 -52 -30.5 -83t-86.5 -31z" />
    <glyph glyph-name="ldot" unicode="&#x140;" horiz-adv-x="526" 
d="M187 -9q-97 0 -137 52t-19 141l121 522h202l-120 -518q-7 -31 3 -46.5t40 -15.5q11 0 19 1t13 2l-34 -126q-16 -7 -37 -9.5t-51 -2.5zM431 256q-48 0 -77 21.5t-29 62.5q0 52 31 83t86 31q49 0 77.5 -21t28.5 -63q0 -52 -30.5 -83t-86.5 -31z" />
    <glyph glyph-name="Lslash" unicode="&#x141;" horiz-adv-x="681" 
d="M546 520l-35 -151l-510 -217l35 151zM314 153h320l-35 -153h-525l153 660h204z" />
    <glyph glyph-name="lslash" unicode="&#x142;" horiz-adv-x="425" 
d="M8 181l31 137l138 64l93 27l189 97l-32 -136l-144 -74l-93 -29zM246 -9q-96 0 -136 52t-20 141l122 522h202l-120 -518q-8 -31 2.5 -46.5t39.5 -15.5q11 0 19 1t14 2l-34 -126q-16 -7 -37.5 -9.5t-51.5 -2.5z" />
    <glyph glyph-name="Nacute" unicode="&#x143;" horiz-adv-x="741" 
d="M2 0l153 660h215l103 -335l27 -100h2l29 149l66 286h179l-153 -660h-212l-107 327l-28 100h-2l-27 -141l-66 -286h-179zM494 881h180l-128 -166h-149z" />
    <glyph glyph-name="nacute" unicode="&#x144;" horiz-adv-x="615" 
d="M-10 0l116 500h179l-28 -176l-8 17q21 81 74 125t127 44q52 0 87 -23t49 -65t0 -101l-75 -321h-202l69 292q7 31 -5 49t-40 18q-20 0 -35.5 -10t-26 -29t-17.5 -48l-62 -272h-202zM390 734h188l-148 -175h-145z" />
    <glyph glyph-name="uni0145" unicode="&#x145;" horiz-adv-x="741" 
d="M2 0l153 660h215l103 -335l27 -100h2l29 149l66 286h179l-153 -660h-212l-107 327l-28 100h-2l-27 -141l-66 -286h-179zM422 -55l-116 -187h-132l71 187h177z" />
    <glyph glyph-name="uni0146" unicode="&#x146;" horiz-adv-x="615" 
d="M-10 0l116 500h179l-28 -176l-8 17q21 81 74 125t127 44q52 0 87 -23t49 -65t0 -101l-75 -321h-202l69 292q7 31 -5 49t-40 18q-20 0 -35.5 -10t-26 -29t-17.5 -48l-62 -272h-202zM348 -55l-116 -187h-132l71 187h177z" />
    <glyph glyph-name="Ncaron" unicode="&#x147;" horiz-adv-x="741" 
d="M2 0l153 660h215l103 -335l27 -100h2l29 149l66 286h179l-153 -660h-212l-107 327l-28 100h-2l-27 -141l-66 -286h-179zM371 715l-59 166h129l40 -87l79 87h140l-136 -166h-193z" />
    <glyph glyph-name="ncaron" unicode="&#x148;" horiz-adv-x="615" 
d="M-10 0l116 500h179l-28 -176l-8 17q21 81 74 125t127 44q52 0 87 -23t49 -65t0 -101l-75 -321h-202l69 292q7 31 -5 49t-40 18q-20 0 -35.5 -10t-26 -29t-17.5 -48l-62 -272h-202zM264 559l-67 175h131l46 -82l83 82h146l-148 -175h-191z" />
    <glyph glyph-name="Eng" unicode="&#x14a;" horiz-adv-x="741" 
d="M391 -215q-41 0 -72.5 5.5t-56.5 19.5l53 133q10 -7 25 -11.5t35 -4.5q26 0 43 15t26 53l2 11l-126 294l-45 117h-2l-26 -131l-66 -286h-179l153 660h198l114 -301l38 -103h1l22 106l69 298h179l-159 -685q-23 -100 -79 -145t-147 -45z" />
    <glyph glyph-name="eng" unicode="&#x14b;" horiz-adv-x="615" 
d="M269 -215q-51 0 -85.5 8t-59.5 24l54 122q9 -7 22 -11t31 -4q28 0 48 14t29 51l70 303q7 31 -5 49t-40 18q-20 0 -35.5 -10t-26 -29t-17.5 -48l-62 -272h-202l116 500h179l-16 -104q27 56 73.5 85t107.5 29q52 0 87 -23t49 -65t0 -101l-75 -330q-26 -112 -85.5 -159
t-156.5 -47z" />
    <glyph glyph-name="Omacron" unicode="&#x14c;" horiz-adv-x="728" 
d="M352 -10q-85 0 -153.5 34.5t-108 99.5t-39.5 157q0 84 24.5 155.5t71 124t114 81t152.5 28.5q86 0 154 -34.5t107.5 -99.5t39.5 -157q0 -84 -24 -155t-70.5 -124t-114 -81.5t-153.5 -28.5zM357 147q39 0 67.5 23t47.5 60.5t28.5 81.5t9.5 85q0 38 -11.5 64t-34 39
t-56.5 13q-39 0 -67.5 -23t-47.5 -60.5t-28.5 -81.5t-9.5 -85q0 -37 11.5 -63.5t34.5 -39.5t56 -13zM666 838l-28 -119h-374l28 119h374z" />
    <glyph glyph-name="omacron" unicode="&#x14d;" horiz-adv-x="602" 
d="M280 -10q-77 0 -134 29.5t-88.5 81t-31.5 117.5q0 79 34 145.5t99.5 106.5t161.5 40q78 0 135 -29.5t88.5 -80.5t31.5 -117q0 -79 -34 -146t-99.5 -107t-162.5 -40zM283 128q22 0 39.5 17t30 44t19 57t6.5 56q0 24 -7 39t-20.5 23t-32.5 8q-22 0 -39.5 -17t-30 -44
t-19.5 -57t-7 -56q0 -23 7.5 -38.5t21 -23.5t32.5 -8zM578 678l-28 -119h-374l28 119h374z" />
    <glyph glyph-name="Obreve" unicode="&#x14e;" horiz-adv-x="728" 
d="M352 -10q-85 0 -153.5 34.5t-108 99.5t-39.5 157q0 84 24.5 155.5t71 124t114 81t152.5 28.5q86 0 154 -34.5t107.5 -99.5t39.5 -157q0 -84 -24 -155t-70.5 -124t-114 -81.5t-153.5 -28.5zM357 147q39 0 67.5 23t47.5 60.5t28.5 81.5t9.5 85q0 38 -11.5 64t-34 39
t-56.5 13q-39 0 -67.5 -23t-47.5 -60.5t-28.5 -81.5t-9.5 -85q0 -37 11.5 -63.5t34.5 -39.5t56 -13zM652 875q-13 -77 -67.5 -122.5t-137.5 -45.5q-73 0 -112.5 34.5t-39.5 92.5q0 10 1 20.5t3 20.5h125q-1 -5 -2 -10.5t-1 -10.5q0 -18 12 -29t33 -11q24 0 40 16t21 45h125z
" />
    <glyph glyph-name="obreve" unicode="&#x14f;" horiz-adv-x="602" 
d="M280 -10q-77 0 -134 29.5t-88.5 81t-31.5 117.5q0 79 34 145.5t99.5 106.5t161.5 40q78 0 135 -29.5t88.5 -80.5t31.5 -117q0 -79 -34 -146t-99.5 -107t-162.5 -40zM283 128q22 0 39.5 17t30 44t19 57t6.5 56q0 24 -7 39t-20.5 23t-32.5 8q-22 0 -39.5 -17t-30 -44
t-19.5 -57t-7 -56q0 -23 7.5 -38.5t21 -23.5t32.5 -8zM566 715q-13 -77 -67.5 -122.5t-137.5 -45.5q-73 0 -112.5 34.5t-39.5 92.5q0 10 1 20.5t3 20.5h125q-1 -5 -2 -10.5t-1 -10.5q0 -18 12 -29t33 -11q24 0 40 16t21 45h125z" />
    <glyph glyph-name="Ohungarumlaut" unicode="&#x150;" horiz-adv-x="728" 
d="M352 -10q-85 0 -153.5 34.5t-108 99.5t-39.5 157q0 84 24.5 155.5t71 124t114 81t152.5 28.5q86 0 154 -34.5t107.5 -99.5t39.5 -157q0 -84 -24 -155t-70.5 -124t-114 -81.5t-153.5 -28.5zM357 147q39 0 67.5 23t47.5 60.5t28.5 81.5t9.5 85q0 38 -11.5 64t-34 39
t-56.5 13q-39 0 -67.5 -23t-47.5 -60.5t-28.5 -81.5t-9.5 -85q0 -37 11.5 -63.5t34.5 -39.5t56 -13zM478 715l103 166h169l-137 -166h-135zM261 715l103 166h169l-137 -166h-135z" />
    <glyph glyph-name="ohungarumlaut" unicode="&#x151;" horiz-adv-x="602" 
d="M280 -10q-77 0 -134 29.5t-88.5 81t-31.5 117.5q0 79 34 145.5t99.5 106.5t161.5 40q78 0 135 -29.5t88.5 -80.5t31.5 -117q0 -79 -34 -146t-99.5 -107t-162.5 -40zM283 128q22 0 39.5 17t30 44t19 57t6.5 56q0 24 -7 39t-20.5 23t-32.5 8q-22 0 -39.5 -17t-30 -44
t-19.5 -57t-7 -56q0 -23 7.5 -38.5t21 -23.5t32.5 -8zM398 559l114 175h170l-148 -175h-136zM174 559l114 175h170l-148 -175h-136z" />
    <glyph glyph-name="OE" unicode="&#x152;" horiz-adv-x="1031" 
d="M325 -10q-74 0 -136 34t-100 98.5t-38 155.5q-1 82 22.5 153.5t68.5 125.5t110 83.5t147 29.5q55 0 96.5 -12.5t70.5 -36t44 -55.5l22 94h464l-36 -153h-309l-25 -107h239l-32 -142h-240l-24 -105h317l-36 -153h-455l18 74q-36 -39 -83 -61.5t-105 -22.5zM356 147
q39 0 67 22.5t47.5 60t29 81.5t9.5 86q0 38 -11.5 64t-34 39t-55.5 13q-39 0 -67 -23t-47.5 -60.5t-29 -81.5t-9.5 -85q0 -37 11.5 -63.5t34.5 -39.5t55 -13z" />
    <glyph glyph-name="oe" unicode="&#x153;" horiz-adv-x="940" 
d="M280 -10q-78 0 -135 29.5t-88 80.5t-31 117q0 80 34 146.5t99.5 106.5t162.5 40q36 0 67 -8t57 -23t46 -38q36 34 83.5 51.5t100.5 17.5q75 0 128.5 -28t81.5 -76.5t28 -112.5q0 -20 -2 -41t-8 -41h-337v-3v-3q0 -27 10 -44.5t28 -26t40 -8.5q31 0 49 15t27 36l168 -58
q-25 -61 -92.5 -94.5t-155.5 -33.5q-35 0 -66.5 8t-58.5 24t-49 41q-34 -36 -81 -55t-106 -19zM282 128q23 0 40.5 17t30 44t19 57t6.5 56q0 24 -7.5 39.5t-20.5 23t-31 7.5q-23 0 -40.5 -17t-30.5 -44t-19.5 -57t-6.5 -56q0 -35 16.5 -52.5t43.5 -17.5zM578 293h143
q1 5 1 10v9q0 22 -7 35.5t-19.5 20t-28.5 6.5q-24 0 -41.5 -11t-29 -29.5t-18.5 -40.5z" />
    <glyph glyph-name="Racute" unicode="&#x154;" horiz-adv-x="691" 
d="M2 0l153 660h307q106 0 168 -50.5t62 -140.5q0 -77 -36 -129.5t-98.5 -80t-143.5 -28.5l-33 -10h-141l31 139h114q34 0 57.5 11t36.5 30.5t13 45.5q0 34 -23 49t-58 15h-90l-118 -511h-201zM432 0l-107 288l182 29l129 -317h-204zM454 881h180l-128 -166h-149z" />
    <glyph glyph-name="racute" unicode="&#x155;" horiz-adv-x="436" 
d="M-10 0l116 500h180l-37 -205l-6 20q16 58 41.5 102t64 68.5t91.5 24.5q17 0 28.5 -2.5t18.5 -6.5l-47 -167q-10 5 -24 8t-36 3q-29 0 -56.5 -13t-49 -40.5t-32.5 -74.5l-50 -217h-202zM324 734h188l-148 -175h-145z" />
    <glyph glyph-name="uni0156" unicode="&#x156;" horiz-adv-x="691" 
d="M2 0l153 660h307q106 0 168 -50.5t62 -140.5q0 -77 -36 -129.5t-98.5 -80t-143.5 -28.5l-33 -10h-141l31 139h114q34 0 57.5 11t36.5 30.5t13 45.5q0 34 -23 49t-58 15h-90l-118 -511h-201zM432 0l-107 288l182 29l129 -317h-204zM408 -55l-116 -187h-132l71 187h177z
" />
    <glyph glyph-name="uni0157" unicode="&#x157;" horiz-adv-x="436" 
d="M-10 0l116 500h180l-37 -205l-6 20q16 58 41.5 102t64 68.5t91.5 24.5q17 0 28.5 -2.5t18.5 -6.5l-47 -167q-10 5 -24 8t-36 3q-29 0 -56.5 -13t-49 -40.5t-32.5 -74.5l-50 -217h-202zM185 -55l-116 -187h-132l71 187h177z" />
    <glyph glyph-name="Rcaron" unicode="&#x158;" horiz-adv-x="691" 
d="M2 0l153 660h307q106 0 168 -50.5t62 -140.5q0 -77 -36 -129.5t-98.5 -80t-143.5 -28.5l-33 -10h-141l31 139h114q34 0 57.5 11t36.5 30.5t13 45.5q0 34 -23 49t-58 15h-90l-118 -511h-201zM432 0l-107 288l182 29l129 -317h-204zM331 715l-59 166h129l40 -87l79 87h140
l-136 -166h-193z" />
    <glyph glyph-name="rcaron" unicode="&#x159;" horiz-adv-x="436" 
d="M-10 0l116 500h180l-37 -205l-6 20q16 58 41.5 102t64 68.5t91.5 24.5q17 0 28.5 -2.5t18.5 -6.5l-47 -167q-10 5 -24 8t-36 3q-29 0 -56.5 -13t-49 -40.5t-32.5 -74.5l-50 -217h-202zM198 559l-67 175h131l46 -82l83 82h146l-148 -175h-191z" />
    <glyph glyph-name="Sacute" unicode="&#x15a;" horiz-adv-x="640" 
d="M330 -12q-69 0 -131.5 17t-115 51t-92.5 85l109 120q26 -37 64 -64t80.5 -41.5t82.5 -14.5q25 0 39.5 6.5t21.5 17.5t7 24q0 16 -13 26t-41 19l-95 32q-43 15 -79.5 39.5t-59 61.5t-22.5 87q0 72 36.5 119.5t99.5 72t142 24.5q106 0 179 -35.5t126 -96.5l-115 -116
q-23 30 -53.5 51t-65 31.5t-69.5 10.5q-23 0 -37.5 -5t-22 -14.5t-7.5 -22.5q0 -16 17 -28t46 -22l91 -31q77 -26 117 -68.5t40 -112.5t-37 -120.5t-100 -76.5t-142 -26zM429 881h180l-128 -166h-149z" />
    <glyph glyph-name="sacute" unicode="&#x15b;" horiz-adv-x="524" 
d="M255 -10q-53 0 -105 14t-96 40t-72 64l93 94q28 -36 71 -60t84 -24q24 0 36.5 6.5t12.5 19.5q0 10 -7.5 18t-25.5 12l-50 17q-80 25 -113 60.5t-33 90.5q0 54 29 91.5t80 57t117 19.5q80 0 142.5 -26t101.5 -70l-87 -99q-15 19 -38.5 34t-51.5 24t-56 9q-22 0 -32.5 -6.5
t-10.5 -18.5q0 -11 9.5 -17.5t24.5 -10.5l92 -30q54 -16 83 -50t29 -83q0 -54 -27 -93.5t-77.5 -61t-122.5 -21.5zM344 734h188l-148 -175h-145z" />
    <glyph glyph-name="Scircumflex" unicode="&#x15c;" horiz-adv-x="640" 
d="M330 -12q-69 0 -131.5 17t-115 51t-92.5 85l109 120q26 -37 64 -64t80.5 -41.5t82.5 -14.5q25 0 39.5 6.5t21.5 17.5t7 24q0 16 -13 26t-41 19l-95 32q-43 15 -79.5 39.5t-59 61.5t-22.5 87q0 72 36.5 119.5t99.5 72t142 24.5q106 0 179 -35.5t126 -96.5l-115 -116
q-23 30 -53.5 51t-65 31.5t-69.5 10.5q-23 0 -37.5 -5t-22 -14.5t-7.5 -22.5q0 -16 17 -28t46 -22l91 -31q77 -26 117 -68.5t40 -112.5t-37 -120.5t-100 -76.5t-142 -26zM547 881l58 -166h-128l-41 87l-79 -87h-140l136 166h194z" />
    <glyph glyph-name="scircumflex" unicode="&#x15d;" horiz-adv-x="524" 
d="M255 -10q-53 0 -105 14t-96 40t-72 64l93 94q28 -36 71 -60t84 -24q24 0 36.5 6.5t12.5 19.5q0 10 -7.5 18t-25.5 12l-50 17q-80 25 -113 60.5t-33 90.5q0 54 29 91.5t80 57t117 19.5q80 0 142.5 -26t101.5 -70l-87 -99q-15 19 -38.5 34t-51.5 24t-56 9q-22 0 -32.5 -6.5
t-10.5 -18.5q0 -11 9.5 -17.5t24.5 -10.5l92 -30q54 -16 83 -50t29 -83q0 -54 -27 -93.5t-77.5 -61t-122.5 -21.5zM123 552l148 176h191l67 -176h-135l-45 79l-80 -79h-146z" />
    <glyph glyph-name="Scedilla" unicode="&#x15e;" horiz-adv-x="640" 
d="M330 -12q-69 0 -131.5 17t-115 51t-92.5 85l109 120q26 -37 64 -64t80.5 -41.5t82.5 -14.5q25 0 39.5 6.5t21.5 17.5t7 24q0 16 -13 26t-41 19l-95 32q-43 15 -79.5 39.5t-59 61.5t-22.5 87q0 72 36.5 119.5t99.5 72t142 24.5q106 0 179 -35.5t126 -96.5l-115 -116
q-23 30 -53.5 51t-65 31.5t-69.5 10.5q-23 0 -37.5 -5t-22 -14.5t-7.5 -22.5q0 -16 17 -28t46 -22l91 -31q77 -26 117 -68.5t40 -112.5t-37 -120.5t-100 -76.5t-142 -26zM219 6l46 23q59 -8 91.5 -37t32.5 -75q0 -41 -19 -71.5t-51.5 -46.5t-75.5 -16q-39 0 -68.5 10.5
t-50.5 29.5l49 82q11 -10 28.5 -15t30.5 -5q24 0 40 16.5t16 37.5t-17 38t-52 29z" />
    <glyph glyph-name="scedilla" unicode="&#x15f;" horiz-adv-x="524" 
d="M255 -10q-53 0 -105 14t-96 40t-72 64l93 94q28 -36 71 -60t84 -24q24 0 36.5 6.5t12.5 19.5q0 10 -7.5 18t-25.5 12l-50 17q-80 25 -113 60.5t-33 90.5q0 54 29 91.5t80 57t117 19.5q80 0 142.5 -26t101.5 -70l-87 -99q-15 19 -38.5 34t-51.5 24t-56 9q-22 0 -32.5 -6.5
t-10.5 -18.5q0 -11 9.5 -17.5t24.5 -10.5l92 -30q54 -16 83 -50t29 -83q0 -54 -27 -93.5t-77.5 -61t-122.5 -21.5zM161 6l46 23q59 -8 91.5 -37t32.5 -75q0 -41 -19 -71.5t-51.5 -46.5t-75.5 -16q-39 0 -68.5 10.5t-50.5 29.5l49 82q11 -10 28.5 -15t30.5 -5q24 0 40 16.5
t16 37.5t-17 38t-52 29z" />
    <glyph glyph-name="Scaron" unicode="&#x160;" horiz-adv-x="640" 
d="M330 -12q-69 0 -131.5 17t-115 51t-92.5 85l109 120q26 -37 64 -64t80.5 -41.5t82.5 -14.5q25 0 39.5 6.5t21.5 17.5t7 24q0 16 -13 26t-41 19l-95 32q-43 15 -79.5 39.5t-59 61.5t-22.5 87q0 72 36.5 119.5t99.5 72t142 24.5q106 0 179 -35.5t126 -96.5l-115 -116
q-23 30 -53.5 51t-65 31.5t-69.5 10.5q-23 0 -37.5 -5t-22 -14.5t-7.5 -22.5q0 -16 17 -28t46 -22l91 -31q77 -26 117 -68.5t40 -112.5t-37 -120.5t-100 -76.5t-142 -26zM306 715l-59 166h129l40 -87l79 87h140l-136 -166h-193z" />
    <glyph glyph-name="scaron" unicode="&#x161;" horiz-adv-x="524" 
d="M255 -10q-53 0 -105 14t-96 40t-72 64l93 94q28 -36 71 -60t84 -24q24 0 36.5 6.5t12.5 19.5q0 10 -7.5 18t-25.5 12l-50 17q-80 25 -113 60.5t-33 90.5q0 54 29 91.5t80 57t117 19.5q80 0 142.5 -26t101.5 -70l-87 -99q-15 19 -38.5 34t-51.5 24t-56 9q-22 0 -32.5 -6.5
t-10.5 -18.5q0 -11 9.5 -17.5t24.5 -10.5l92 -30q54 -16 83 -50t29 -83q0 -54 -27 -93.5t-77.5 -61t-122.5 -21.5zM218 559l-67 175h131l46 -82l83 82h146l-148 -175h-191z" />
    <glyph glyph-name="uni0162" unicode="&#x162;" horiz-adv-x="668" 
d="M242 -217q-39 0 -68 10.5t-50 29.5l48 82q12 -10 29.5 -15t30.5 -5q24 0 40 16.5t16 37.5t-17 38t-52 28l45 24q60 -8 92.5 -37t32.5 -75q0 -41 -19 -71.5t-52 -46.5t-76 -16zM741 660l-35 -153h-210l-117 -507h-204l117 507h-211l36 153h624z" />
    <glyph glyph-name="uni0163" unicode="&#x163;" horiz-adv-x="448" 
d="M263 -10q-66 0 -112.5 23t-65 68t-3.5 113l96 413l215 56l-107 -462q-10 -36 8.5 -55.5t56.5 -19.5q23 0 36 2.5t24 7.5l-20 -125q-28 -11 -60.5 -16t-67.5 -5zM32 361l32 139h421l-32 -139h-421zM163 6l46 23q59 -8 91.5 -37t32.5 -75q0 -41 -19 -71.5t-51.5 -46.5
t-75.5 -16q-39 0 -68.5 10.5t-50.5 29.5l49 82q11 -10 28.5 -15t30.5 -5q24 0 40 16.5t16 37.5t-17 38t-52 29z" />
    <glyph glyph-name="Tcaron" unicode="&#x164;" horiz-adv-x="668" 
d="M741 660l-35 -153h-210l-117 -507h-204l117 507h-211l36 153h624zM336 715l-59 166h129l40 -87l79 87h140l-136 -166h-193z" />
    <glyph glyph-name="tcaron" unicode="&#x165;" horiz-adv-x="448" 
d="M631 767l-115 -221h-117l80 221h152zM263 -10q-66 0 -112.5 23t-65 68t-3.5 113l96 413l215 56l-107 -462q-10 -36 8.5 -55.5t56.5 -19.5q23 0 36 2.5t24 7.5l-20 -125q-28 -11 -60.5 -16t-67.5 -5zM32 361l32 139h421l-32 -139h-421z" />
    <glyph glyph-name="Tbar" unicode="&#x166;" horiz-adv-x="668" 
d="M741 660l-35 -153h-210l-117 -507h-204l117 507h-211l36 153h624zM610 371l-35 -153h-496l35 153h496z" />
    <glyph glyph-name="tbar" unicode="&#x167;" horiz-adv-x="448" 
d="M442 316l-25 -110h-419l25 110h419zM263 -10q-66 0 -112.5 23t-65 68t-3.5 113l96 413l215 56l-107 -462q-10 -36 8.5 -55.5t56.5 -19.5q23 0 36 2.5t24 7.5l-20 -125q-28 -11 -60.5 -16t-67.5 -5zM32 361l32 139h421l-32 -139h-421z" />
    <glyph glyph-name="Utilde" unicode="&#x168;" horiz-adv-x="708" 
d="M331 -10q-104 0 -173 36.5t-96 105t-5 163.5l85 365h206l-90 -391q-8 -39 0.5 -66.5t32 -42t58.5 -14.5q46 0 71.5 27.5t37.5 83.5l94 403h204l-93 -401q-33 -137 -111.5 -203t-220.5 -66zM683 875q-12 -86 -54 -127.5t-94 -41.5q-27 0 -45.5 8.5t-32 19.5t-26 19.5
t-26.5 8.5q-15 0 -25 -14.5t-16 -39.5h-106q14 85 53 126.5t94 41.5q22 0 40 -8.5t33 -19t29 -19t28 -8.5q15 0 25.5 13.5t16.5 40.5h106z" />
    <glyph glyph-name="utilde" unicode="&#x169;" horiz-adv-x="614" 
d="M167 -10q-52 0 -88 22.5t-50 64t-1 98.5l75 325h202l-67 -292q-8 -33 5.5 -49.5t40.5 -16.5q21 0 35 9.5t24.5 29t16.5 47.5l63 272h202l-116 -500h-180l28 176l8 -19q-21 -80 -73 -123.5t-125 -43.5zM594 717q-12 -86 -54 -127.5t-94 -41.5q-27 0 -45.5 8.5t-32 19.5
t-26 19.5t-26.5 8.5q-15 0 -25 -14.5t-16 -39.5h-106q14 85 53 126.5t94 41.5q22 0 40 -8.5t33 -19t29 -19t28 -8.5q15 0 25.5 13.5t16.5 40.5h106z" />
    <glyph glyph-name="Umacron" unicode="&#x16a;" horiz-adv-x="708" 
d="M331 -10q-104 0 -173 36.5t-96 105t-5 163.5l85 365h206l-90 -391q-8 -39 0.5 -66.5t32 -42t58.5 -14.5q46 0 71.5 27.5t37.5 83.5l94 403h204l-93 -401q-33 -137 -111.5 -203t-220.5 -66zM676 834l-28 -119h-374l28 119h374z" />
    <glyph glyph-name="umacron" unicode="&#x16b;" horiz-adv-x="614" 
d="M167 -10q-52 0 -88 22.5t-50 64t-1 98.5l75 325h202l-67 -292q-8 -33 5.5 -49.5t40.5 -16.5q21 0 35 9.5t24.5 29t16.5 47.5l63 272h202l-116 -500h-180l28 176l8 -19q-21 -80 -73 -123.5t-125 -43.5zM587 676l-28 -119h-374l28 119h374z" />
    <glyph glyph-name="Ubreve" unicode="&#x16c;" horiz-adv-x="708" 
d="M331 -10q-104 0 -173 36.5t-96 105t-5 163.5l85 365h206l-90 -391q-8 -39 0.5 -66.5t32 -42t58.5 -14.5q46 0 71.5 27.5t37.5 83.5l94 403h204l-93 -401q-33 -137 -111.5 -203t-220.5 -66zM662 871q-13 -77 -67.5 -122.5t-137.5 -45.5q-73 0 -112.5 34.5t-39.5 92.5
q0 10 1 20.5t3 20.5h125q-1 -5 -2 -10.5t-1 -10.5q0 -18 12 -29t33 -11q24 0 40 16t21 45h125z" />
    <glyph glyph-name="ubreve" unicode="&#x16d;" horiz-adv-x="614" 
d="M167 -10q-52 0 -88 22.5t-50 64t-1 98.5l75 325h202l-67 -292q-8 -33 5.5 -49.5t40.5 -16.5q21 0 35 9.5t24.5 29t16.5 47.5l63 272h202l-116 -500h-180l28 176l8 -19q-21 -80 -73 -123.5t-125 -43.5zM574 713q-13 -77 -67.5 -122.5t-137.5 -45.5q-73 0 -112.5 34.5
t-39.5 92.5q0 10 1 20.5t3 20.5h125q-1 -5 -2 -10.5t-1 -10.5q0 -18 12 -29t33 -11q24 0 40 16t21 45h125z" />
    <glyph glyph-name="Uring" unicode="&#x16e;" horiz-adv-x="708" 
d="M331 -10q-104 0 -173 36.5t-96 105t-5 163.5l85 365h206l-90 -391q-8 -39 0.5 -66.5t32 -42t58.5 -14.5q46 0 71.5 27.5t37.5 83.5l94 403h204l-93 -401q-33 -137 -111.5 -203t-220.5 -66zM472 944q64 0 101.5 -32t37.5 -83q0 -62 -42 -101.5t-108 -39.5
q-64 0 -101.5 31.5t-37.5 82.5q0 62 42 102t108 40zM469 862q-20 0 -35 -13.5t-15 -38.5q0 -18 12.5 -29.5t32.5 -11.5t34.5 14t14.5 38q0 19 -11.5 30t-32.5 11z" />
    <glyph glyph-name="uring" unicode="&#x16f;" horiz-adv-x="614" 
d="M167 -10q-52 0 -88 22.5t-50 64t-1 98.5l75 325h202l-67 -292q-8 -33 5.5 -49.5t40.5 -16.5q21 0 35 9.5t24.5 29t16.5 47.5l63 272h202l-116 -500h-180l28 176l8 -19q-21 -80 -73 -123.5t-125 -43.5zM388 797q64 0 101.5 -32t37.5 -83q0 -62 -42 -101.5t-108 -39.5
q-64 0 -101.5 31.5t-37.5 82.5q0 62 42 102t108 40zM385 715q-20 0 -35 -13.5t-15 -38.5q0 -18 12.5 -29.5t32.5 -11.5t34.5 14t14.5 38q0 19 -11.5 30t-32.5 11z" />
    <glyph glyph-name="Uhungarumlaut" unicode="&#x170;" horiz-adv-x="708" 
d="M331 -10q-104 0 -173 36.5t-96 105t-5 163.5l85 365h206l-90 -391q-8 -39 0.5 -66.5t32 -42t58.5 -14.5q46 0 71.5 27.5t37.5 83.5l94 403h204l-93 -401q-33 -137 -111.5 -203t-220.5 -66zM488 711l103 166h169l-137 -166h-135zM271 711l103 166h169l-137 -166h-135z" />
    <glyph glyph-name="uhungarumlaut" unicode="&#x171;" horiz-adv-x="614" 
d="M167 -10q-52 0 -88 22.5t-50 64t-1 98.5l75 325h202l-67 -292q-8 -33 5.5 -49.5t40.5 -16.5q21 0 35 9.5t24.5 29t16.5 47.5l63 272h202l-116 -500h-180l28 176l8 -19q-21 -80 -73 -123.5t-125 -43.5zM407 557l114 175h170l-148 -175h-136zM183 557l114 175h170
l-148 -175h-136z" />
    <glyph glyph-name="Uogonek" unicode="&#x172;" horiz-adv-x="708" 
d="M331 -10q-104 0 -173 36.5t-96 105t-5 163.5l85 365h206l-90 -391q-8 -39 0.5 -66.5t32 -42t58.5 -14.5q46 0 71.5 27.5t37.5 83.5l94 403h204l-93 -401q-33 -137 -111.5 -203t-220.5 -66zM323 -228q-38 0 -71 12.5t-53 37.5t-20 65q0 45 24.5 74t67.5 45.5t98 20.5
l66 -25q-32 -12 -59 -23t-43.5 -25t-16.5 -36q0 -21 16 -30t36 -9q9 0 17 2t14 4l-6 -99q-17 -7 -35.5 -10.5t-34.5 -3.5z" />
    <glyph glyph-name="uogonek" unicode="&#x173;" horiz-adv-x="614" 
d="M396 -219q-38 0 -72 11t-55 35t-21 64q0 44 25.5 74.5t68.5 49t97 24.5l70 -39q-52 -14 -85.5 -30t-33.5 -47q0 -21 15.5 -29.5t34.5 -8.5q10 0 17.5 2t14.5 5l-6 -97q-17 -7 -35.5 -10.5t-34.5 -3.5zM167 -10q-52 0 -88 22.5t-50 64t-1 98.5l75 325h202l-67 -292
q-8 -33 5.5 -49.5t40.5 -16.5q21 0 35 9.5t24.5 29t16.5 47.5l63 272h202l-116 -500h-180l28 176l8 -19q-21 -80 -73 -123.5t-125 -43.5z" />
    <glyph glyph-name="Wcircumflex" unicode="&#x174;" horiz-adv-x="1006" 
d="M129 0l-34 660h201l-9 -492l206 492h181l4 -493l198 493h224l-341 -660h-224v282l12 171h-3l-69 -171l-122 -282h-224zM735 881l58 -166h-128l-41 87l-79 -87h-140l136 166h194z" />
    <glyph glyph-name="wcircumflex" unicode="&#x175;" horiz-adv-x="908" 
d="M71 0l-17 500h197l-9 -347l160 347h199l9 -348l145 348h213l-253 -500h-245l-10 276l-136 -276h-253zM307 552l148 176h191l67 -176h-135l-45 79l-80 -79h-146z" />
    <glyph glyph-name="Ycircumflex" unicode="&#x176;" horiz-adv-x="685" 
d="M182 0l56 241l-133 419h194l47 -166l25 -113l70 115l113 164h216l-331 -433l-52 -227h-205zM567 877l58 -166h-128l-41 87l-79 -87h-140l136 166h194z" />
    <glyph glyph-name="ycircumflex" unicode="&#x177;" horiz-adv-x="577" 
d="M56 -215q-45 0 -84 10t-61 25l52 138q35 -29 89 -29q26 0 46.5 9t32.5 28l11 18l-88 516h205l4 -263l-1 -121l51 120l117 264h212l-301 -522q-40 -70 -81.5 -112.5t-90.5 -61.5t-113 -19zM170 550l148 176h191l67 -176h-135l-45 79l-80 -79h-146z" />
    <glyph glyph-name="Ydieresis" unicode="&#x178;" horiz-adv-x="685" 
d="M182 0l56 241l-133 419h194l47 -166l25 -113l70 115l113 164h216l-331 -433l-52 -227h-205zM550 701q-40 0 -64.5 16t-24.5 52q0 54 29 77t78 23q40 0 64 -16t24 -51q0 -54 -28.5 -77.5t-77.5 -23.5zM318 701q-40 0 -64.5 16t-24.5 52q0 54 29 77t78 23q40 0 64 -16
t24 -51q0 -54 -29 -77.5t-77 -23.5z" />
    <glyph glyph-name="Zacute" unicode="&#x179;" horiz-adv-x="634" 
d="M-22 0l35 151l418 360h-344l35 149h569l-35 -151l-418 -360h353l-35 -149h-578zM424 881h180l-128 -166h-149z" />
    <glyph glyph-name="zacute" unicode="&#x17a;" horiz-adv-x="511" 
d="M-24 0l28 119l210 200l57 48l-75 -4h-140l32 137h445l-28 -120l-203 -193l-63 -54l87 4h138l-31 -137h-457zM333 734h188l-148 -175h-145z" />
    <glyph glyph-name="Zdotaccent" unicode="&#x17b;" horiz-adv-x="634" 
d="M-22 0l35 151l418 360h-344l35 149h569l-35 -151l-418 -360h353l-35 -149h-578zM407 709q-43 0 -69 16.5t-26 53.5q0 56 31 80.5t83 24.5q46 0 71.5 -17t25.5 -52q0 -58 -31 -82t-85 -24z" />
    <glyph glyph-name="zdotaccent" unicode="&#x17c;" horiz-adv-x="511" 
d="M-24 0l28 119l210 200l57 48l-75 -4h-140l32 137h445l-28 -120l-203 -193l-63 -54l87 4h138l-31 -137h-457zM321 549q-43 0 -69 16.5t-26 53.5q0 56 31 80.5t83 24.5q46 0 71.5 -17t25.5 -52q0 -58 -31 -82t-85 -24z" />
    <glyph glyph-name="Zcaron" unicode="&#x17d;" horiz-adv-x="634" 
d="M-22 0l35 151l418 360h-344l35 149h569l-35 -151l-418 -360h353l-35 -149h-578zM301 715l-59 166h129l40 -87l79 87h140l-136 -166h-193z" />
    <glyph glyph-name="zcaron" unicode="&#x17e;" horiz-adv-x="511" 
d="M-24 0l28 119l210 200l57 48l-75 -4h-140l32 137h445l-28 -120l-203 -193l-63 -54l87 4h138l-31 -137h-457zM207 559l-67 175h131l46 -82l83 82h146l-148 -175h-191z" />
    <glyph glyph-name="longs" unicode="&#x17f;" horiz-adv-x="346" 
d="M-12 0l123 532q16 70 55 111.5t92 60.5t108 19q36 0 59 -6t39 -20l-36 -121q-14 11 -39 11q-30 0 -53.5 -16t-31.5 -53l-120 -518h-196z" />
    <glyph glyph-name="uni018E" unicode="&#x18e;" horiz-adv-x="628" 
d="M509 0h-544l36 153h340l24 105h-262l32 142h262l25 107h-328l36 153h532z" />
    <glyph glyph-name="uni018F" unicode="&#x18f;" horiz-adv-x="715" 
d="M347 -10q-89 0 -155 34.5t-102.5 98.5t-36.5 152q0 25 2 44.5t7 38.5h434q1 8 1 15.5v15.5q0 42 -13.5 69.5t-38 41t-57.5 13.5q-45 0 -75 -22t-49 -67l-183 61q38 89 117 137t198 48q88 0 156 -34t108 -99t40 -157q0 -85 -23.5 -156t-69 -123.5t-111 -81.5t-149.5 -29z
M349 148q35 0 59.5 13.5t41.5 36.5t27 52h-228q1 -33 11.5 -55.5t33 -34.5t55.5 -12z" />
    <glyph glyph-name="florin" unicode="&#x192;" horiz-adv-x="526" 
d="M532 724q28 0 57.5 -5.5t50.5 -22.5l-53 -119q-8 6 -19 9.5t-26 3.5q-34 0 -61.5 -19t-41.5 -54l-178 -461q-35 -89 -105 -136.5t-157 -47.5q-40 0 -64 6t-45 22l52 119q19 -13 48 -13q34 0 60.5 19.5t39.5 53.5l180 461q35 90 104.5 137t157.5 47zM532 424l-31 -137
h-460l32 137h459z" />
    <glyph glyph-name="Ohorn" unicode="&#x1a0;" horiz-adv-x="728" 
d="M539 570l-34 90q36 -7 61.5 -1.5t41 20.5t23.5 37t8 49h136q-6 -69 -33.5 -114.5t-78 -66t-124.5 -14.5zM352 -10q-85 0 -153.5 34.5t-108 99.5t-39.5 157q0 84 24.5 155.5t71 124t114 81t152.5 28.5q86 0 154 -34.5t107.5 -99.5t39.5 -157q0 -84 -24 -155t-70.5 -124
t-114 -81.5t-153.5 -28.5zM357 147q39 0 67.5 23t47.5 60.5t28.5 81.5t9.5 85q0 38 -11.5 64t-34 39t-56.5 13q-39 0 -67.5 -23t-47.5 -60.5t-28.5 -81.5t-9.5 -85q0 -37 11.5 -63.5t34.5 -39.5t56 -13z" />
    <glyph glyph-name="ohorn" unicode="&#x1a1;" horiz-adv-x="602" 
d="M432 411l-27 88q31 -8 52 4t34.5 39.5t18.5 64.5h132q-12 -76 -38.5 -121t-69 -63t-102.5 -12zM280 -10q-77 0 -134 29.5t-88.5 81t-31.5 117.5q0 79 34 145.5t99.5 106.5t161.5 40q78 0 135 -29.5t88.5 -80.5t31.5 -117q0 -79 -34 -146t-99.5 -107t-162.5 -40zM283 128
q22 0 39.5 17t30 44t19 57t6.5 56q0 24 -7 39t-20.5 23t-32.5 8q-22 0 -39.5 -17t-30 -44t-19.5 -57t-7 -56q0 -23 7.5 -38.5t21 -23.5t32.5 -8z" />
    <glyph glyph-name="Uhorn" unicode="&#x1af;" horiz-adv-x="708" 
d="M331 -10q-104 0 -173 36.5t-96 105t-5 163.5l85 365h206l-90 -391q-8 -39 0.5 -66.5t32 -42t58.5 -14.5q46 0 71.5 27.5t37.5 83.5l94 403h204l-93 -401q-33 -137 -111.5 -203t-220.5 -66zM635 563l23 97q28 0 47 24.5t26 80.5h137q-9 -74 -38 -120t-78 -65.5t-117 -16.5
z" />
    <glyph glyph-name="uhorn" unicode="&#x1b0;" horiz-adv-x="631" 
d="M167 -10q-52 0 -88 22.5t-50 64t-1 98.5l75 325h202l-67 -292q-8 -33 5.5 -49.5t40.5 -16.5q21 0 35 9.5t24.5 29t16.5 47.5l63 272h202l-116 -500h-180l28 176l8 -19q-21 -80 -73 -123.5t-125 -43.5zM566 408l-27 92q25 0 44 23.5t30 83.5h132q-11 -76 -37.5 -119
t-62.5 -61t-79 -19z" />
    <glyph glyph-name="uni01C4" unicode="&#x1c4;" horiz-adv-x="1340" 
d="M2 0l153 660h248q97 0 162 -34t98 -94.5t33 -141.5q0 -88 -24.5 -160t-72.5 -123t-116 -79t-156 -28h-325zM242 149h74q45 0 78.5 21.5t54.5 57t31.5 79t10.5 86.5q0 37 -12 63.5t-36 40.5t-62 14h-56zM684 0l35 151l418 360h-344l35 149h569l-35 -151l-418 -360h353
l-35 -149h-578zM1007 715l-59 166h129l40 -87l79 87h140l-136 -166h-193z" />
    <glyph glyph-name="uni01C5" unicode="&#x1c5;" horiz-adv-x="1219" 
d="M2 0l153 660h248q97 0 162 -34t98 -94.5t33 -141.5q0 -88 -24.5 -160t-72.5 -123t-116 -79t-156 -28h-325zM242 149h74q45 0 78.5 21.5t54.5 57t31.5 79t10.5 86.5q0 37 -12 63.5t-36 40.5t-62 14h-56zM683 0l28 119l210 200l57 48l-75 -4h-140l32 137h445l-28 -120
l-203 -193l-63 -54l87 4h138l-31 -137h-457zM915 559l-67 175h131l46 -82l83 82h146l-148 -175h-191z" />
    <glyph glyph-name="uni01C6" unicode="&#x1c6;" horiz-adv-x="1130" 
d="M188 -10q-46 0 -84 22t-60 65t-22 107q0 60 17 118t48.5 105t76.5 75t103 28q29 0 57.5 -11t50 -35t28.5 -66l71 308h202l-163 -706h-184l17 95q-25 -49 -66 -77t-92 -28zM282 135q21 0 38.5 15t29.5 39.5t18.5 52.5t6.5 53q0 22 -7 37.5t-19.5 24t-30.5 8.5
q-24 0 -42 -16t-30 -40t-18 -51t-6 -48q0 -23 6.5 -40t19.5 -26t34 -9zM594 0l28 119l210 200l57 48l-75 -4h-140l32 137h445l-28 -120l-203 -193l-63 -54l87 4h138l-31 -137h-457zM826 559l-67 175h131l46 -82l83 82h146l-148 -175h-191z" />
    <glyph glyph-name="uni01C7" unicode="&#x1c7;" horiz-adv-x="1240" 
d="M242 153h321l-36 -153h-525l153 660h205zM889 -10q-81 0 -137.5 25.5t-87 68t-34.5 98t19 115.5l205 8q-22 -56 -21 -91t19.5 -51.5t50.5 -16.5q40 0 58.5 30.5t34.5 100.5l89 383h204l-96 -416q-17 -76 -52 -133t-95.5 -89t-156.5 -32z" />
    <glyph glyph-name="uni01C8" unicode="&#x1c8;" horiz-adv-x="908" 
d="M242 153h321l-36 -153h-525l153 660h205zM837 544q-51 0 -78.5 20t-21.5 65q7 52 36 73t84 21q52 0 79.5 -20.5t21.5 -62.5q-7 -56 -37 -76t-84 -20zM587 -215q-40 0 -79 7.5t-66 26.5l42 123q11 -7 24 -11.5t26 -4.5q30 0 43 15.5t22 55.5l117 503h202l-121 -525
q-24 -100 -73.5 -145t-136.5 -45z" />
    <glyph glyph-name="uni01C9" unicode="&#x1c9;" horiz-adv-x="636" 
d="M187 -9q-97 0 -137 52t-19 141l121 522h202l-120 -518q-7 -31 3 -46.5t40 -15.5q11 0 19 1t13 2l-34 -126q-16 -7 -37 -9.5t-51 -2.5zM564 544q-51 0 -78.5 20t-21.5 65q7 52 36 73t84 21q52 0 79.5 -20.5t21.5 -62.5q-7 -56 -37 -76t-84 -20zM314 -215q-40 0 -79 7.5
t-66 26.5l42 123q11 -7 24 -11.5t26 -4.5q30 0 43 15.5t22 55.5l117 503h202l-121 -525q-24 -100 -73.5 -145t-136.5 -45z" />
    <glyph glyph-name="uni01CA" unicode="&#x1ca;" horiz-adv-x="1371" 
d="M2 0l153 660h215l103 -335l27 -100h2l29 149l66 286h179l-153 -660h-212l-107 327l-28 100h-2l-27 -141l-66 -286h-179zM1020 -10q-81 0 -137.5 25.5t-87 68t-34.5 98t19 115.5l205 8q-22 -56 -21 -91t19.5 -51.5t50.5 -16.5q40 0 58.5 30.5t34.5 100.5l89 383h204
l-96 -416q-17 -76 -52 -133t-95.5 -89t-156.5 -32z" />
    <glyph glyph-name="uni01CB" unicode="&#x1cb;" horiz-adv-x="1040" 
d="M2 0l153 660h215l103 -335l27 -100h2l29 149l66 286h179l-153 -660h-212l-107 327l-28 100h-2l-27 -141l-66 -286h-179zM968 544q-51 0 -78.5 20t-21.5 65q7 52 36 73t84 21q52 0 79.5 -20.5t21.5 -62.5q-7 -56 -37 -76t-84 -20zM718 -215q-40 0 -79 7.5t-66 26.5l42 123
q11 -7 24 -11.5t26 -4.5q30 0 43 15.5t22 55.5l117 503h202l-121 -525q-24 -100 -73.5 -145t-136.5 -45z" />
    <glyph glyph-name="uni01CC" unicode="&#x1cc;" horiz-adv-x="913" 
d="M-10 0l116 500h179l-28 -176l-8 17q21 81 74 125t127 44q52 0 87 -23t49 -65t0 -101l-75 -321h-202l69 292q7 31 -5 49t-40 18q-20 0 -35.5 -10t-26 -29t-17.5 -48l-62 -272h-202zM842 544q-51 0 -78.5 20t-21.5 65q7 52 36 73t84 21q52 0 79.5 -20.5t21.5 -62.5
q-7 -56 -37 -76t-84 -20zM592 -215q-40 0 -79 7.5t-66 26.5l42 123q11 -7 24 -11.5t26 -4.5q30 0 43 15.5t22 55.5l117 503h202l-121 -525q-24 -100 -73.5 -145t-136.5 -45z" />
    <glyph glyph-name="uni01DD" unicode="&#x1dd;" horiz-adv-x="585" 
d="M306 509q76 0 132.5 -27.5t88 -78.5t31.5 -121q0 -87 -35.5 -152.5t-100 -102.5t-153.5 -37q-71 0 -124.5 29.5t-83 82t-29.5 121.5q0 15 1.5 32.5t3.5 33.5h386l1 -82h-251l51 22q-4 -12 -5 -22t-1 -19q0 -21 7 -35t20 -20.5t28 -6.5q30 0 50 16t31 41.5t15 55t4 55.5
q0 27 -8 45t-24.5 26.5t-38.5 8.5q-30 0 -50 -15.5t-29 -37.5l-168 59q30 57 97 93t154 36z" />
    <glyph glyph-name="Gcaron" unicode="&#x1e6;" horiz-adv-x="718" 
d="M315 -10q-75 0 -135 35t-95 99t-35 153q0 82 24.5 152.5t71.5 125t116 85t158 30.5q78 0 138.5 -25.5t99 -74t47.5 -117.5l-191 -31q-4 42 -27.5 67t-70.5 25q-35 0 -64.5 -17t-51.5 -47t-34 -70t-12 -88q0 -46 13.5 -80t42 -53t73.5 -19q31 0 54 9.5t38.5 26t23.5 37.5
l8 20h-141l29 128h301l-92 -361h-132l36 164l17 -19q-17 -50 -45 -84.5t-68.5 -52.5t-96.5 -18zM345 715l-59 166h129l40 -87l79 87h140l-136 -166h-193z" />
    <glyph glyph-name="gcaron" unicode="&#x1e7;" horiz-adv-x="617" 
d="M209 -215q-46 0 -88.5 11t-76.5 34.5t-52.5 59.5t-17.5 85l202 15q-1 -37 10 -59t48 -22q20 0 35.5 10.5t27.5 32t20 58.5l41 177l7 -5q-15 -82 -59 -125.5t-113 -43.5q-47 0 -84.5 22t-59.5 64.5t-22 104.5q0 58 16.5 113t48 98.5t76 69t100.5 25.5q35 0 67 -16
t52.5 -51.5t18.5 -92.5l-21 -31l41 181h202l-108 -467q-21 -94 -62 -148t-102.5 -77t-146.5 -23zM287 156q28 0 47.5 21.5t30 53.5t10.5 65q0 21 -7 36.5t-20 24t-31 8.5q-31 0 -51 -22.5t-30 -54t-10 -58.5q0 -33 14.5 -53.5t46.5 -20.5zM259 559l-67 175h131l46 -82l83 82
h146l-148 -175h-191z" />
    <glyph glyph-name="uni01EA" unicode="&#x1ea;" horiz-adv-x="728" 
d="M352 -10q-85 0 -153.5 34.5t-108 99.5t-39.5 157q0 84 24.5 155.5t71 124t114 81t152.5 28.5q86 0 154 -34.5t107.5 -99.5t39.5 -157q0 -84 -24 -155t-70.5 -124t-114 -81.5t-153.5 -28.5zM357 147q39 0 67.5 23t47.5 60.5t28.5 81.5t9.5 85q0 38 -11.5 64t-34 39
t-56.5 13q-39 0 -67.5 -23t-47.5 -60.5t-28.5 -81.5t-9.5 -85q0 -37 11.5 -63.5t34.5 -39.5t56 -13zM338 -226q-38 0 -71 12.5t-53 37.5t-20 65q0 45 24.5 74t67.5 45.5t98 20.5l66 -25q-32 -12 -59 -23t-43.5 -25t-16.5 -36q0 -21 16 -30t36 -9q9 0 17 2t14 4l-6 -99
q-17 -7 -35.5 -10.5t-34.5 -3.5z" />
    <glyph glyph-name="uni01EB" unicode="&#x1eb;" horiz-adv-x="602" 
d="M280 -10q-77 0 -134 29.5t-88.5 81t-31.5 117.5q0 79 34 145.5t99.5 106.5t161.5 40q78 0 135 -29.5t88.5 -80.5t31.5 -117q0 -79 -34 -146t-99.5 -107t-162.5 -40zM283 128q22 0 39.5 17t30 44t19 57t6.5 56q0 24 -7 39t-20.5 23t-32.5 8q-22 0 -39.5 -17t-30 -44
t-19.5 -57t-7 -56q0 -23 7.5 -38.5t21 -23.5t32.5 -8zM264 -226q-38 0 -71 12.5t-53 37.5t-20 65q0 45 24.5 74t67.5 45.5t98 20.5l66 -25q-32 -12 -59 -23t-43.5 -25t-16.5 -36q0 -21 16 -30t36 -9q9 0 17 2t14 4l-6 -99q-17 -7 -35.5 -10.5t-34.5 -3.5z" />
    <glyph glyph-name="uni01F1" unicode="&#x1f1;" horiz-adv-x="1340" 
d="M2 0l153 660h248q97 0 162 -34t98 -94.5t33 -141.5q0 -88 -24.5 -160t-72.5 -123t-116 -79t-156 -28h-325zM242 149h74q45 0 78.5 21.5t54.5 57t31.5 79t10.5 86.5q0 37 -12 63.5t-36 40.5t-62 14h-56zM684 0l35 151l418 360h-344l35 149h569l-35 -151l-418 -360h353
l-35 -149h-578z" />
    <glyph glyph-name="uni01F2" unicode="&#x1f2;" horiz-adv-x="1219" 
d="M2 0l153 660h248q97 0 162 -34t98 -94.5t33 -141.5q0 -88 -24.5 -160t-72.5 -123t-116 -79t-156 -28h-325zM242 149h74q45 0 78.5 21.5t54.5 57t31.5 79t10.5 86.5q0 37 -12 63.5t-36 40.5t-62 14h-56zM683 0l28 119l210 200l57 48l-75 -4h-140l32 137h445l-28 -120
l-203 -193l-63 -54l87 4h138l-31 -137h-457z" />
    <glyph glyph-name="uni01F3" unicode="&#x1f3;" horiz-adv-x="1130" 
d="M188 -10q-46 0 -84 22t-60 65t-22 107q0 60 17 118t48.5 105t76.5 75t103 28q29 0 57.5 -11t50 -35t28.5 -66l71 308h202l-163 -706h-184l17 95q-25 -49 -66 -77t-92 -28zM282 135q21 0 38.5 15t29.5 39.5t18.5 52.5t6.5 53q0 22 -7 37.5t-19.5 24t-30.5 8.5
q-24 0 -42 -16t-30 -40t-18 -51t-6 -48q0 -23 6.5 -40t19.5 -26t34 -9zM594 0l28 119l210 200l57 48l-75 -4h-140l32 137h445l-28 -120l-203 -193l-63 -54l87 4h138l-31 -137h-457z" />
    <glyph glyph-name="Aringacute" unicode="&#x1fa;" horiz-adv-x="680" 
d="M-62 0l375 660h247l66 -660h-193l-7 143h-204l-73 -143h-211zM290 275h131l-11 236zM448 840q64 0 101.5 -32t37.5 -83q0 -62 -42 -101.5t-108 -39.5q-64 0 -101.5 31.5t-37.5 82.5q0 62 42 102t108 40zM445 758q-20 0 -35 -13.5t-15 -38.5q0 -18 12.5 -29.5t32.5 -11.5
t34.5 14t14.5 38q0 19 -11.5 30t-32.5 11zM478 1039h180l-128 -166h-149z" />
    <glyph glyph-name="aringacute" unicode="&#x1fb;" horiz-adv-x="618" 
d="M188 -10q-46 0 -84 22t-60 65t-22 107q0 60 17 118t48.5 105t76.5 75t103 28q29 0 57.5 -11t50 -35t28.5 -66l24 102h202l-116 -500h-184l17 95q-25 -49 -66 -77t-92 -28zM282 135q21 0 38 15t29.5 39.5t19 52.5t6.5 53q0 22 -7 37.5t-19.5 24t-30.5 8.5q-24 0 -42 -16
t-30 -40t-18 -51t-6 -48q0 -23 6.5 -40t19.5 -26t34 -9zM379 799q64 0 101.5 -32t37.5 -83q0 -62 -42 -101.5t-108 -39.5q-64 0 -101.5 31.5t-37.5 82.5q0 62 42 102t108 40zM376 717q-20 0 -35 -13.5t-15 -38.5q0 -18 12.5 -29.5t32.5 -11.5t34.5 14t14.5 38q0 19 -11.5 30
t-32.5 11zM327 832l94 160h178l-125 -160h-147z" />
    <glyph glyph-name="AEacute" unicode="&#x1fc;" horiz-adv-x="910" 
d="M-65 0l388 660h647l-35 -145h-276l-28 -118h212l-31 -135h-211l-28 -117h290l-34 -145h-478l44 190h-144l-101 -190h-215zM312 315h111l48 207h-46zM628 881h180l-128 -166h-149z" />
    <glyph glyph-name="aeacute" unicode="&#x1fd;" horiz-adv-x="884" 
d="M179 -10q-78 0 -123.5 37t-45.5 102q0 48 23.5 78.5t61.5 47.5t81 21l174 21l-16 -84l-80 -12q-30 -4 -47.5 -15t-17.5 -35q0 -19 12.5 -29.5t35.5 -10.5q27 0 43.5 12.5t22.5 39.5l31 133q2 8 2 15v12q0 26 -13.5 40.5t-43.5 14.5q-29 0 -45 -18t-25 -51l-166 32
q14 76 73 122.5t167 46.5q53 0 91 -15t60 -41t25 -64l-37 14q24 32 53 55.5t67.5 37t91.5 13.5q69 0 119 -28t77.5 -76.5t27.5 -112.5q0 -21 -2 -43t-9 -44h-350l10 89h158q1 5 1 10v9q0 21 -7 34.5t-19 19.5t-27 6q-29 0 -49 -16t-31 -42t-16 -55.5t-5 -55.5
q0 -27 10 -44.5t28 -26t40 -8.5q30 0 48 14.5t27 36.5l168 -59q-17 -40 -53 -68.5t-84 -43.5t-103 -15q-57 0 -104 19.5t-77.5 56t-41.5 84.5l44 -5q-10 -40 -38 -76t-77 -58t-120 -22zM495 734h188l-148 -175h-145z" />
    <glyph glyph-name="Oslashacute" unicode="&#x1fe;" horiz-adv-x="728" 
d="M254 138l-41 53l300 346l36 -58zM20 -19l137 153l44 -48l-97 -105h-84zM575 502l-16 78l90 99h84zM352 -10q-85 0 -153.5 34.5t-108 99.5t-39.5 157q0 84 24.5 155.5t71 124t114 81t152.5 28.5q86 0 154 -34.5t107.5 -99.5t39.5 -157q0 -84 -24 -155t-70.5 -124
t-114 -81.5t-153.5 -28.5zM357 147q39 0 67.5 23t47.5 60.5t28.5 81.5t9.5 85q0 38 -11.5 64t-34 39t-56.5 13q-39 0 -67.5 -23t-47.5 -60.5t-28.5 -81.5t-9.5 -85q0 -37 11.5 -63.5t34.5 -39.5t56 -13zM467 881h180l-128 -166h-149z" />
    <glyph glyph-name="oslashacute" unicode="&#x1ff;" horiz-adv-x="602" 
d="M280 -10q-77 0 -134 29.5t-88.5 81t-31.5 117.5q0 79 34 145.5t99.5 106.5t161.5 40q78 0 135 -29.5t88.5 -80.5t31.5 -117q0 -79 -34 -146t-99.5 -107t-162.5 -40zM283 128q22 0 39.5 17t30 44t19 57t6.5 56q0 24 -7 39t-20.5 23t-32.5 8q-22 0 -39.5 -17t-30 -44
t-19.5 -57t-7 -56q0 -23 7.5 -38.5t21 -23.5t32.5 -8zM-16 -22l557 543h75l-556 -543h-76zM374 734h188l-148 -175h-145z" />
    <glyph glyph-name="uni0200" unicode="&#x200;" horiz-adv-x="680" 
d="M-62 0l375 660h247l66 -660h-193l-7 143h-204l-73 -143h-211zM290 275h131l-11 236zM384 881l29 -166h-131l-68 166h170zM597 881l29 -166h-131l-68 166h170z" />
    <glyph glyph-name="uni0201" unicode="&#x201;" horiz-adv-x="618" 
d="M188 -10q-46 0 -84 22t-60 65t-22 107q0 60 17 118t48.5 105t76.5 75t103 28q29 0 57.5 -11t50 -35t28.5 -66l24 102h202l-116 -500h-184l17 95q-25 -49 -66 -77t-92 -28zM282 135q21 0 38 15t29.5 39.5t19 52.5t6.5 53q0 22 -7 37.5t-19.5 24t-30.5 8.5q-24 0 -42 -16
t-30 -40t-18 -51t-6 -48q0 -23 6.5 -40t19.5 -26t34 -9zM297 734l41 -175h-132l-72 175h163zM507 734l41 -175h-133l-70 175h162z" />
    <glyph glyph-name="uni0202" unicode="&#x202;" horiz-adv-x="680" 
d="M-62 0l375 660h247l66 -660h-193l-7 143h-204l-73 -143h-211zM290 275h131l-11 236zM265 707q13 78 61.5 123t138.5 45q76 0 117 -35t41 -93q0 -9 -1.5 -19.5t-3.5 -20.5h-124q2 6 2.5 11t0.5 10q0 19 -12.5 29.5t-32.5 10.5q-26 0 -42 -15.5t-19 -45.5h-126z" />
    <glyph glyph-name="uni0203" unicode="&#x203;" horiz-adv-x="618" 
d="M188 -10q-46 0 -84 22t-60 65t-22 107q0 60 17 118t48.5 105t76.5 75t103 28q29 0 57.5 -11t50 -35t28.5 -66l24 102h202l-116 -500h-184l17 95q-25 -49 -66 -77t-92 -28zM282 135q21 0 38 15t29.5 39.5t19 52.5t6.5 53q0 22 -7 37.5t-19.5 24t-30.5 8.5q-24 0 -42 -16
t-30 -40t-18 -51t-6 -48q0 -23 6.5 -40t19.5 -26t34 -9zM179 547q13 78 61.5 123t138.5 45q76 0 117 -35t41 -93q0 -9 -1.5 -19.5t-3.5 -20.5h-124q2 6 2.5 11t0.5 10q0 19 -12.5 29.5t-32.5 10.5q-26 0 -42 -15.5t-19 -45.5h-126z" />
    <glyph glyph-name="uni0204" unicode="&#x204;" horiz-adv-x="626" 
d="M2 0l153 660h535l-35 -153h-331l-25 -107h261l-32 -142h-261l-24 -105h338l-36 -153h-543zM368 881l29 -166h-131l-68 166h170zM581 881l29 -166h-131l-68 166h170z" />
    <glyph glyph-name="uni0205" unicode="&#x205;" horiz-adv-x="585" 
d="M284 -9q-75 0 -133.5 27.5t-91 79t-32.5 120.5q0 87 35.5 152.5t100.5 102.5t153 37q78 0 132 -28t82.5 -78t28.5 -117q0 -20 -2 -40.5t-8 -40.5h-387l-1 88h252l-52 -23q5 13 5.5 22.5t0.5 18.5q0 22 -7 35.5t-19.5 20t-28.5 6.5q-30 0 -50 -16t-31 -41.5t-15 -55
t-4 -55.5q0 -27 10 -45t28 -26.5t41 -8.5q30 0 48 15t27 36l168 -58q-16 -41 -53 -69.5t-87.5 -43.5t-109.5 -15zM283 734l41 -175h-132l-72 175h163zM493 734l41 -175h-133l-70 175h162z" />
    <glyph glyph-name="uni0206" unicode="&#x206;" horiz-adv-x="626" 
d="M2 0l153 660h535l-35 -153h-331l-25 -107h261l-32 -142h-261l-24 -105h338l-36 -153h-543zM249 707q13 78 61.5 123t138.5 45q76 0 117 -35t41 -93q0 -9 -1.5 -19.5t-3.5 -20.5h-124q2 6 2.5 11t0.5 10q0 19 -12.5 29.5t-32.5 10.5q-26 0 -42 -15.5t-19 -45.5h-126z" />
    <glyph glyph-name="uni0207" unicode="&#x207;" horiz-adv-x="585" 
d="M284 -9q-75 0 -133.5 27.5t-91 79t-32.5 120.5q0 87 35.5 152.5t100.5 102.5t153 37q78 0 132 -28t82.5 -78t28.5 -117q0 -20 -2 -40.5t-8 -40.5h-387l-1 88h252l-52 -23q5 13 5.5 22.5t0.5 18.5q0 22 -7 35.5t-19.5 20t-28.5 6.5q-30 0 -50 -16t-31 -41.5t-15 -55
t-4 -55.5q0 -27 10 -45t28 -26.5t41 -8.5q30 0 48 15t27 36l168 -58q-16 -41 -53 -69.5t-87.5 -43.5t-109.5 -15zM165 547q13 78 61.5 123t138.5 45q76 0 117 -35t41 -93q0 -9 -1.5 -19.5t-3.5 -20.5h-124q2 6 2.5 11t0.5 10q0 19 -12.5 29.5t-32.5 10.5q-26 0 -42 -15.5
t-19 -45.5h-126z" />
    <glyph glyph-name="uni0208" unicode="&#x208;" horiz-adv-x="325" 
d="M360 660l-153 -660h-205l153 660h205zM206 881l29 -166h-131l-68 166h170zM419 881l29 -166h-131l-68 166h170z" />
    <glyph glyph-name="uni0209" unicode="&#x209;" horiz-adv-x="299" 
d="M308 500l-116 -500h-202l116 500h202zM155 734l41 -175h-132l-72 175h163zM365 734l41 -175h-133l-70 175h162z" />
    <glyph glyph-name="uni020A" unicode="&#x20a;" horiz-adv-x="325" 
d="M360 660l-153 -660h-205l153 660h205zM87 707q13 78 61.5 123t138.5 45q76 0 117 -35t41 -93q0 -9 -1.5 -19.5t-3.5 -20.5h-124q2 6 2.5 11t0.5 10q0 19 -12.5 29.5t-32.5 10.5q-26 0 -42 -15.5t-19 -45.5h-126z" />
    <glyph glyph-name="uni020B" unicode="&#x20b;" horiz-adv-x="299" 
d="M308 500l-116 -500h-202l116 500h202zM37 547q13 78 61.5 123t138.5 45q76 0 117 -35t41 -93q0 -9 -1.5 -19.5t-3.5 -20.5h-124q2 6 2.5 11t0.5 10q0 19 -12.5 29.5t-32.5 10.5q-26 0 -42 -15.5t-19 -45.5h-126z" />
    <glyph glyph-name="uni020C" unicode="&#x20c;" horiz-adv-x="728" 
d="M352 -10q-85 0 -153.5 34.5t-108 99.5t-39.5 157q0 84 24.5 155.5t71 124t114 81t152.5 28.5q86 0 154 -34.5t107.5 -99.5t39.5 -157q0 -84 -24 -155t-70.5 -124t-114 -81.5t-153.5 -28.5zM357 147q39 0 67.5 23t47.5 60.5t28.5 81.5t9.5 85q0 38 -11.5 64t-34 39
t-56.5 13q-39 0 -67.5 -23t-47.5 -60.5t-28.5 -81.5t-9.5 -85q0 -37 11.5 -63.5t34.5 -39.5t56 -13zM386 881l29 -166h-131l-68 166h170zM599 881l29 -166h-131l-68 166h170z" />
    <glyph glyph-name="uni020D" unicode="&#x20d;" horiz-adv-x="602" 
d="M280 -10q-77 0 -134 29.5t-88.5 81t-31.5 117.5q0 79 34 145.5t99.5 106.5t161.5 40q78 0 135 -29.5t88.5 -80.5t31.5 -117q0 -79 -34 -146t-99.5 -107t-162.5 -40zM283 128q22 0 39.5 17t30 44t19 57t6.5 56q0 24 -7 39t-20.5 23t-32.5 8q-22 0 -39.5 -17t-30 -44
t-19.5 -57t-7 -56q0 -23 7.5 -38.5t21 -23.5t32.5 -8zM297 734l41 -175h-132l-72 175h163zM507 734l41 -175h-133l-70 175h162z" />
    <glyph glyph-name="uni020E" unicode="&#x20e;" horiz-adv-x="728" 
d="M352 -10q-85 0 -153.5 34.5t-108 99.5t-39.5 157q0 84 24.5 155.5t71 124t114 81t152.5 28.5q86 0 154 -34.5t107.5 -99.5t39.5 -157q0 -84 -24 -155t-70.5 -124t-114 -81.5t-153.5 -28.5zM357 147q39 0 67.5 23t47.5 60.5t28.5 81.5t9.5 85q0 38 -11.5 64t-34 39
t-56.5 13q-39 0 -67.5 -23t-47.5 -60.5t-28.5 -81.5t-9.5 -85q0 -37 11.5 -63.5t34.5 -39.5t56 -13zM267 707q13 78 61.5 123t138.5 45q76 0 117 -35t41 -93q0 -9 -1.5 -19.5t-3.5 -20.5h-124q2 6 2.5 11t0.5 10q0 19 -12.5 29.5t-32.5 10.5q-26 0 -42 -15.5t-19 -45.5h-126
z" />
    <glyph glyph-name="uni020F" unicode="&#x20f;" horiz-adv-x="602" 
d="M280 -10q-77 0 -134 29.5t-88.5 81t-31.5 117.5q0 79 34 145.5t99.5 106.5t161.5 40q78 0 135 -29.5t88.5 -80.5t31.5 -117q0 -79 -34 -146t-99.5 -107t-162.5 -40zM283 128q22 0 39.5 17t30 44t19 57t6.5 56q0 24 -7 39t-20.5 23t-32.5 8q-22 0 -39.5 -17t-30 -44
t-19.5 -57t-7 -56q0 -23 7.5 -38.5t21 -23.5t32.5 -8zM179 547q13 78 61.5 123t138.5 45q76 0 117 -35t41 -93q0 -9 -1.5 -19.5t-3.5 -20.5h-124q2 6 2.5 11t0.5 10q0 19 -12.5 29.5t-32.5 10.5q-26 0 -42 -15.5t-19 -45.5h-126z" />
    <glyph glyph-name="uni0210" unicode="&#x210;" horiz-adv-x="691" 
d="M2 0l153 660h307q106 0 168 -50.5t62 -140.5q0 -77 -36 -129.5t-98.5 -80t-143.5 -28.5l-33 -10h-141l31 139h114q34 0 57.5 11t36.5 30.5t13 45.5q0 34 -23 49t-58 15h-90l-118 -511h-201zM432 0l-107 288l182 29l129 -317h-204zM373 881l29 -166h-131l-68 166h170z
M586 881l29 -166h-131l-68 166h170z" />
    <glyph glyph-name="uni0211" unicode="&#x211;" horiz-adv-x="436" 
d="M-10 0l116 500h180l-37 -205l-6 20q16 58 41.5 102t64 68.5t91.5 24.5q17 0 28.5 -2.5t18.5 -6.5l-47 -167q-10 5 -24 8t-36 3q-29 0 -56.5 -13t-49 -40.5t-32.5 -74.5l-50 -217h-202zM247 734l41 -175h-132l-72 175h163zM457 734l41 -175h-133l-70 175h162z" />
    <glyph glyph-name="uni0212" unicode="&#x212;" horiz-adv-x="691" 
d="M2 0l153 660h307q106 0 168 -50.5t62 -140.5q0 -77 -36 -129.5t-98.5 -80t-143.5 -28.5l-33 -10h-141l31 139h114q34 0 57.5 11t36.5 30.5t13 45.5q0 34 -23 49t-58 15h-90l-118 -511h-201zM432 0l-107 288l182 29l129 -317h-204zM254 707q13 78 61.5 123t138.5 45
q76 0 117 -35t41 -93q0 -9 -1.5 -19.5t-3.5 -20.5h-124q2 6 2.5 11t0.5 10q0 19 -12.5 29.5t-32.5 10.5q-26 0 -42 -15.5t-19 -45.5h-126z" />
    <glyph glyph-name="uni0213" unicode="&#x213;" horiz-adv-x="436" 
d="M-10 0l116 500h180l-37 -205l-6 20q16 58 41.5 102t64 68.5t91.5 24.5q17 0 28.5 -2.5t18.5 -6.5l-47 -167q-10 5 -24 8t-36 3q-29 0 -56.5 -13t-49 -40.5t-32.5 -74.5l-50 -217h-202zM129 547q13 78 61.5 123t138.5 45q76 0 117 -35t41 -93q0 -9 -1.5 -19.5t-3.5 -20.5
h-124q2 6 2.5 11t0.5 10q0 19 -12.5 29.5t-32.5 10.5q-26 0 -42 -15.5t-19 -45.5h-126z" />
    <glyph glyph-name="uni0214" unicode="&#x214;" horiz-adv-x="708" 
d="M331 -10q-104 0 -173 36.5t-96 105t-5 163.5l85 365h206l-90 -391q-8 -39 0.5 -66.5t32 -42t58.5 -14.5q46 0 71.5 27.5t37.5 83.5l94 403h204l-93 -401q-33 -137 -111.5 -203t-220.5 -66zM396 877l29 -166h-131l-68 166h170zM609 877l29 -166h-131l-68 166h170z" />
    <glyph glyph-name="uni0215" unicode="&#x215;" horiz-adv-x="614" 
d="M167 -10q-52 0 -88 22.5t-50 64t-1 98.5l75 325h202l-67 -292q-8 -33 5.5 -49.5t40.5 -16.5q21 0 35 9.5t24.5 29t16.5 47.5l63 272h202l-116 -500h-180l28 176l8 -19q-21 -80 -73 -123.5t-125 -43.5zM306 732l41 -175h-132l-72 175h163zM516 732l41 -175h-133l-70 175
h162z" />
    <glyph glyph-name="uni0216" unicode="&#x216;" horiz-adv-x="708" 
d="M331 -10q-104 0 -173 36.5t-96 105t-5 163.5l85 365h206l-90 -391q-8 -39 0.5 -66.5t32 -42t58.5 -14.5q46 0 71.5 27.5t37.5 83.5l94 403h204l-93 -401q-33 -137 -111.5 -203t-220.5 -66zM277 703q13 78 61.5 123t138.5 45q76 0 117 -35t41 -93q0 -9 -1.5 -19.5
t-3.5 -20.5h-124q2 6 2.5 11t0.5 10q0 19 -12.5 29.5t-32.5 10.5q-26 0 -42 -15.5t-19 -45.5h-126z" />
    <glyph glyph-name="uni0217" unicode="&#x217;" horiz-adv-x="614" 
d="M167 -10q-52 0 -88 22.5t-50 64t-1 98.5l75 325h202l-67 -292q-8 -33 5.5 -49.5t40.5 -16.5q21 0 35 9.5t24.5 29t16.5 47.5l63 272h202l-116 -500h-180l28 176l8 -19q-21 -80 -73 -123.5t-125 -43.5zM188 545q13 78 61.5 123t138.5 45q76 0 117 -35t41 -93
q0 -9 -1.5 -19.5t-3.5 -20.5h-124q2 6 2.5 11t0.5 10q0 19 -12.5 29.5t-32.5 10.5q-26 0 -42 -15.5t-19 -45.5h-126z" />
    <glyph glyph-name="uni0218" unicode="&#x218;" horiz-adv-x="640" 
d="M330 -12q-69 0 -131.5 17t-115 51t-92.5 85l109 120q26 -37 64 -64t80.5 -41.5t82.5 -14.5q25 0 39.5 6.5t21.5 17.5t7 24q0 16 -13 26t-41 19l-95 32q-43 15 -79.5 39.5t-59 61.5t-22.5 87q0 72 36.5 119.5t99.5 72t142 24.5q106 0 179 -35.5t126 -96.5l-115 -116
q-23 30 -53.5 51t-65 31.5t-69.5 10.5q-23 0 -37.5 -5t-22 -14.5t-7.5 -22.5q0 -16 17 -28t46 -22l91 -31q77 -26 117 -68.5t40 -112.5t-37 -120.5t-100 -76.5t-142 -26zM370 -55l-116 -187h-132l71 187h177z" />
    <glyph glyph-name="uni0219" unicode="&#x219;" horiz-adv-x="524" 
d="M255 -10q-53 0 -105 14t-96 40t-72 64l93 94q28 -36 71 -60t84 -24q24 0 36.5 6.5t12.5 19.5q0 10 -7.5 18t-25.5 12l-50 17q-80 25 -113 60.5t-33 90.5q0 54 29 91.5t80 57t117 19.5q80 0 142.5 -26t101.5 -70l-87 -99q-15 19 -38.5 34t-51.5 24t-56 9q-22 0 -32.5 -6.5
t-10.5 -18.5q0 -11 9.5 -17.5t24.5 -10.5l92 -30q54 -16 83 -50t29 -83q0 -54 -27 -93.5t-77.5 -61t-122.5 -21.5zM312 -55l-116 -187h-132l71 187h177z" />
    <glyph glyph-name="uni021A" unicode="&#x21a;" horiz-adv-x="668" 
d="M741 660l-35 -153h-210l-117 -507h-204l117 507h-211l36 153h624zM356 -55l-116 -187h-132l71 187h177z" />
    <glyph glyph-name="uni021B" unicode="&#x21b;" horiz-adv-x="448" 
d="M263 -10q-66 0 -112.5 23t-65 68t-3.5 113l96 413l215 56l-107 -462q-10 -36 8.5 -55.5t56.5 -19.5q23 0 36 2.5t24 7.5l-20 -125q-28 -11 -60.5 -16t-67.5 -5zM32 361l32 139h421l-32 -139h-421zM314 -55l-116 -187h-132l71 187h177z" />
    <glyph glyph-name="uni022A" unicode="&#x22a;" horiz-adv-x="728" 
d="M352 -10q-85 0 -153.5 34.5t-108 99.5t-39.5 157q0 84 24.5 155.5t71 124t114 81t152.5 28.5q86 0 154 -34.5t107.5 -99.5t39.5 -157q0 -84 -24 -155t-70.5 -124t-114 -81.5t-153.5 -28.5zM357 147q39 0 67.5 23t47.5 60.5t28.5 81.5t9.5 85q0 38 -11.5 64t-34 39
t-56.5 13q-39 0 -67.5 -23t-47.5 -60.5t-28.5 -81.5t-9.5 -85q0 -37 11.5 -63.5t34.5 -39.5t56 -13zM568 705q-40 0 -64.5 16t-24.5 52q0 54 29 77t78 23q40 0 64 -16t24 -51q0 -54 -28.5 -77.5t-77.5 -23.5zM336 705q-40 0 -64.5 16t-24.5 52q0 54 29 77t78 23q40 0 64 -16
t24 -51q0 -54 -29 -77.5t-77 -23.5zM706 1035l-28 -119h-374l28 119h374z" />
    <glyph glyph-name="uni022B" unicode="&#x22b;" horiz-adv-x="602" 
d="M280 -10q-77 0 -134 29.5t-88.5 81t-31.5 117.5q0 79 34 145.5t99.5 106.5t161.5 40q78 0 135 -29.5t88.5 -80.5t31.5 -117q0 -79 -34 -146t-99.5 -107t-162.5 -40zM283 128q22 0 39.5 17t30 44t19 57t6.5 56q0 24 -7 39t-20.5 23t-32.5 8q-22 0 -39.5 -17t-30 -44
t-19.5 -57t-7 -56q0 -23 7.5 -38.5t21 -23.5t32.5 -8zM480 545q-40 0 -64.5 16t-24.5 52q0 54 29 77t78 23q40 0 64 -16t24 -51q0 -54 -28.5 -77.5t-77.5 -23.5zM248 545q-40 0 -64.5 16t-24.5 52q0 54 29 77t78 23q40 0 64 -16t24 -51q0 -54 -29 -77.5t-77 -23.5zM618 875
l-28 -119h-374l28 119h374z" />
    <glyph glyph-name="uni022C" unicode="&#x22c;" horiz-adv-x="728" 
d="M352 -10q-85 0 -153.5 34.5t-108 99.5t-39.5 157q0 84 24.5 155.5t71 124t114 81t152.5 28.5q86 0 154 -34.5t107.5 -99.5t39.5 -157q0 -84 -24 -155t-70.5 -124t-114 -81.5t-153.5 -28.5zM357 147q39 0 67.5 23t47.5 60.5t28.5 81.5t9.5 85q0 38 -11.5 64t-34 39
t-56.5 13q-39 0 -67.5 -23t-47.5 -60.5t-28.5 -81.5t-9.5 -85q0 -37 11.5 -63.5t34.5 -39.5t56 -13zM673 879q-12 -86 -54 -127.5t-94 -41.5q-27 0 -45.5 8.5t-32 19.5t-26 19.5t-26.5 8.5q-15 0 -25 -14.5t-16 -39.5h-106q14 85 53 126.5t94 41.5q22 0 40 -8.5t33 -19
t29 -19t28 -8.5q15 0 25.5 13.5t16.5 40.5h106zM708 1047l-28 -119h-374l28 119h374z" />
    <glyph glyph-name="uni022D" unicode="&#x22d;" horiz-adv-x="602" 
d="M280 -10q-77 0 -134 29.5t-88.5 81t-31.5 117.5q0 79 34 145.5t99.5 106.5t161.5 40q78 0 135 -29.5t88.5 -80.5t31.5 -117q0 -79 -34 -146t-99.5 -107t-162.5 -40zM283 128q22 0 39.5 17t30 44t19 57t6.5 56q0 24 -7 39t-20.5 23t-32.5 8q-22 0 -39.5 -17t-30 -44
t-19.5 -57t-7 -56q0 -23 7.5 -38.5t21 -23.5t32.5 -8zM585 719q-12 -86 -54 -127.5t-94 -41.5q-27 0 -45.5 8.5t-32 19.5t-26 19.5t-26.5 8.5q-15 0 -25 -14.5t-16 -39.5h-106q14 85 53 126.5t94 41.5q22 0 40 -8.5t33 -19t29 -19t28 -8.5q15 0 25.5 13.5t16.5 40.5h106z
M620 887l-28 -119h-374l28 119h374z" />
    <glyph glyph-name="uni0230" unicode="&#x230;" horiz-adv-x="728" 
d="M352 -10q-85 0 -153.5 34.5t-108 99.5t-39.5 157q0 84 24.5 155.5t71 124t114 81t152.5 28.5q86 0 154 -34.5t107.5 -99.5t39.5 -157q0 -84 -24 -155t-70.5 -124t-114 -81.5t-153.5 -28.5zM357 147q39 0 67.5 23t47.5 60.5t28.5 81.5t9.5 85q0 38 -11.5 64t-34 39
t-56.5 13q-39 0 -67.5 -23t-47.5 -60.5t-28.5 -81.5t-9.5 -85q0 -37 11.5 -63.5t34.5 -39.5t56 -13zM450 709q-43 0 -69 16.5t-26 53.5q0 56 31 80.5t83 24.5q46 0 71.5 -17t25.5 -52q0 -58 -31 -82t-85 -24zM703 1039l-28 -119h-374l28 119h374z" />
    <glyph glyph-name="uni0231" unicode="&#x231;" horiz-adv-x="602" 
d="M280 -10q-77 0 -134 29.5t-88.5 81t-31.5 117.5q0 79 34 145.5t99.5 106.5t161.5 40q78 0 135 -29.5t88.5 -80.5t31.5 -117q0 -79 -34 -146t-99.5 -107t-162.5 -40zM283 128q22 0 39.5 17t30 44t19 57t6.5 56q0 24 -7 39t-20.5 23t-32.5 8q-22 0 -39.5 -17t-30 -44
t-19.5 -57t-7 -56q0 -23 7.5 -38.5t21 -23.5t32.5 -8zM362 549q-43 0 -69 16.5t-26 53.5q0 56 31 80.5t83 24.5q46 0 71.5 -17t25.5 -52q0 -58 -31 -82t-85 -24zM615 879l-28 -119h-374l28 119h374z" />
    <glyph glyph-name="uni0232" unicode="&#x232;" horiz-adv-x="685" 
d="M182 0l56 241l-133 419h194l47 -166l25 -113l70 115l113 164h216l-331 -433l-52 -227h-205zM648 834l-28 -119h-374l28 119h374z" />
    <glyph glyph-name="uni0233" unicode="&#x233;" horiz-adv-x="577" 
d="M56 -215q-45 0 -84 10t-61 25l52 138q35 -29 89 -29q26 0 46.5 9t32.5 28l11 18l-88 516h205l4 -263l-1 -121l51 120l117 264h212l-301 -522q-40 -70 -81.5 -112.5t-90.5 -61.5t-113 -19zM595 676l-28 -119h-374l28 119h374z" />
    <glyph glyph-name="uni0237" unicode="&#x237;" horiz-adv-x="299" 
d="M-23 -215q-40 0 -79 7.5t-66 26.5l42 123q11 -7 24 -11.5t26 -4.5q30 0 43 15.5t22 55.5l117 503h202l-121 -525q-24 -100 -73.5 -145t-136.5 -45z" />
    <glyph glyph-name="uni0241" unicode="&#x241;" horiz-adv-x="626" 
d="M386 670q77 0 137 -25t94.5 -74t34.5 -118q0 -73 -30.5 -130t-87.5 -92t-137 -44l-44 -187h-196l69 292q73 8 119 28.5t67 52.5t21 72q0 21 -7.5 35.5t-22.5 22t-36 7.5q-41 0 -70 -27.5t-48 -85.5l-183 62q29 103 111.5 157t208.5 54z" />
    <glyph glyph-name="uni0242" unicode="&#x242;" horiz-adv-x="579" 
d="M122 0l50 212q55 1 99.5 9t70 28t25.5 55q0 25 -16.5 37.5t-45.5 12.5q-34 0 -55.5 -20.5t-33.5 -61.5l-188 66q15 47 51 86t97.5 63t152.5 24q76 0 132.5 -21.5t88 -61.5t31.5 -95q0 -63 -26 -106.5t-76.5 -69t-124.5 -33.5l-29 -124h-203z" />
    <glyph glyph-name="uni0259" unicode="&#x259;" horiz-adv-x="584" 
d="M273 -10q-78 0 -133.5 28.5t-84.5 76t-29 103.5q0 20 2.5 41t8.5 43h386l1 -80h-251l51 27q-4 -12 -5 -22t-1 -19q0 -20 7.5 -34t21 -21t32.5 -7q28 0 46.5 16t29 41.5t15 55t4.5 55.5q0 27 -9 45t-25.5 26.5t-38.5 8.5q-32 0 -52.5 -18.5t-28.5 -39.5l-170 52
q32 61 97.5 101t163.5 40q73 0 129 -28t87 -79t31 -120q0 -87 -36 -152.5t-100 -102.5t-149 -37z" />
    <glyph glyph-name="uni02B9" unicode="&#x2b9;" horiz-adv-x="581" 
d="M377 674l-155 -288h-138l121 288h172z" />
    <glyph glyph-name="uni02BA" unicode="&#x2ba;" horiz-adv-x="487" 
d="M574 674l-155 -288h-138l121 288h172zM352 674l-155 -288h-138l121 288h172z" />
    <glyph glyph-name="uni02BB" unicode="&#x2bb;" horiz-adv-x="578" 
d="M242 770l-84 -216h-165l121 216h128z" />
    <glyph glyph-name="uni02BC" unicode="&#x2bc;" horiz-adv-x="600" 
d="M230 686q60 0 85.5 -30.5t25.5 -76.5q0 -54 -28 -104t-78.5 -88t-118.5 -54l-45 72q37 9 68.5 24t54 33.5t34.5 36.5l-2 3q-7 -3 -13.5 -4.5t-17.5 -1.5q-31 0 -55.5 24t-24.5 60q0 49 32 77.5t83 28.5z" />
    <glyph glyph-name="uni02BE" unicode="&#x2be;" horiz-adv-x="393" 
d="M232 706q45 0 75.5 -19t46.5 -48.5t16 -62.5q0 -70 -47 -112t-121 -42h-59l20 86h50q29 0 45.5 16t16.5 44q0 25 -17 38t-40 13h-30l19 87h25z" />
    <glyph glyph-name="uni02BF" unicode="&#x2bf;" horiz-adv-x="393" 
d="M306 422q-44 0 -75.5 18.5t-47 48.5t-15.5 63q0 70 47 112t120 42h60l-21 -87h-49q-30 0 -46.5 -16t-16.5 -43q0 -25 17 -38.5t40 -13.5h31l-20 -86h-24z" />
    <glyph glyph-name="circumflex" unicode="&#x2c6;" horiz-adv-x="519" 
d="M127 552l148 176h191l67 -176h-135l-45 79l-80 -79h-146z" />
    <glyph glyph-name="caron" unicode="&#x2c7;" horiz-adv-x="500" 
d="M225 559l-67 175h131l46 -82l83 82h146l-148 -175h-191z" />
    <glyph glyph-name="uni02C8" unicode="&#x2c8;" horiz-adv-x="262" 
d="M170 706h132l-62 -268h-132z" />
    <glyph glyph-name="uni02C9" unicode="&#x2c9;" horiz-adv-x="500" 
d="M536 678l-28 -119h-374l28 119h374z" />
    <glyph glyph-name="uni02CA" unicode="&#x2ca;" horiz-adv-x="577" 
d="M329 734h188l-148 -175h-145z" />
    <glyph glyph-name="uni02CB" unicode="&#x2cb;" horiz-adv-x="580" 
d="M446 734l24 -175h-136l-71 175h183z" />
    <glyph glyph-name="uni02CC" unicode="&#x2cc;" horiz-adv-x="262" 
d="M21 60h132l-62 -268h-132z" />
    <glyph glyph-name="breve" unicode="&#x2d8;" horiz-adv-x="500" 
d="M534 715q-13 -77 -67.5 -122.5t-137.5 -45.5q-73 0 -112.5 34.5t-39.5 92.5q0 10 1 20.5t3 20.5h125q-1 -5 -2 -10.5t-1 -10.5q0 -18 12 -29t33 -11q24 0 40 16t21 45h125z" />
    <glyph glyph-name="dotaccent" unicode="&#x2d9;" horiz-adv-x="500" 
d="M329 549q-43 0 -69 16.5t-26 53.5q0 56 31 80.5t83 24.5q46 0 71.5 -17t25.5 -52q0 -58 -31 -82t-85 -24z" />
    <glyph glyph-name="ring" unicode="&#x2da;" horiz-adv-x="500" 
d="M353 799q64 0 101.5 -32t37.5 -83q0 -62 -42 -101.5t-108 -39.5q-64 0 -101.5 31.5t-37.5 82.5q0 62 42 102t108 40zM350 717q-20 0 -35 -13.5t-15 -38.5q0 -18 12.5 -29.5t32.5 -11.5t34.5 14t14.5 38q0 19 -11.5 30t-32.5 11z" />
    <glyph glyph-name="ogonek" unicode="&#x2db;" horiz-adv-x="541" 
d="M216 -219q-38 0 -71 12.5t-53 37.5t-20 65q0 45 24.5 74t67.5 45.5t98 20.5l66 -25q-32 -12 -59 -23t-43.5 -25t-16.5 -36q0 -21 16 -30t36 -9q9 0 17 2t14 4l-6 -99q-17 -7 -35.5 -10.5t-34.5 -3.5z" />
    <glyph glyph-name="tilde" unicode="&#x2dc;" horiz-adv-x="500" 
d="M551 719q-12 -86 -54 -127.5t-94 -41.5q-27 0 -45.5 8.5t-32 19.5t-26 19.5t-26.5 8.5q-15 0 -25 -14.5t-16 -39.5h-106q14 85 53 126.5t94 41.5q22 0 40 -8.5t33 -19t29 -19t28 -8.5q15 0 25.5 13.5t16.5 40.5h106z" />
    <glyph glyph-name="hungarumlaut" unicode="&#x2dd;" horiz-adv-x="500" 
d="M311 559l114 175h170l-148 -175h-136zM87 559l114 175h170l-148 -175h-136z" />
    <glyph glyph-name="gravecomb" unicode="&#x300;" horiz-adv-x="0" 
d="M115 734l24 -175h-136l-71 175h183z" />
    <glyph glyph-name="acutecomb" unicode="&#x301;" horiz-adv-x="0" 
d="M83 734h188l-148 -175h-145z" />
    <glyph glyph-name="uni0302" unicode="&#x302;" horiz-adv-x="0" 
d="M-138 552l148 176h191l67 -176h-135l-45 79l-80 -79h-146z" />
    <glyph glyph-name="tildecomb" unicode="&#x303;" horiz-adv-x="0" 
d="M294 719q-12 -86 -54 -127.5t-94 -41.5q-27 0 -45.5 8.5t-32 19.5t-26 19.5t-26.5 8.5q-15 0 -25 -14.5t-16 -39.5h-106q14 85 53 126.5t94 41.5q22 0 40 -8.5t33 -19t29 -19t28 -8.5q15 0 25.5 13.5t16.5 40.5h106z" />
    <glyph glyph-name="uni0304" unicode="&#x304;" horiz-adv-x="0" 
d="M287 678l-28 -119h-374l28 119h374z" />
    <glyph glyph-name="uni0306" unicode="&#x306;" horiz-adv-x="0" 
d="M276 715q-13 -77 -67.5 -122.5t-137.5 -45.5q-73 0 -112.5 34.5t-39.5 92.5q0 10 1 20.5t3 20.5h125q-1 -5 -2 -10.5t-1 -10.5q0 -18 12 -29t33 -11q24 0 40 16t21 45h125z" />
    <glyph glyph-name="uni0307" unicode="&#x307;" horiz-adv-x="0" 
d="M71 549q-43 0 -69 16.5t-26 53.5q0 56 31 80.5t83 24.5q46 0 71.5 -17t25.5 -52q0 -58 -31 -82t-85 -24z" />
    <glyph glyph-name="uni0308" unicode="&#x308;" horiz-adv-x="0" 
d="M189 545q-40 0 -64.5 16t-24.5 52q0 54 29 77t78 23q40 0 64 -16t24 -51q0 -54 -28.5 -77.5t-77.5 -23.5zM-43 545q-40 0 -64.5 16t-24.5 52q0 54 29 77t78 23q40 0 64 -16t24 -51q0 -54 -29 -77.5t-77 -23.5z" />
    <glyph glyph-name="hookabovecomb" unicode="&#x309;" horiz-adv-x="0" 
d="M340 543l-22 58q38 9 50.5 24.5t12.5 28.5q0 12 -8 19t-21 7q-12 0 -21.5 -6t-17.5 -16l-71 58q16 28 49.5 47t81.5 19t82.5 -26.5t34.5 -76.5q0 -43 -20.5 -72t-54.5 -44t-75 -20z" />
    <glyph glyph-name="uni030A" unicode="&#x30a;" horiz-adv-x="0" 
d="M88 799q64 0 101.5 -32t37.5 -83q0 -62 -42 -101.5t-108 -39.5q-64 0 -101.5 31.5t-37.5 82.5q0 62 42 102t108 40zM85 717q-20 0 -35 -13.5t-15 -38.5q0 -18 12.5 -29.5t32.5 -11.5t34.5 14t14.5 38q0 19 -11.5 30t-32.5 11z" />
    <glyph glyph-name="uni030B" unicode="&#x30b;" horiz-adv-x="0" 
d="M107 559l114 175h170l-148 -175h-136zM-117 559l114 175h170l-148 -175h-136z" />
    <glyph glyph-name="uni030C" unicode="&#x30c;" horiz-adv-x="0" 
d="M-43 559l-67 175h131l46 -82l83 82h146l-148 -175h-191z" />
    <glyph glyph-name="uni030F" unicode="&#x30f;" horiz-adv-x="0" 
d="M6 734l41 -175h-132l-72 175h163zM216 734l41 -175h-133l-70 175h162z" />
    <glyph glyph-name="uni0311" unicode="&#x311;" horiz-adv-x="0" 
d="M-112 547q13 78 61.5 123t138.5 45q76 0 117 -35t41 -93q0 -9 -1.5 -19.5t-3.5 -20.5h-124q2 6 2.5 11t0.5 10q0 19 -12.5 29.5t-32.5 10.5q-26 0 -42 -15.5t-19 -45.5h-126z" />
    <glyph glyph-name="uni0312" unicode="&#x312;" horiz-adv-x="0" 
d="M502 770l-84 -216h-165l121 216h128z" />
    <glyph glyph-name="uni031B" unicode="&#x31b;" horiz-adv-x="0" 
d="M359 408l-27 92q25 0 44 23.5t30 83.5h132q-11 -76 -37.5 -119t-62.5 -61t-79 -19z" />
    <glyph glyph-name="dotbelowcomb" unicode="&#x323;" horiz-adv-x="0" 
d="M-97 -224q-43 0 -69 16.5t-26 53.5q0 56 31 80.5t83 24.5q46 0 71.5 -17t25.5 -52q0 -58 -31 -82t-85 -24z" />
    <glyph glyph-name="uni0324" unicode="&#x324;" horiz-adv-x="0" 
d="M14 -217q-40 0 -64.5 16t-24.5 52q0 54 29 77t78 23q40 0 64 -16t24 -51q0 -54 -28.5 -77.5t-77.5 -23.5zM-218 -217q-40 0 -64.5 16t-24.5 52q0 54 29 77t78 23q40 0 64 -16t24 -51q0 -54 -29 -77.5t-77 -23.5z" />
    <glyph glyph-name="uni0326" unicode="&#x326;" horiz-adv-x="0" 
d="M35 -55l-116 -187h-132l71 187h177z" />
    <glyph glyph-name="uni0327" unicode="&#x327;" horiz-adv-x="0" 
d="M-124 6l46 23q59 -8 91.5 -37t32.5 -75q0 -41 -19 -71.5t-51.5 -46.5t-75.5 -16q-39 0 -68.5 10.5t-50.5 29.5l49 82q11 -10 28.5 -15t30.5 -5q24 0 40 16.5t16 37.5t-17 38t-52 29z" />
    <glyph glyph-name="uni0328" unicode="&#x328;" horiz-adv-x="0" 
d="M-171 -219q-38 0 -71 12.5t-53 37.5t-20 65q0 45 24.5 74t67.5 45.5t98 20.5l66 -25q-32 -12 -59 -23t-43.5 -25t-16.5 -36q0 -21 16 -30t36 -9q9 0 17 2t14 4l-6 -99q-17 -7 -35.5 -10.5t-34.5 -3.5z" />
    <glyph glyph-name="uni032E" unicode="&#x32e;" horiz-adv-x="0" 
d="M108 -47q-13 -77 -67.5 -122.5t-137.5 -45.5q-73 0 -112.5 34.5t-39.5 92.5q0 10 1 20.5t3 20.5h125q-1 -5 -2 -10.5t-1 -10.5q0 -18 12 -29t33 -11q24 0 40 16t21 45h125z" />
    <glyph glyph-name="uni0331" unicode="&#x331;" horiz-adv-x="0" 
d="M116 -59l-28 -119h-374l28 119h374z" />
    <glyph glyph-name="uni0335" unicode="&#x335;" horiz-adv-x="0" 
d="M279 385l-25 -109h-495l25 109h495z" />
    <glyph glyph-name="uni0338" unicode="&#x338;" horiz-adv-x="0" 
d="M-16 -22l557 543h75l-556 -543h-76z" />
    <glyph glyph-name="uni03A9" unicode="&#x3a9;" horiz-adv-x="763" 
d="M5 0l34 149h216l-25 -24q-55 19 -88.5 53.5t-49 79t-15.5 90.5q0 72 26.5 131.5t73.5 102t112 65t142 22.5q84 0 154 -29t111.5 -85t41.5 -137q0 -78 -34.5 -140.5t-94 -100t-139.5 -43.5l-9 15h231l-34 -149h-293l34 150q30 2 54 26.5t41 62.5t25.5 81t8.5 80
q0 36 -12.5 62.5t-36.5 40.5t-56 14q-43 0 -73.5 -21.5t-50 -57.5t-28.5 -81t-9 -92q0 -26 7 -50t22.5 -41.5t40.5 -22.5l-34 -151h-293z" />
    <glyph glyph-name="uni03BC" unicode="&#x3bc;" horiz-adv-x="617" 
d="M-58 -210l164 710h202l-68 -292q-7 -30 4.5 -48t41.5 -18q21 0 35.5 9.5t24.5 29t16 47.5l63 272h202l-116 -500h-180l17 105q-27 -54 -71 -84t-103 -30q-24 0 -50 6t-51 19l142 73l-71 -299h-202z" />
    <glyph glyph-name="pi" unicode="&#x3c0;" horiz-adv-x="805" 
d="M77 0l85 364h-118l31 136h759l-31 -136h-122l-39 -165q-5 -24 -2 -41t21 -24.5t57 -5.5l-46 -132q-102 -12 -159.5 6t-75 61.5t-2.5 111.5l44 189h-115l-85 -364h-202z" />
    <glyph glyph-name="uni1E08" unicode="&#x1e08;" horiz-adv-x="694" 
d="M354 -10q-88 0 -156.5 35t-108 99t-39.5 151q0 88 25 160.5t72 125t115 81t154 28.5q79 0 139.5 -26.5t99 -77t49.5 -122.5l-195 -40q-1 55 -24 82.5t-72 27.5q-41 0 -71 -24t-50 -61t-29 -80t-9 -82q0 -37 13 -64t37.5 -42t61.5 -15q46 0 72 26.5t44 68.5l181 -68
q-43 -86 -118.5 -134.5t-190.5 -48.5zM247 6l46 23q59 -8 91.5 -37t32.5 -75q0 -41 -19 -71.5t-51.5 -46.5t-75.5 -16q-39 0 -68.5 10.5t-50.5 29.5l49 82q11 -10 28.5 -15t30.5 -5q24 0 40 16.5t16 37.5t-17 38t-52 29zM466 881h180l-128 -166h-149z" />
    <glyph glyph-name="uni1E09" unicode="&#x1e09;" horiz-adv-x="571" 
d="M289 -10q-82 0 -141 29t-90.5 80.5t-31.5 118.5q0 79 34 145.5t100 106.5t162 40q74 0 128.5 -24t85 -67t29.5 -102l-191 -28q5 37 -6.5 59t-45.5 22q-25 0 -43 -17t-30.5 -43t-19 -56t-6.5 -56q0 -23 8 -39t22.5 -23.5t33.5 -7.5q24 0 43 17.5t27 46.5l178 -57
q-29 -67 -92.5 -106t-153.5 -39zM200 8l46 23q59 -8 91.5 -37t32.5 -75q0 -41 -19 -71.5t-51.5 -46.5t-75.5 -16q-39 0 -68.5 10.5t-50.5 29.5l49 82q11 -10 28.5 -15t30.5 -5q24 0 40 16.5t16 37.5t-17 38t-52 29zM374 734h188l-148 -175h-145z" />
    <glyph glyph-name="uni1E0C" unicode="&#x1e0c;" horiz-adv-x="708" 
d="M2 0l153 660h248q97 0 162 -34t98 -94.5t33 -141.5q0 -88 -24.5 -160t-72.5 -123t-116 -79t-156 -28h-325zM242 149h74q45 0 78.5 21.5t54.5 57t31.5 79t10.5 86.5q0 37 -12 63.5t-36 40.5t-62 14h-56zM237 -224q-43 0 -69 16.5t-26 53.5q0 56 31 80.5t83 24.5
q46 0 71.5 -17t25.5 -52q0 -58 -31 -82t-85 -24z" />
    <glyph glyph-name="uni1E0D" unicode="&#x1e0d;" horiz-adv-x="618" 
d="M188 -10q-46 0 -84 22t-60 65t-22 107q0 60 17 118t48.5 105t76.5 75t103 28q29 0 57.5 -11t50 -35t28.5 -66l71 308h202l-163 -706h-184l17 95q-25 -49 -66 -77t-92 -28zM282 135q21 0 38.5 15t29.5 39.5t18.5 52.5t6.5 53q0 22 -7 37.5t-19.5 24t-30.5 8.5
q-24 0 -42 -16t-30 -40t-18 -51t-6 -48q0 -23 6.5 -40t19.5 -26t34 -9zM221 -224q-43 0 -69 16.5t-26 53.5q0 56 31 80.5t83 24.5q46 0 71.5 -17t25.5 -52q0 -58 -31 -82t-85 -24z" />
    <glyph glyph-name="uni1E0E" unicode="&#x1e0e;" horiz-adv-x="708" 
d="M2 0l153 660h248q97 0 162 -34t98 -94.5t33 -141.5q0 -88 -24.5 -160t-72.5 -123t-116 -79t-156 -28h-325zM242 149h74q45 0 78.5 21.5t54.5 57t31.5 79t10.5 86.5q0 37 -12 63.5t-36 40.5t-62 14h-56zM450 -59l-28 -119h-374l28 119h374z" />
    <glyph glyph-name="uni1E0F" unicode="&#x1e0f;" horiz-adv-x="618" 
d="M188 -10q-46 0 -84 22t-60 65t-22 107q0 60 17 118t48.5 105t76.5 75t103 28q29 0 57.5 -11t50 -35t28.5 -66l71 308h202l-163 -706h-184l17 95q-25 -49 -66 -77t-92 -28zM282 135q21 0 38.5 15t29.5 39.5t18.5 52.5t6.5 53q0 22 -7 37.5t-19.5 24t-30.5 8.5
q-24 0 -42 -16t-30 -40t-18 -51t-6 -48q0 -23 6.5 -40t19.5 -26t34 -9zM434 -59l-28 -119h-374l28 119h374z" />
    <glyph glyph-name="uni1E14" unicode="&#x1e14;" horiz-adv-x="626" 
d="M2 0l153 660h535l-35 -153h-331l-25 -107h261l-32 -142h-261l-24 -105h338l-36 -153h-543zM648 838l-28 -119h-374l28 119h374zM511 1057l29 -166h-131l-68 166h170z" />
    <glyph glyph-name="uni1E15" unicode="&#x1e15;" horiz-adv-x="585" 
d="M284 -9q-75 0 -133.5 27.5t-91 79t-32.5 120.5q0 87 35.5 152.5t100.5 102.5t153 37q78 0 132 -28t82.5 -78t28.5 -117q0 -20 -2 -40.5t-8 -40.5h-387l-1 88h252l-52 -23q5 13 5.5 22.5t0.5 18.5q0 22 -7 35.5t-19.5 20t-28.5 6.5q-30 0 -50 -16t-31 -41.5t-15 -55
t-4 -55.5q0 -27 10 -45t28 -26.5t41 -8.5q30 0 48 15t27 36l168 -58q-16 -41 -53 -69.5t-87.5 -43.5t-109.5 -15zM564 678l-28 -119h-374l28 119h374zM427 897l29 -166h-131l-68 166h170z" />
    <glyph glyph-name="uni1E16" unicode="&#x1e16;" horiz-adv-x="626" 
d="M2 0l153 660h535l-35 -153h-331l-25 -107h261l-32 -142h-261l-24 -105h338l-36 -153h-543zM648 838l-28 -119h-374l28 119h374zM489 1057h180l-128 -166h-149z" />
    <glyph glyph-name="uni1E17" unicode="&#x1e17;" horiz-adv-x="585" 
d="M284 -9q-75 0 -133.5 27.5t-91 79t-32.5 120.5q0 87 35.5 152.5t100.5 102.5t153 37q78 0 132 -28t82.5 -78t28.5 -117q0 -20 -2 -40.5t-8 -40.5h-387l-1 88h252l-52 -23q5 13 5.5 22.5t0.5 18.5q0 22 -7 35.5t-19.5 20t-28.5 6.5q-30 0 -50 -16t-31 -41.5t-15 -55
t-4 -55.5q0 -27 10 -45t28 -26.5t41 -8.5q30 0 48 15t27 36l168 -58q-16 -41 -53 -69.5t-87.5 -43.5t-109.5 -15zM564 678l-28 -119h-374l28 119h374zM405 897h180l-128 -166h-149z" />
    <glyph glyph-name="uni1E1C" unicode="&#x1e1c;" horiz-adv-x="626" 
d="M2 0l153 660h535l-35 -153h-331l-25 -107h261l-32 -142h-261l-24 -105h338l-36 -153h-543zM221 6l46 23q59 -8 91.5 -37t32.5 -75q0 -41 -19 -71.5t-51.5 -46.5t-75.5 -16q-39 0 -68.5 10.5t-50.5 29.5l49 82q11 -10 28.5 -15t30.5 -5q24 0 40 16.5t16 37.5t-17 38
t-52 29zM634 875q-13 -77 -67.5 -122.5t-137.5 -45.5q-73 0 -112.5 34.5t-39.5 92.5q0 10 1 20.5t3 20.5h125q-1 -5 -2 -10.5t-1 -10.5q0 -18 12 -29t33 -11q24 0 40 16t21 45h125z" />
    <glyph glyph-name="uni1E1D" unicode="&#x1e1d;" horiz-adv-x="585" 
d="M284 -9q-75 0 -133.5 27.5t-91 79t-32.5 120.5q0 87 35.5 152.5t100.5 102.5t153 37q78 0 132 -28t82.5 -78t28.5 -117q0 -20 -2 -40.5t-8 -40.5h-387l-1 88h252l-52 -23q5 13 5.5 22.5t0.5 18.5q0 22 -7 35.5t-19.5 20t-28.5 6.5q-30 0 -50 -16t-31 -41.5t-15 -55
t-4 -55.5q0 -27 10 -45t28 -26.5t41 -8.5q30 0 48 15t27 36l168 -58q-16 -41 -53 -69.5t-87.5 -43.5t-109.5 -15zM212 6l46 23q59 -8 91.5 -37t32.5 -75q0 -41 -19 -71.5t-51.5 -46.5t-75.5 -16q-39 0 -68.5 10.5t-50.5 29.5l49 82q11 -10 28.5 -15t30.5 -5q24 0 40 16.5
t16 37.5t-17 38t-52 29zM551 715q-13 -77 -67.5 -122.5t-137.5 -45.5q-73 0 -112.5 34.5t-39.5 92.5q0 10 1 20.5t3 20.5h125q-1 -5 -2 -10.5t-1 -10.5q0 -18 12 -29t33 -11q24 0 40 16t21 45h125z" />
    <glyph glyph-name="uni1E20" unicode="&#x1e20;" horiz-adv-x="718" 
d="M315 -10q-75 0 -135 35t-95 99t-35 153q0 82 24.5 152.5t71.5 125t116 85t158 30.5q78 0 138.5 -25.5t99 -74t47.5 -117.5l-191 -31q-4 42 -27.5 67t-70.5 25q-35 0 -64.5 -17t-51.5 -47t-34 -70t-12 -88q0 -46 13.5 -80t42 -53t73.5 -19q31 0 54 9.5t38.5 26t23.5 37.5
l8 20h-141l29 128h301l-92 -361h-132l36 164l17 -19q-17 -50 -45 -84.5t-68.5 -52.5t-96.5 -18zM667 838l-28 -119h-374l28 119h374z" />
    <glyph glyph-name="uni1E21" unicode="&#x1e21;" horiz-adv-x="613" 
d="M209 -215q-46 0 -88.5 11t-76.5 34.5t-52.5 59.5t-17.5 85l202 15q-1 -37 10 -59t48 -22q20 0 35.5 10.5t27.5 32t20 58.5l41 177l7 -5q-15 -82 -59 -125.5t-113 -43.5q-47 0 -84.5 22t-59.5 64.5t-22 104.5q0 58 16.5 113t48 98.5t76 69t100.5 25.5q35 0 67 -16
t52.5 -51.5t18.5 -92.5l-21 -31l41 181h202l-108 -467q-21 -94 -62 -148t-102.5 -77t-146.5 -23zM287 156q28 0 47.5 21.5t30 53.5t10.5 65q0 21 -7 36.5t-20 24t-31 8.5q-31 0 -51 -22.5t-30 -54t-10 -58.5q0 -33 14.5 -53.5t46.5 -20.5zM555 678l-28 -119h-374l28 119h374
z" />
    <glyph glyph-name="uni1E24" unicode="&#x1e24;" horiz-adv-x="742" 
d="M777 660l-153 -660h-205l153 660h205zM360 660l-153 -660h-205l153 660h205zM626 409l-36 -153h-430l36 153h430zM276 -224q-43 0 -69 16.5t-26 53.5q0 56 31 80.5t83 24.5q46 0 71.5 -17t25.5 -52q0 -58 -31 -82t-85 -24z" />
    <glyph glyph-name="uni1E25" unicode="&#x1e25;" horiz-adv-x="615" 
d="M-10 0l163 706h202l-75 -326l-17 -28q12 42 37 77.5t64.5 58t93.5 22.5q47 0 81 -22.5t47.5 -63t1.5 -95.5l-77 -329h-202l69 292q7 31 -5 49t-40 18q-20 0 -35.5 -10t-26 -29t-17.5 -48l-62 -272h-202zM211 -224q-43 0 -69 16.5t-26 53.5q0 56 31 80.5t83 24.5
q46 0 71.5 -17t25.5 -52q0 -58 -31 -82t-85 -24z" />
    <glyph glyph-name="uni1E2A" unicode="&#x1e2a;" horiz-adv-x="742" 
d="M777 660l-153 -660h-205l153 660h205zM360 660l-153 -660h-205l153 660h205zM626 409l-36 -153h-430l36 153h430zM480 -47q-13 -77 -67.5 -122.5t-137.5 -45.5q-73 0 -112.5 34.5t-39.5 92.5q0 10 1 20.5t3 20.5h125q-1 -5 -2 -10.5t-1 -10.5q0 -18 12 -29t33 -11
q24 0 40 16t21 45h125z" />
    <glyph glyph-name="uni1E2B" unicode="&#x1e2b;" horiz-adv-x="615" 
d="M-10 0l163 706h202l-75 -326l-17 -28q12 42 37 77.5t64.5 58t93.5 22.5q47 0 81 -22.5t47.5 -63t1.5 -95.5l-77 -329h-202l69 292q7 31 -5 49t-40 18q-20 0 -35.5 -10t-26 -29t-17.5 -48l-62 -272h-202zM415 -47q-13 -77 -67.5 -122.5t-137.5 -45.5q-73 0 -112.5 34.5
t-39.5 92.5q0 10 1 20.5t3 20.5h125q-1 -5 -2 -10.5t-1 -10.5q0 -18 12 -29t33 -11q24 0 40 16t21 45h125z" />
    <glyph glyph-name="uni1E2E" unicode="&#x1e2e;" horiz-adv-x="325" 
d="M360 660l-153 -660h-205l153 660h205zM388 705q-40 0 -64.5 16t-24.5 52q0 54 29 77t78 23q40 0 64 -16t24 -51q0 -54 -28.5 -77.5t-77.5 -23.5zM156 705q-40 0 -64.5 16t-24.5 52q0 54 29 77t78 23q40 0 64 -16t24 -51q0 -54 -29 -77.5t-77 -23.5zM327 1078h180
l-128 -166h-149z" />
    <glyph glyph-name="uni1E2F" unicode="&#x1e2f;" horiz-adv-x="299" 
d="M308 500l-116 -500h-202l116 500h202zM338 545q-40 0 -64.5 16t-24.5 52q0 54 29 77t78 23q40 0 64 -16t24 -51q0 -54 -28.5 -77.5t-77.5 -23.5zM106 545q-40 0 -64.5 16t-24.5 52q0 54 29 77t78 23q40 0 64 -16t24 -51q0 -54 -29 -77.5t-77 -23.5zM277 918h180
l-128 -166h-149z" />
    <glyph glyph-name="uni1E36" unicode="&#x1e36;" horiz-adv-x="610" 
d="M242 153h321l-36 -153h-525l153 660h205zM236 -224q-43 0 -69 16.5t-26 53.5q0 56 31 80.5t83 24.5q46 0 71.5 -17t25.5 -52q0 -58 -31 -82t-85 -24z" />
    <glyph glyph-name="uni1E37" unicode="&#x1e37;" horiz-adv-x="337" 
d="M187 -9q-97 0 -137 52t-19 141l121 522h202l-120 -518q-7 -31 3 -46.5t40 -15.5q11 0 19 1t13 2l-34 -126q-16 -7 -37 -9.5t-51 -2.5zM96 -224q-43 0 -69 16.5t-26 53.5q0 56 31 80.5t83 24.5q46 0 71.5 -17t25.5 -52q0 -58 -31 -82t-85 -24z" />
    <glyph glyph-name="uni1E3A" unicode="&#x1e3a;" horiz-adv-x="610" 
d="M242 153h321l-36 -153h-525l153 660h205zM449 -59l-28 -119h-374l28 119h374z" />
    <glyph glyph-name="uni1E3B" unicode="&#x1e3b;" horiz-adv-x="337" 
d="M-44 -178l27 119h286l-26 -119h-287zM187 -9q-97 0 -137 52t-19 141l121 522h202l-120 -518q-7 -31 3 -46.5t40 -15.5q11 0 19 1t13 2l-34 -126q-16 -7 -37 -9.5t-51 -2.5z" />
    <glyph glyph-name="uni1E42" unicode="&#x1e42;" horiz-adv-x="927" 
d="M2 0l153 660h254l26 -288l6 -166h1l81 166l151 288h288l-153 -660h-179l61 264l47 201h-1l-253 -465h-155l-48 460h-2l-36 -196l-61 -264h-180zM369 -224q-43 0 -69 16.5t-26 53.5q0 56 31 80.5t83 24.5q46 0 71.5 -17t25.5 -52q0 -58 -31 -82t-85 -24z" />
    <glyph glyph-name="uni1E43" unicode="&#x1e43;" horiz-adv-x="932" 
d="M-10 0l116 500h179l-28 -176l-8 17q21 81 73.5 125t126.5 44q52 0 87 -23t48.5 -65t-0.5 -101l-75 -321h-202l69 292q7 31 -5 49t-38 18q-20 0 -35.5 -10t-26 -29t-17.5 -48l-62 -272h-202zM626 0l68 292q7 31 -4.5 49t-37.5 18q-20 0 -35.5 -10t-26.5 -29t-17 -48
l-10 64q22 84 75 129t126 45q53 0 89 -23t49.5 -65t0.5 -101l-75 -321h-202zM370 -224q-43 0 -69 16.5t-26 53.5q0 56 31 80.5t83 24.5q46 0 71.5 -17t25.5 -52q0 -58 -31 -82t-85 -24z" />
    <glyph glyph-name="uni1E44" unicode="&#x1e44;" horiz-adv-x="741" 
d="M2 0l153 660h215l103 -335l27 -100h2l29 149l66 286h179l-153 -660h-212l-107 327l-28 100h-2l-27 -141l-66 -286h-179zM477 709q-43 0 -69 16.5t-26 53.5q0 56 31 80.5t83 24.5q46 0 71.5 -17t25.5 -52q0 -58 -31 -82t-85 -24z" />
    <glyph glyph-name="uni1E45" unicode="&#x1e45;" horiz-adv-x="615" 
d="M-10 0l116 500h179l-28 -176l-8 17q21 81 74 125t127 44q52 0 87 -23t49 -65t0 -101l-75 -321h-202l69 292q7 31 -5 49t-40 18q-20 0 -35.5 -10t-26 -29t-17.5 -48l-62 -272h-202zM378 549q-43 0 -69 16.5t-26 53.5q0 56 31 80.5t83 24.5q46 0 71.5 -17t25.5 -52
q0 -58 -31 -82t-85 -24z" />
    <glyph glyph-name="uni1E46" unicode="&#x1e46;" horiz-adv-x="741" 
d="M2 0l153 660h215l103 -335l27 -100h2l29 149l66 286h179l-153 -660h-212l-107 327l-28 100h-2l-27 -141l-66 -286h-179zM290 -224q-43 0 -69 16.5t-26 53.5q0 56 31 80.5t83 24.5q46 0 71.5 -17t25.5 -52q0 -58 -31 -82t-85 -24z" />
    <glyph glyph-name="uni1E47" unicode="&#x1e47;" horiz-adv-x="615" 
d="M-10 0l116 500h179l-28 -176l-8 17q21 81 74 125t127 44q52 0 87 -23t49 -65t0 -101l-75 -321h-202l69 292q7 31 -5 49t-40 18q-20 0 -35.5 -10t-26 -29t-17.5 -48l-62 -272h-202zM216 -224q-43 0 -69 16.5t-26 53.5q0 56 31 80.5t83 24.5q46 0 71.5 -17t25.5 -52
q0 -58 -31 -82t-85 -24z" />
    <glyph glyph-name="uni1E48" unicode="&#x1e48;" horiz-adv-x="741" 
d="M2 0l153 660h215l103 -335l27 -100h2l29 149l66 286h179l-153 -660h-212l-107 327l-28 100h-2l-27 -141l-66 -286h-179zM503 -59l-28 -119h-374l28 119h374z" />
    <glyph glyph-name="uni1E49" unicode="&#x1e49;" horiz-adv-x="615" 
d="M-10 0l116 500h179l-28 -176l-8 17q21 81 74 125t127 44q52 0 87 -23t49 -65t0 -101l-75 -321h-202l69 292q7 31 -5 49t-40 18q-20 0 -35.5 -10t-26 -29t-17.5 -48l-62 -272h-202zM429 -59l-28 -119h-374l28 119h374z" />
    <glyph glyph-name="uni1E4C" unicode="&#x1e4c;" horiz-adv-x="728" 
d="M352 -10q-85 0 -153.5 34.5t-108 99.5t-39.5 157q0 84 24.5 155.5t71 124t114 81t152.5 28.5q86 0 154 -34.5t107.5 -99.5t39.5 -157q0 -84 -24 -155t-70.5 -124t-114 -81.5t-153.5 -28.5zM357 147q39 0 67.5 23t47.5 60.5t28.5 81.5t9.5 85q0 38 -11.5 64t-34 39
t-56.5 13q-39 0 -67.5 -23t-47.5 -60.5t-28.5 -81.5t-9.5 -85q0 -37 11.5 -63.5t34.5 -39.5t56 -13zM673 879q-12 -86 -54 -127.5t-94 -41.5q-27 0 -45.5 8.5t-32 19.5t-26 19.5t-26.5 8.5q-15 0 -25 -14.5t-16 -39.5h-106q14 85 53 126.5t94 41.5q22 0 40 -8.5t33 -19
t29 -19t28 -8.5q15 0 25.5 13.5t16.5 40.5h106zM509 1090h180l-128 -166h-149z" />
    <glyph glyph-name="uni1E4D" unicode="&#x1e4d;" horiz-adv-x="602" 
d="M280 -10q-77 0 -134 29.5t-88.5 81t-31.5 117.5q0 79 34 145.5t99.5 106.5t161.5 40q78 0 135 -29.5t88.5 -80.5t31.5 -117q0 -79 -34 -146t-99.5 -107t-162.5 -40zM283 128q22 0 39.5 17t30 44t19 57t6.5 56q0 24 -7 39t-20.5 23t-32.5 8q-22 0 -39.5 -17t-30 -44
t-19.5 -57t-7 -56q0 -23 7.5 -38.5t21 -23.5t32.5 -8zM585 719q-12 -86 -54 -127.5t-94 -41.5q-27 0 -45.5 8.5t-32 19.5t-26 19.5t-26.5 8.5q-15 0 -25 -14.5t-16 -39.5h-106q14 85 53 126.5t94 41.5q22 0 40 -8.5t33 -19t29 -19t28 -8.5q15 0 25.5 13.5t16.5 40.5h106z
M421 930h180l-128 -166h-149z" />
    <glyph glyph-name="uni1E4E" unicode="&#x1e4e;" horiz-adv-x="728" 
d="M352 -10q-85 0 -153.5 34.5t-108 99.5t-39.5 157q0 84 24.5 155.5t71 124t114 81t152.5 28.5q86 0 154 -34.5t107.5 -99.5t39.5 -157q0 -84 -24 -155t-70.5 -124t-114 -81.5t-153.5 -28.5zM357 147q39 0 67.5 23t47.5 60.5t28.5 81.5t9.5 85q0 38 -11.5 64t-34 39
t-56.5 13q-39 0 -67.5 -23t-47.5 -60.5t-28.5 -81.5t-9.5 -85q0 -37 11.5 -63.5t34.5 -39.5t56 -13zM673 879q-12 -86 -54 -127.5t-94 -41.5q-27 0 -45.5 8.5t-32 19.5t-26 19.5t-26.5 8.5q-15 0 -25 -14.5t-16 -39.5h-106q14 85 53 126.5t94 41.5q22 0 40 -8.5t33 -19
t29 -19t28 -8.5q15 0 25.5 13.5t16.5 40.5h106zM610 914q-40 0 -64.5 16t-24.5 52q0 54 29 77t78 23q40 0 64 -16t24 -51q0 -54 -28.5 -77.5t-77.5 -23.5zM378 914q-40 0 -64.5 16t-24.5 52q0 54 29 77t78 23q40 0 64 -16t24 -51q0 -54 -29 -77.5t-77 -23.5z" />
    <glyph glyph-name="uni1E4F" unicode="&#x1e4f;" horiz-adv-x="602" 
d="M280 -10q-77 0 -134 29.5t-88.5 81t-31.5 117.5q0 79 34 145.5t99.5 106.5t161.5 40q78 0 135 -29.5t88.5 -80.5t31.5 -117q0 -79 -34 -146t-99.5 -107t-162.5 -40zM283 128q22 0 39.5 17t30 44t19 57t6.5 56q0 24 -7 39t-20.5 23t-32.5 8q-22 0 -39.5 -17t-30 -44
t-19.5 -57t-7 -56q0 -23 7.5 -38.5t21 -23.5t32.5 -8zM585 719q-12 -86 -54 -127.5t-94 -41.5q-27 0 -45.5 8.5t-32 19.5t-26 19.5t-26.5 8.5q-15 0 -25 -14.5t-16 -39.5h-106q14 85 53 126.5t94 41.5q22 0 40 -8.5t33 -19t29 -19t28 -8.5q15 0 25.5 13.5t16.5 40.5h106z
M522 754q-40 0 -64.5 16t-24.5 52q0 54 29 77t78 23q40 0 64 -16t24 -51q0 -54 -28.5 -77.5t-77.5 -23.5zM290 754q-40 0 -64.5 16t-24.5 52q0 54 29 77t78 23q40 0 64 -16t24 -51q0 -54 -29 -77.5t-77 -23.5z" />
    <glyph glyph-name="uni1E50" unicode="&#x1e50;" horiz-adv-x="728" 
d="M352 -10q-85 0 -153.5 34.5t-108 99.5t-39.5 157q0 84 24.5 155.5t71 124t114 81t152.5 28.5q86 0 154 -34.5t107.5 -99.5t39.5 -157q0 -84 -24 -155t-70.5 -124t-114 -81.5t-153.5 -28.5zM357 147q39 0 67.5 23t47.5 60.5t28.5 81.5t9.5 85q0 38 -11.5 64t-34 39
t-56.5 13q-39 0 -67.5 -23t-47.5 -60.5t-28.5 -81.5t-9.5 -85q0 -37 11.5 -63.5t34.5 -39.5t56 -13zM666 838l-28 -119h-374l28 119h374zM529 1057l29 -166h-131l-68 166h170z" />
    <glyph glyph-name="uni1E51" unicode="&#x1e51;" horiz-adv-x="602" 
d="M280 -10q-77 0 -134 29.5t-88.5 81t-31.5 117.5q0 79 34 145.5t99.5 106.5t161.5 40q78 0 135 -29.5t88.5 -80.5t31.5 -117q0 -79 -34 -146t-99.5 -107t-162.5 -40zM283 128q22 0 39.5 17t30 44t19 57t6.5 56q0 24 -7 39t-20.5 23t-32.5 8q-22 0 -39.5 -17t-30 -44
t-19.5 -57t-7 -56q0 -23 7.5 -38.5t21 -23.5t32.5 -8zM578 678l-28 -119h-374l28 119h374zM441 897l29 -166h-131l-68 166h170z" />
    <glyph glyph-name="uni1E52" unicode="&#x1e52;" horiz-adv-x="728" 
d="M352 -10q-85 0 -153.5 34.5t-108 99.5t-39.5 157q0 84 24.5 155.5t71 124t114 81t152.5 28.5q86 0 154 -34.5t107.5 -99.5t39.5 -157q0 -84 -24 -155t-70.5 -124t-114 -81.5t-153.5 -28.5zM357 147q39 0 67.5 23t47.5 60.5t28.5 81.5t9.5 85q0 38 -11.5 64t-34 39
t-56.5 13q-39 0 -67.5 -23t-47.5 -60.5t-28.5 -81.5t-9.5 -85q0 -37 11.5 -63.5t34.5 -39.5t56 -13zM666 838l-28 -119h-374l28 119h374zM507 1057h180l-128 -166h-149z" />
    <glyph glyph-name="uni1E53" unicode="&#x1e53;" horiz-adv-x="602" 
d="M280 -10q-77 0 -134 29.5t-88.5 81t-31.5 117.5q0 79 34 145.5t99.5 106.5t161.5 40q78 0 135 -29.5t88.5 -80.5t31.5 -117q0 -79 -34 -146t-99.5 -107t-162.5 -40zM283 128q22 0 39.5 17t30 44t19 57t6.5 56q0 24 -7 39t-20.5 23t-32.5 8q-22 0 -39.5 -17t-30 -44
t-19.5 -57t-7 -56q0 -23 7.5 -38.5t21 -23.5t32.5 -8zM578 678l-28 -119h-374l28 119h374zM419 897h180l-128 -166h-149z" />
    <glyph glyph-name="uni1E5A" unicode="&#x1e5a;" horiz-adv-x="691" 
d="M2 0l153 660h307q106 0 168 -50.5t62 -140.5q0 -77 -36 -129.5t-98.5 -80t-143.5 -28.5l-33 -10h-141l31 139h114q34 0 57.5 11t36.5 30.5t13 45.5q0 34 -23 49t-58 15h-90l-118 -511h-201zM432 0l-107 288l182 29l129 -317h-204zM276 -224q-43 0 -69 16.5t-26 53.5
q0 56 31 80.5t83 24.5q46 0 71.5 -17t25.5 -52q0 -58 -31 -82t-85 -24z" />
    <glyph glyph-name="uni1E5B" unicode="&#x1e5b;" horiz-adv-x="436" 
d="M-10 0l116 500h180l-37 -205l-6 20q16 58 41.5 102t64 68.5t91.5 24.5q17 0 28.5 -2.5t18.5 -6.5l-47 -167q-10 5 -24 8t-36 3q-29 0 -56.5 -13t-49 -40.5t-32.5 -74.5l-50 -217h-202zM53 -224q-43 0 -69 16.5t-26 53.5q0 56 31 80.5t83 24.5q46 0 71.5 -17t25.5 -52
q0 -58 -31 -82t-85 -24z" />
    <glyph glyph-name="uni1E5E" unicode="&#x1e5e;" horiz-adv-x="691" 
d="M2 0l153 660h307q106 0 168 -50.5t62 -140.5q0 -77 -36 -129.5t-98.5 -80t-143.5 -28.5l-33 -10h-141l31 139h114q34 0 57.5 11t36.5 30.5t13 45.5q0 34 -23 49t-58 15h-90l-118 -511h-201zM432 0l-107 288l182 29l129 -317h-204zM489 -59l-28 -119h-374l28 119h374z" />
    <glyph glyph-name="uni1E5F" unicode="&#x1e5f;" horiz-adv-x="436" 
d="M-94 -178l28 119h299l-28 -119h-299zM-10 0l116 500h180l-37 -205l-6 20q16 58 41.5 102t64 68.5t91.5 24.5q17 0 28.5 -2.5t18.5 -6.5l-47 -167q-10 5 -24 8t-36 3q-29 0 -56.5 -13t-49 -40.5t-32.5 -74.5l-50 -217h-202z" />
    <glyph glyph-name="uni1E60" unicode="&#x1e60;" horiz-adv-x="640" 
d="M330 -12q-69 0 -131.5 17t-115 51t-92.5 85l109 120q26 -37 64 -64t80.5 -41.5t82.5 -14.5q25 0 39.5 6.5t21.5 17.5t7 24q0 16 -13 26t-41 19l-95 32q-43 15 -79.5 39.5t-59 61.5t-22.5 87q0 72 36.5 119.5t99.5 72t142 24.5q106 0 179 -35.5t126 -96.5l-115 -116
q-23 30 -53.5 51t-65 31.5t-69.5 10.5q-23 0 -37.5 -5t-22 -14.5t-7.5 -22.5q0 -16 17 -28t46 -22l91 -31q77 -26 117 -68.5t40 -112.5t-37 -120.5t-100 -76.5t-142 -26zM412 709q-43 0 -69 16.5t-26 53.5q0 56 31 80.5t83 24.5q46 0 71.5 -17t25.5 -52q0 -58 -31 -82
t-85 -24z" />
    <glyph glyph-name="uni1E61" unicode="&#x1e61;" horiz-adv-x="524" 
d="M255 -10q-53 0 -105 14t-96 40t-72 64l93 94q28 -36 71 -60t84 -24q24 0 36.5 6.5t12.5 19.5q0 10 -7.5 18t-25.5 12l-50 17q-80 25 -113 60.5t-33 90.5q0 54 29 91.5t80 57t117 19.5q80 0 142.5 -26t101.5 -70l-87 -99q-15 19 -38.5 34t-51.5 24t-56 9q-22 0 -32.5 -6.5
t-10.5 -18.5q0 -11 9.5 -17.5t24.5 -10.5l92 -30q54 -16 83 -50t29 -83q0 -54 -27 -93.5t-77.5 -61t-122.5 -21.5zM332 549q-43 0 -69 16.5t-26 53.5q0 56 31 80.5t83 24.5q46 0 71.5 -17t25.5 -52q0 -58 -31 -82t-85 -24z" />
    <glyph glyph-name="uni1E62" unicode="&#x1e62;" horiz-adv-x="640" 
d="M330 -12q-69 0 -131.5 17t-115 51t-92.5 85l109 120q26 -37 64 -64t80.5 -41.5t82.5 -14.5q25 0 39.5 6.5t21.5 17.5t7 24q0 16 -13 26t-41 19l-95 32q-43 15 -79.5 39.5t-59 61.5t-22.5 87q0 72 36.5 119.5t99.5 72t142 24.5q106 0 179 -35.5t126 -96.5l-115 -116
q-23 30 -53.5 51t-65 31.5t-69.5 10.5q-23 0 -37.5 -5t-22 -14.5t-7.5 -22.5q0 -16 17 -28t46 -22l91 -31q77 -26 117 -68.5t40 -112.5t-37 -120.5t-100 -76.5t-142 -26zM238 -224q-43 0 -69 16.5t-26 53.5q0 56 31 80.5t83 24.5q46 0 71.5 -17t25.5 -52q0 -58 -31 -82
t-85 -24z" />
    <glyph glyph-name="uni1E63" unicode="&#x1e63;" horiz-adv-x="524" 
d="M255 -10q-53 0 -105 14t-96 40t-72 64l93 94q28 -36 71 -60t84 -24q24 0 36.5 6.5t12.5 19.5q0 10 -7.5 18t-25.5 12l-50 17q-80 25 -113 60.5t-33 90.5q0 54 29 91.5t80 57t117 19.5q80 0 142.5 -26t101.5 -70l-87 -99q-15 19 -38.5 34t-51.5 24t-56 9q-22 0 -32.5 -6.5
t-10.5 -18.5q0 -11 9.5 -17.5t24.5 -10.5l92 -30q54 -16 83 -50t29 -83q0 -54 -27 -93.5t-77.5 -61t-122.5 -21.5zM180 -224q-43 0 -69 16.5t-26 53.5q0 56 31 80.5t83 24.5q46 0 71.5 -17t25.5 -52q0 -58 -31 -82t-85 -24z" />
    <glyph glyph-name="uni1E64" unicode="&#x1e64;" horiz-adv-x="640" 
d="M330 -12q-69 0 -131.5 17t-115 51t-92.5 85l109 120q26 -37 64 -64t80.5 -41.5t82.5 -14.5q25 0 39.5 6.5t21.5 17.5t7 24q0 16 -13 26t-41 19l-95 32q-43 15 -79.5 39.5t-59 61.5t-22.5 87q0 72 36.5 119.5t99.5 72t142 24.5q106 0 179 -35.5t126 -96.5l-115 -116
q-23 30 -53.5 51t-65 31.5t-69.5 10.5q-23 0 -37.5 -5t-22 -14.5t-7.5 -22.5q0 -16 17 -28t46 -22l91 -31q77 -26 117 -68.5t40 -112.5t-37 -120.5t-100 -76.5t-142 -26zM429 881h180l-128 -166h-149zM469 927q-43 0 -69 16.5t-26 53.5q0 56 31 80.5t83 24.5q46 0 71.5 -17
t25.5 -52q0 -58 -31 -82t-85 -24z" />
    <glyph glyph-name="uni1E65" unicode="&#x1e65;" horiz-adv-x="524" 
d="M255 -10q-53 0 -105 14t-96 40t-72 64l93 94q28 -36 71 -60t84 -24q24 0 36.5 6.5t12.5 19.5q0 10 -7.5 18t-25.5 12l-50 17q-80 25 -113 60.5t-33 90.5q0 54 29 91.5t80 57t117 19.5q80 0 142.5 -26t101.5 -70l-87 -99q-15 19 -38.5 34t-51.5 24t-56 9q-22 0 -32.5 -6.5
t-10.5 -18.5q0 -11 9.5 -17.5t24.5 -10.5l92 -30q54 -16 83 -50t29 -83q0 -54 -27 -93.5t-77.5 -61t-122.5 -21.5zM344 734h188l-148 -175h-145zM406 777q-43 0 -69 16.5t-26 53.5q0 56 31 80.5t83 24.5q46 0 71.5 -17t25.5 -52q0 -58 -31 -82t-85 -24z" />
    <glyph glyph-name="uni1E66" unicode="&#x1e66;" horiz-adv-x="640" 
d="M330 -12q-69 0 -131.5 17t-115 51t-92.5 85l109 120q26 -37 64 -64t80.5 -41.5t82.5 -14.5q25 0 39.5 6.5t21.5 17.5t7 24q0 16 -13 26t-41 19l-95 32q-43 15 -79.5 39.5t-59 61.5t-22.5 87q0 72 36.5 119.5t99.5 72t142 24.5q106 0 179 -35.5t126 -96.5l-115 -116
q-23 30 -53.5 51t-65 31.5t-69.5 10.5q-23 0 -37.5 -5t-22 -14.5t-7.5 -22.5q0 -16 17 -28t46 -22l91 -31q77 -26 117 -68.5t40 -112.5t-37 -120.5t-100 -76.5t-142 -26zM306 715l-59 166h129l40 -87l79 87h140l-136 -166h-193zM446 917q-43 0 -69 16.5t-26 53.5
q0 56 31 80.5t83 24.5q46 0 71.5 -17t25.5 -52q0 -58 -31 -82t-85 -24z" />
    <glyph glyph-name="uni1E67" unicode="&#x1e67;" horiz-adv-x="524" 
d="M255 -10q-53 0 -105 14t-96 40t-72 64l93 94q28 -36 71 -60t84 -24q24 0 36.5 6.5t12.5 19.5q0 10 -7.5 18t-25.5 12l-50 17q-80 25 -113 60.5t-33 90.5q0 54 29 91.5t80 57t117 19.5q80 0 142.5 -26t101.5 -70l-87 -99q-15 19 -38.5 34t-51.5 24t-56 9q-22 0 -32.5 -6.5
t-10.5 -18.5q0 -11 9.5 -17.5t24.5 -10.5l92 -30q54 -16 83 -50t29 -83q0 -54 -27 -93.5t-77.5 -61t-122.5 -21.5zM218 559l-67 175h131l46 -82l83 82h146l-148 -175h-191zM356 766q-43 0 -69 16.5t-26 53.5q0 56 31 80.5t83 24.5q46 0 71.5 -17t25.5 -52q0 -58 -31 -82
t-85 -24z" />
    <glyph glyph-name="uni1E68" unicode="&#x1e68;" horiz-adv-x="640" 
d="M330 -12q-69 0 -131.5 17t-115 51t-92.5 85l109 120q26 -37 64 -64t80.5 -41.5t82.5 -14.5q25 0 39.5 6.5t21.5 17.5t7 24q0 16 -13 26t-41 19l-95 32q-43 15 -79.5 39.5t-59 61.5t-22.5 87q0 72 36.5 119.5t99.5 72t142 24.5q106 0 179 -35.5t126 -96.5l-115 -116
q-23 30 -53.5 51t-65 31.5t-69.5 10.5q-23 0 -37.5 -5t-22 -14.5t-7.5 -22.5q0 -16 17 -28t46 -22l91 -31q77 -26 117 -68.5t40 -112.5t-37 -120.5t-100 -76.5t-142 -26zM412 709q-43 0 -69 16.5t-26 53.5q0 56 31 80.5t83 24.5q46 0 71.5 -17t25.5 -52q0 -58 -31 -82
t-85 -24zM238 -224q-43 0 -69 16.5t-26 53.5q0 56 31 80.5t83 24.5q46 0 71.5 -17t25.5 -52q0 -58 -31 -82t-85 -24z" />
    <glyph glyph-name="uni1E69" unicode="&#x1e69;" horiz-adv-x="524" 
d="M255 -10q-53 0 -105 14t-96 40t-72 64l93 94q28 -36 71 -60t84 -24q24 0 36.5 6.5t12.5 19.5q0 10 -7.5 18t-25.5 12l-50 17q-80 25 -113 60.5t-33 90.5q0 54 29 91.5t80 57t117 19.5q80 0 142.5 -26t101.5 -70l-87 -99q-15 19 -38.5 34t-51.5 24t-56 9q-22 0 -32.5 -6.5
t-10.5 -18.5q0 -11 9.5 -17.5t24.5 -10.5l92 -30q54 -16 83 -50t29 -83q0 -54 -27 -93.5t-77.5 -61t-122.5 -21.5zM332 549q-43 0 -69 16.5t-26 53.5q0 56 31 80.5t83 24.5q46 0 71.5 -17t25.5 -52q0 -58 -31 -82t-85 -24zM180 -224q-43 0 -69 16.5t-26 53.5q0 56 31 80.5
t83 24.5q46 0 71.5 -17t25.5 -52q0 -58 -31 -82t-85 -24z" />
    <glyph glyph-name="uni1E6C" unicode="&#x1e6c;" horiz-adv-x="668" 
d="M741 660l-35 -153h-210l-117 -507h-204l117 507h-211l36 153h624zM238 -224q-43 0 -69 16.5t-26 53.5q0 56 31 80.5t83 24.5q46 0 71.5 -17t25.5 -52q0 -58 -31 -82t-85 -24z" />
    <glyph glyph-name="uni1E6D" unicode="&#x1e6d;" horiz-adv-x="448" 
d="M263 -10q-66 0 -112.5 23t-65 68t-3.5 113l96 413l215 56l-107 -462q-10 -36 8.5 -55.5t56.5 -19.5q23 0 36 2.5t24 7.5l-20 -125q-28 -11 -60.5 -16t-67.5 -5zM32 361l32 139h421l-32 -139h-421zM182 -224q-43 0 -69 16.5t-26 53.5q0 56 31 80.5t83 24.5q46 0 71.5 -17
t25.5 -52q0 -58 -31 -82t-85 -24z" />
    <glyph glyph-name="uni1E6E" unicode="&#x1e6e;" horiz-adv-x="668" 
d="M741 660l-35 -153h-210l-117 -507h-204l117 507h-211l36 153h624zM452 -59l-28 -119h-374l28 119h374z" />
    <glyph glyph-name="uni1E6F" unicode="&#x1e6f;" horiz-adv-x="448" 
d="M263 -10q-66 0 -112.5 23t-65 68t-3.5 113l96 413l215 56l-107 -462q-10 -36 8.5 -55.5t56.5 -19.5q23 0 36 2.5t24 7.5l-20 -125q-28 -11 -60.5 -16t-67.5 -5zM32 361l32 139h421l-32 -139h-421zM395 -59l-28 -119h-374l28 119h374z" />
    <glyph glyph-name="uni1E78" unicode="&#x1e78;" horiz-adv-x="708" 
d="M331 -10q-104 0 -173 36.5t-96 105t-5 163.5l85 365h206l-90 -391q-8 -39 0.5 -66.5t32 -42t58.5 -14.5q46 0 71.5 27.5t37.5 83.5l94 403h204l-93 -401q-33 -137 -111.5 -203t-220.5 -66zM683 875q-12 -86 -54 -127.5t-94 -41.5q-27 0 -45.5 8.5t-32 19.5t-26 19.5
t-26.5 8.5q-15 0 -25 -14.5t-16 -39.5h-106q14 85 53 126.5t94 41.5q22 0 40 -8.5t33 -19t29 -19t28 -8.5q15 0 25.5 13.5t16.5 40.5h106zM520 1086h180l-128 -166h-149z" />
    <glyph glyph-name="uni1E79" unicode="&#x1e79;" horiz-adv-x="614" 
d="M167 -10q-52 0 -88 22.5t-50 64t-1 98.5l75 325h202l-67 -292q-8 -33 5.5 -49.5t40.5 -16.5q21 0 35 9.5t24.5 29t16.5 47.5l63 272h202l-116 -500h-180l28 176l8 -19q-21 -80 -73 -123.5t-125 -43.5zM594 717q-12 -86 -54 -127.5t-94 -41.5q-27 0 -45.5 8.5t-32 19.5
t-26 19.5t-26.5 8.5q-15 0 -25 -14.5t-16 -39.5h-106q14 85 53 126.5t94 41.5q22 0 40 -8.5t33 -19t29 -19t28 -8.5q15 0 25.5 13.5t16.5 40.5h106zM430 928h180l-128 -166h-149z" />
    <glyph glyph-name="uni1E7A" unicode="&#x1e7a;" horiz-adv-x="708" 
d="M331 -10q-104 0 -173 36.5t-96 105t-5 163.5l85 365h206l-90 -391q-8 -39 0.5 -66.5t32 -42t58.5 -14.5q46 0 71.5 27.5t37.5 83.5l94 403h204l-93 -401q-33 -137 -111.5 -203t-220.5 -66zM676 834l-28 -119h-374l28 119h374zM618 877q-40 0 -64.5 16t-24.5 52
q0 54 29 77t78 23q40 0 64 -16t24 -51q0 -54 -28.5 -77.5t-77.5 -23.5zM386 877q-40 0 -64.5 16t-24.5 52q0 54 29 77t78 23q40 0 64 -16t24 -51q0 -54 -29 -77.5t-77 -23.5z" />
    <glyph glyph-name="uni1E7B" unicode="&#x1e7b;" horiz-adv-x="614" 
d="M167 -10q-52 0 -88 22.5t-50 64t-1 98.5l75 325h202l-67 -292q-8 -33 5.5 -49.5t40.5 -16.5q21 0 35 9.5t24.5 29t16.5 47.5l63 272h202l-116 -500h-180l28 176l8 -19q-21 -80 -73 -123.5t-125 -43.5zM587 676l-28 -119h-374l28 119h374zM529 719q-40 0 -64.5 16
t-24.5 52q0 54 29 77t78 23q40 0 64 -16t24 -51q0 -54 -28.5 -77.5t-77.5 -23.5zM297 719q-40 0 -64.5 16t-24.5 52q0 54 29 77t78 23q40 0 64 -16t24 -51q0 -54 -29 -77.5t-77 -23.5z" />
    <glyph glyph-name="Wgrave" unicode="&#x1e80;" horiz-adv-x="1006" 
d="M129 0l-34 660h201l-9 -492l206 492h181l4 -493l198 493h224l-341 -660h-224v282l12 171h-3l-69 -171l-122 -282h-224zM639 881l29 -166h-131l-68 166h170z" />
    <glyph glyph-name="wgrave" unicode="&#x1e81;" horiz-adv-x="908" 
d="M71 0l-17 500h197l-9 -347l160 347h199l9 -348l145 348h213l-253 -500h-245l-10 276l-136 -276h-253zM560 734l24 -175h-136l-71 175h183z" />
    <glyph glyph-name="Wacute" unicode="&#x1e82;" horiz-adv-x="1006" 
d="M129 0l-34 660h201l-9 -492l206 492h181l4 -493l198 493h224l-341 -660h-224v282l12 171h-3l-69 -171l-122 -282h-224zM617 881h180l-128 -166h-149z" />
    <glyph glyph-name="wacute" unicode="&#x1e83;" horiz-adv-x="908" 
d="M71 0l-17 500h197l-9 -347l160 347h199l9 -348l145 348h213l-253 -500h-245l-10 276l-136 -276h-253zM528 734h188l-148 -175h-145z" />
    <glyph glyph-name="Wdieresis" unicode="&#x1e84;" horiz-adv-x="1006" 
d="M129 0l-34 660h201l-9 -492l206 492h181l4 -493l198 493h224l-341 -660h-224v282l12 171h-3l-69 -171l-122 -282h-224zM718 705q-40 0 -64.5 16t-24.5 52q0 54 29 77t78 23q40 0 64 -16t24 -51q0 -54 -28.5 -77.5t-77.5 -23.5zM486 705q-40 0 -64.5 16t-24.5 52
q0 54 29 77t78 23q40 0 64 -16t24 -51q0 -54 -29 -77.5t-77 -23.5z" />
    <glyph glyph-name="wdieresis" unicode="&#x1e85;" horiz-adv-x="908" 
d="M71 0l-17 500h197l-9 -347l160 347h199l9 -348l145 348h213l-253 -500h-245l-10 276l-136 -276h-253zM634 545q-40 0 -64.5 16t-24.5 52q0 54 29 77t78 23q40 0 64 -16t24 -51q0 -54 -28.5 -77.5t-77.5 -23.5zM402 545q-40 0 -64.5 16t-24.5 52q0 54 29 77t78 23
q40 0 64 -16t24 -51q0 -54 -29 -77.5t-77 -23.5z" />
    <glyph glyph-name="uni1E8E" unicode="&#x1e8e;" horiz-adv-x="685" 
d="M182 0l56 241l-133 419h194l47 -166l25 -113l70 115l113 164h216l-331 -433l-52 -227h-205zM432 705q-43 0 -69 16.5t-26 53.5q0 56 31 80.5t83 24.5q46 0 71.5 -17t25.5 -52q0 -58 -31 -82t-85 -24z" />
    <glyph glyph-name="uni1E8F" unicode="&#x1e8f;" horiz-adv-x="577" 
d="M56 -215q-45 0 -84 10t-61 25l52 138q35 -29 89 -29q26 0 46.5 9t32.5 28l11 18l-88 516h205l4 -263l-1 -121l51 120l117 264h212l-301 -522q-40 -70 -81.5 -112.5t-90.5 -61.5t-113 -19zM379 547q-43 0 -69 16.5t-26 53.5q0 56 31 80.5t83 24.5q46 0 71.5 -17t25.5 -52
q0 -58 -31 -82t-85 -24z" />
    <glyph glyph-name="uni1E92" unicode="&#x1e92;" horiz-adv-x="634" 
d="M-22 0l35 151l418 360h-344l35 149h569l-35 -151l-418 -360h353l-35 -149h-578zM245 -224q-43 0 -69 16.5t-26 53.5q0 56 31 80.5t83 24.5q46 0 71.5 -17t25.5 -52q0 -58 -31 -82t-85 -24z" />
    <glyph glyph-name="uni1E93" unicode="&#x1e93;" horiz-adv-x="511" 
d="M-24 0l28 119l210 200l57 48l-75 -4h-140l32 137h445l-28 -120l-203 -193l-63 -54l87 4h138l-31 -137h-457zM164 -224q-43 0 -69 16.5t-26 53.5q0 56 31 80.5t83 24.5q46 0 71.5 -17t25.5 -52q0 -58 -31 -82t-85 -24z" />
    <glyph glyph-name="uni1E97" unicode="&#x1e97;" horiz-adv-x="448" 
d="M263 -10q-66 0 -112.5 23t-65 68t-3.5 113l96 413l215 56l-107 -462q-10 -36 8.5 -55.5t56.5 -19.5q23 0 36 2.5t24 7.5l-20 -125q-28 -11 -60.5 -16t-67.5 -5zM32 361l32 139h421l-32 -139h-421zM433 701q-40 0 -64.5 16t-24.5 52q0 54 29 77t78 23q40 0 64 -16t24 -51
q0 -54 -28.5 -77.5t-77.5 -23.5zM201 701q-40 0 -64.5 16t-24.5 52q0 54 29 77t78 23q40 0 64 -16t24 -51q0 -54 -29 -77.5t-77 -23.5z" />
    <glyph glyph-name="uni1E9E" unicode="&#x1e9e;" horiz-adv-x="721" 
d="M454 -5q-63 0 -109.5 14.5t-86.5 41.5l65 114q20 -14 47 -22t48 -8t39 7.5t28.5 22.5t10.5 38q0 26 -18 38t-58 12h-82l24 106l177 152h-118q-34 0 -62 -13.5t-47.5 -40.5t-28.5 -66l-89 -391h-205l94 405q19 82 65.5 138.5t113 86.5t145.5 30h369l-31 -133l-200 -173h3
q36 0 68 -18t51.5 -51t19.5 -81q0 -67 -30 -114t-82 -71t-121 -24z" />
    <glyph glyph-name="uni1EA0" unicode="&#x1ea0;" horiz-adv-x="680" 
d="M-62 0l375 660h247l66 -660h-193l-7 143h-204l-73 -143h-211zM290 275h131l-11 236zM261 -224q-43 0 -69 16.5t-26 53.5q0 56 31 80.5t83 24.5q46 0 71.5 -17t25.5 -52q0 -58 -31 -82t-85 -24z" />
    <glyph glyph-name="uni1EA1" unicode="&#x1ea1;" horiz-adv-x="618" 
d="M188 -10q-46 0 -84 22t-60 65t-22 107q0 60 17 118t48.5 105t76.5 75t103 28q29 0 57.5 -11t50 -35t28.5 -66l24 102h202l-116 -500h-184l17 95q-25 -49 -66 -77t-92 -28zM282 135q21 0 38 15t29.5 39.5t19 52.5t6.5 53q0 22 -7 37.5t-19.5 24t-30.5 8.5q-24 0 -42 -16
t-30 -40t-18 -51t-6 -48q0 -23 6.5 -40t19.5 -26t34 -9zM221 -224q-43 0 -69 16.5t-26 53.5q0 56 31 80.5t83 24.5q46 0 71.5 -17t25.5 -52q0 -58 -31 -82t-85 -24z" />
    <glyph glyph-name="uni1EA2" unicode="&#x1ea2;" horiz-adv-x="680" 
d="M-62 0l375 660h247l66 -660h-193l-7 143h-204l-73 -143h-211zM290 275h131l-11 236zM429 694l-22 58q37 8 49 23.5t12 29.5q0 12 -8 18.5t-21 6.5t-22 -5.5t-16 -15.5l-73 58q16 28 49.5 47t81.5 19t83 -26.5t35 -76.5q0 -43 -20.5 -72t-54 -44t-73.5 -20z" />
    <glyph glyph-name="uni1EA3" unicode="&#x1ea3;" horiz-adv-x="618" 
d="M188 -10q-46 0 -84 22t-60 65t-22 107q0 60 17 118t48.5 105t76.5 75t103 28q29 0 57.5 -11t50 -35t28.5 -66l24 102h202l-116 -500h-184l17 95q-25 -49 -66 -77t-92 -28zM282 135q21 0 38 15t29.5 39.5t19 52.5t6.5 53q0 22 -7 37.5t-19.5 24t-30.5 8.5q-24 0 -42 -16
t-30 -40t-18 -51t-6 -48q0 -23 6.5 -40t19.5 -26t34 -9zM346 543l-22 58q38 9 50.5 24.5t12.5 28.5q0 12 -8 19t-21 7q-12 0 -21.5 -6t-17.5 -16l-71 58q16 28 49.5 47t81.5 19t82.5 -26.5t34.5 -76.5q0 -43 -20.5 -72t-54.5 -44t-75 -20z" />
    <glyph glyph-name="uni1EA4" unicode="&#x1ea4;" horiz-adv-x="680" 
d="M252 712l136 162h173l62 -162h-123l-40 74l-75 -74h-133zM700 960h162l-116 -148h-133zM-62 0l375 660h247l66 -660h-193l-7 143h-204l-73 -143h-211zM290 275h131l-11 236z" />
    <glyph glyph-name="uni1EA5" unicode="&#x1ea5;" horiz-adv-x="618" 
d="M171 552l136 162h174l61 -162h-123l-40 74l-75 -74h-133zM619 800h162l-115 -148h-134zM188 -10q-46 0 -84 22t-60 65t-22 107q0 60 17 118t48.5 105t76.5 75t103 28q29 0 57.5 -11t50 -35t28.5 -66l24 102h202l-116 -500h-184l17 95q-25 -49 -66 -77t-92 -28zM282 135
q21 0 38 15t29.5 39.5t19 52.5t6.5 53q0 22 -7 37.5t-19.5 24t-30.5 8.5q-24 0 -42 -16t-30 -40t-18 -51t-6 -48q0 -23 6.5 -40t19.5 -26t34 -9z" />
    <glyph glyph-name="uni1EA6" unicode="&#x1ea6;" horiz-adv-x="680" 
d="M252 712l136 162h173l62 -162h-123l-40 74l-75 -74h-133zM725 960l26 -148h-118l-61 148h153zM-62 0l375 660h247l66 -660h-193l-7 143h-204l-73 -143h-211zM290 275h131l-11 236z" />
    <glyph glyph-name="uni1EA7" unicode="&#x1ea7;" horiz-adv-x="618" 
d="M171 552l136 162h174l61 -162h-123l-40 74l-75 -74h-133zM644 800l26 -148h-117l-62 148h153zM188 -10q-46 0 -84 22t-60 65t-22 107q0 60 17 118t48.5 105t76.5 75t103 28q29 0 57.5 -11t50 -35t28.5 -66l24 102h202l-116 -500h-184l17 95q-25 -49 -66 -77t-92 -28z
M282 135q21 0 38 15t29.5 39.5t19 52.5t6.5 53q0 22 -7 37.5t-19.5 24t-30.5 8.5q-24 0 -42 -16t-30 -40t-18 -51t-6 -48q0 -23 6.5 -40t19.5 -26t34 -9z" />
    <glyph glyph-name="uni1EA8" unicode="&#x1ea8;" horiz-adv-x="680" 
d="M252 712l136 162h173l62 -162h-123l-40 74l-75 -74h-133zM632 795l-22 59q38 8 49.5 23.5t11.5 28.5q0 12 -8 19t-21 7q-12 0 -21.5 -6t-16.5 -16l-72 58q15 29 49 48t81 19q48 0 83 -27t35 -77q0 -42 -20.5 -71t-54 -44t-73.5 -21zM-62 0l375 660h247l66 -660h-193
l-7 143h-204l-73 -143h-211zM290 275h131l-11 236z" />
    <glyph glyph-name="uni1EA9" unicode="&#x1ea9;" horiz-adv-x="618" 
d="M171 552l136 162h174l61 -162h-123l-40 74l-75 -74h-133zM551 635l-22 59q38 8 49.5 23.5t11.5 28.5q0 12 -7.5 19t-21.5 7q-12 0 -21 -6t-17 -16l-72 58q16 29 49.5 48t80.5 19q48 0 83.5 -27t35.5 -77q0 -42 -21 -71t-54 -44t-74 -21zM188 -10q-46 0 -84 22t-60 65
t-22 107q0 60 17 118t48.5 105t76.5 75t103 28q29 0 57.5 -11t50 -35t28.5 -66l24 102h202l-116 -500h-184l17 95q-25 -49 -66 -77t-92 -28zM282 135q21 0 38 15t29.5 39.5t19 52.5t6.5 53q0 22 -7 37.5t-19.5 24t-30.5 8.5q-24 0 -42 -16t-30 -40t-18 -51t-6 -48
q0 -23 6.5 -40t19.5 -26t34 -9z" />
    <glyph glyph-name="uni1EAA" unicode="&#x1eaa;" horiz-adv-x="680" 
d="M252 712l136 162h173l62 -162h-123l-40 74l-75 -74h-133zM683 1048q-11 -77 -49 -114t-85 -37q-25 0 -42 7.5t-29.5 17.5t-23.5 17.5t-25 7.5t-22.5 -13.5t-13.5 -34.5h-97q11 77 47 114t86 37q20 0 36.5 -7t30 -17.5t26.5 -17.5t27 -7t23 12t14 35h97zM-62 0l375 660
h247l66 -660h-193l-7 143h-204l-73 -143h-211zM290 275h131l-11 236z" />
    <glyph glyph-name="uni1EAB" unicode="&#x1eab;" horiz-adv-x="618" 
d="M171 552l136 162h174l61 -162h-123l-40 74l-75 -74h-133zM602 888q-11 -77 -49 -114t-85 -37q-24 0 -41 7.5t-29.5 17.5t-24 17.5t-25.5 7.5t-22.5 -13.5t-13.5 -34.5h-96q11 77 46.5 114t86.5 37q20 0 36 -7t30 -17.5t27 -17.5t26 -7q14 0 23.5 12t14.5 35h96zM188 -10
q-46 0 -84 22t-60 65t-22 107q0 60 17 118t48.5 105t76.5 75t103 28q29 0 57.5 -11t50 -35t28.5 -66l24 102h202l-116 -500h-184l17 95q-25 -49 -66 -77t-92 -28zM282 135q21 0 38 15t29.5 39.5t19 52.5t6.5 53q0 22 -7 37.5t-19.5 24t-30.5 8.5q-24 0 -42 -16t-30 -40
t-18 -51t-6 -48q0 -23 6.5 -40t19.5 -26t34 -9z" />
    <glyph glyph-name="uni1EAC" unicode="&#x1eac;" horiz-adv-x="680" 
d="M-62 0l375 660h247l66 -660h-193l-7 143h-204l-73 -143h-211zM290 275h131l-11 236zM261 -224q-43 0 -69 16.5t-26 53.5q0 56 31 80.5t83 24.5q46 0 71.5 -17t25.5 -52q0 -58 -31 -82t-85 -24zM583 881l58 -166h-128l-41 87l-79 -87h-140l136 166h194z" />
    <glyph glyph-name="uni1EAD" unicode="&#x1ead;" horiz-adv-x="618" 
d="M188 -10q-46 0 -84 22t-60 65t-22 107q0 60 17 118t48.5 105t76.5 75t103 28q29 0 57.5 -11t50 -35t28.5 -66l24 102h202l-116 -500h-184l17 95q-25 -49 -66 -77t-92 -28zM282 135q21 0 38 15t29.5 39.5t19 52.5t6.5 53q0 22 -7 37.5t-19.5 24t-30.5 8.5q-24 0 -42 -16
t-30 -40t-18 -51t-6 -48q0 -23 6.5 -40t19.5 -26t34 -9zM221 -224q-43 0 -69 16.5t-26 53.5q0 56 31 80.5t83 24.5q46 0 71.5 -17t25.5 -52q0 -58 -31 -82t-85 -24zM153 552l148 176h191l67 -176h-135l-45 79l-80 -79h-146z" />
    <glyph glyph-name="uni1EAE" unicode="&#x1eae;" horiz-adv-x="680" 
d="M624 861q-12 -71 -62 -112.5t-126 -41.5q-67 0 -103 32t-36 85q0 16 4 37h113q-2 -5 -2.5 -9.5t-0.5 -9.5q0 -18 11.5 -28t30.5 -10q22 0 37 15t21 42h113zM400 884l87 147h162l-115 -147h-134zM-62 0l375 660h247l66 -660h-193l-7 143h-204l-73 -143h-211zM290 275h131
l-11 236z" />
    <glyph glyph-name="uni1EAF" unicode="&#x1eaf;" horiz-adv-x="618" 
d="M550 701q-13 -71 -62.5 -112.5t-125.5 -41.5q-67 0 -103.5 32t-36.5 85q0 16 5 37h113q-2 -5 -2.5 -9.5t-0.5 -9.5q0 -18 11 -28t31 -10q22 0 37 15t20 42h114zM325 724l87 147h162l-114 -147h-135zM188 -10q-46 0 -84 22t-60 65t-22 107q0 60 17 118t48.5 105t76.5 75
t103 28q29 0 57.5 -11t50 -35t28.5 -66l24 102h202l-116 -500h-184l17 95q-25 -49 -66 -77t-92 -28zM282 135q21 0 38 15t29.5 39.5t19 52.5t6.5 53q0 22 -7 37.5t-19.5 24t-30.5 8.5q-24 0 -42 -16t-30 -40t-18 -51t-6 -48q0 -23 6.5 -40t19.5 -26t34 -9z" />
    <glyph glyph-name="uni1EB0" unicode="&#x1eb0;" horiz-adv-x="680" 
d="M628 861q-12 -71 -61.5 -112.5t-126.5 -41.5q-67 0 -103 32t-36 85q0 16 4 37h113q-2 -5 -2.5 -9.5t-0.5 -9.5q0 -18 11.5 -28t30.5 -10q23 0 37.5 15t20.5 42h113zM416 884l-62 147h155l26 -147h-119zM-62 0l375 660h247l66 -660h-193l-7 143h-204l-73 -143h-211z
M290 275h131l-11 236z" />
    <glyph glyph-name="uni1EB1" unicode="&#x1eb1;" horiz-adv-x="618" 
d="M550 701q-13 -71 -62.5 -112.5t-125.5 -41.5q-67 0 -103.5 32t-36.5 85q0 16 5 37h113q-2 -5 -2.5 -9.5t-0.5 -9.5q0 -18 11 -28t31 -10q22 0 37 15t20 42h114zM338 724l-62 147h155l26 -147h-119zM188 -10q-46 0 -84 22t-60 65t-22 107q0 60 17 118t48.5 105t76.5 75
t103 28q29 0 57.5 -11t50 -35t28.5 -66l24 102h202l-116 -500h-184l17 95q-25 -49 -66 -77t-92 -28zM282 135q21 0 38 15t29.5 39.5t19 52.5t6.5 53q0 22 -7 37.5t-19.5 24t-30.5 8.5q-24 0 -42 -16t-30 -40t-18 -51t-6 -48q0 -23 6.5 -40t19.5 -26t34 -9z" />
    <glyph glyph-name="uni1EB2" unicode="&#x1eb2;" horiz-adv-x="680" 
d="M629 862q-12 -71 -62 -112.5t-126 -41.5q-67 0 -103.5 31.5t-36.5 85.5q0 16 5 37h113q-2 -5 -2.5 -10t-0.5 -9q0 -18 11.5 -28t30.5 -10q22 0 37 14.5t20 42.5h114zM461 868l-20 54q35 7 46 21.5t11 27.5q0 11 -7.5 17t-19.5 6t-20.5 -5t-15.5 -14l-66 53q14 26 45 43.5
t75 17.5q45 0 77 -25t32 -71q0 -39 -19 -65.5t-49.5 -41t-68.5 -18.5zM-62 0l375 660h247l66 -660h-193l-7 143h-204l-73 -143h-211zM290 275h131l-11 236z" />
    <glyph glyph-name="uni1EB3" unicode="&#x1eb3;" horiz-adv-x="618" 
d="M551 702q-13 -71 -62.5 -112.5t-125.5 -41.5q-67 0 -103.5 31.5t-36.5 85.5q0 16 5 37h113q-2 -5 -2.5 -10t-0.5 -9q0 -18 11 -28t31 -10q22 0 37 14.5t20 42.5h114zM383 708l-20 54q34 7 45.5 21.5t11.5 27.5q0 11 -7.5 17t-20.5 6q-11 0 -19.5 -5t-15.5 -14l-66 53
q14 26 45 43.5t75 17.5t76.5 -25t32.5 -71q0 -39 -19 -65.5t-50 -41t-68 -18.5zM188 -10q-46 0 -84 22t-60 65t-22 107q0 60 17 118t48.5 105t76.5 75t103 28q29 0 57.5 -11t50 -35t28.5 -66l24 102h202l-116 -500h-184l17 95q-25 -49 -66 -77t-92 -28zM282 135q21 0 38 15
t29.5 39.5t19 52.5t6.5 53q0 22 -7 37.5t-19.5 24t-30.5 8.5q-24 0 -42 -16t-30 -40t-18 -51t-6 -48q0 -23 6.5 -40t19.5 -26t34 -9z" />
    <glyph glyph-name="uni1EB4" unicode="&#x1eb4;" horiz-adv-x="680" 
d="M631 861q-13 -71 -62.5 -112.5t-125.5 -41.5q-67 0 -103.5 32t-36.5 85q0 16 5 37h113q-2 -5 -2.5 -9.5t-0.5 -9.5q0 -18 11 -28t31 -10q22 0 37 15t20 42h114zM680 1037q-11 -77 -49 -114.5t-85 -37.5q-24 0 -41 7.5t-29.5 17.5t-24 17.5t-25.5 7.5t-22.5 -13t-13.5 -35
h-96q11 77 46.5 114.5t86.5 37.5q20 0 36 -7.5t30 -17.5t27 -17.5t26 -7.5q14 0 23.5 12.5t14.5 35.5h96zM-62 0l375 660h247l66 -660h-193l-7 143h-204l-73 -143h-211zM290 275h131l-11 236z" />
    <glyph glyph-name="uni1EB5" unicode="&#x1eb5;" horiz-adv-x="618" 
d="M549 701q-12 -71 -61.5 -112.5t-126.5 -41.5q-67 0 -103 32t-36 85q0 16 4 37h113q-2 -5 -2.5 -9.5t-0.5 -9.5q0 -18 11.5 -28t30.5 -10q22 0 37 15t21 42h113zM598 877q-10 -77 -48 -114.5t-86 -37.5q-24 0 -41 7.5t-29.5 17.5t-24 17.5t-24.5 7.5q-14 0 -23 -13
t-14 -35h-96q11 77 47 114.5t86 37.5q20 0 36.5 -7.5t30 -17.5t26.5 -17.5t27 -7.5t23 12.5t14 35.5h96zM188 -10q-46 0 -84 22t-60 65t-22 107q0 60 17 118t48.5 105t76.5 75t103 28q29 0 57.5 -11t50 -35t28.5 -66l24 102h202l-116 -500h-184l17 95q-25 -49 -66 -77
t-92 -28zM282 135q21 0 38 15t29.5 39.5t19 52.5t6.5 53q0 22 -7 37.5t-19.5 24t-30.5 8.5q-24 0 -42 -16t-30 -40t-18 -51t-6 -48q0 -23 6.5 -40t19.5 -26t34 -9z" />
    <glyph glyph-name="uni1EB6" unicode="&#x1eb6;" horiz-adv-x="680" 
d="M-62 0l375 660h247l66 -660h-193l-7 143h-204l-73 -143h-211zM290 275h131l-11 236zM261 -224q-43 0 -69 16.5t-26 53.5q0 56 31 80.5t83 24.5q46 0 71.5 -17t25.5 -52q0 -58 -31 -82t-85 -24zM650 875q-13 -77 -67.5 -122.5t-137.5 -45.5q-73 0 -112.5 34.5t-39.5 92.5
q0 10 1 20.5t3 20.5h125q-1 -5 -2 -10.5t-1 -10.5q0 -18 12 -29t33 -11q24 0 40 16t21 45h125z" />
    <glyph glyph-name="uni1EB7" unicode="&#x1eb7;" horiz-adv-x="618" 
d="M188 -10q-46 0 -84 22t-60 65t-22 107q0 60 17 118t48.5 105t76.5 75t103 28q29 0 57.5 -11t50 -35t28.5 -66l24 102h202l-116 -500h-184l17 95q-25 -49 -66 -77t-92 -28zM282 135q21 0 38 15t29.5 39.5t19 52.5t6.5 53q0 22 -7 37.5t-19.5 24t-30.5 8.5q-24 0 -42 -16
t-30 -40t-18 -51t-6 -48q0 -23 6.5 -40t19.5 -26t34 -9zM221 -224q-43 0 -69 16.5t-26 53.5q0 56 31 80.5t83 24.5q46 0 71.5 -17t25.5 -52q0 -58 -31 -82t-85 -24zM565 715q-13 -77 -67.5 -122.5t-137.5 -45.5q-73 0 -112.5 34.5t-39.5 92.5q0 10 1 20.5t3 20.5h125
q-1 -5 -2 -10.5t-1 -10.5q0 -18 12 -29t33 -11q24 0 40 16t21 45h125z" />
    <glyph glyph-name="uni1EB8" unicode="&#x1eb8;" horiz-adv-x="626" 
d="M2 0l153 660h535l-35 -153h-331l-25 -107h261l-32 -142h-261l-24 -105h338l-36 -153h-543zM239 -224q-43 0 -69 16.5t-26 53.5q0 56 31 80.5t83 24.5q46 0 71.5 -17t25.5 -52q0 -58 -31 -82t-85 -24z" />
    <glyph glyph-name="uni1EB9" unicode="&#x1eb9;" horiz-adv-x="585" 
d="M284 -9q-75 0 -133.5 27.5t-91 79t-32.5 120.5q0 87 35.5 152.5t100.5 102.5t153 37q78 0 132 -28t82.5 -78t28.5 -117q0 -20 -2 -40.5t-8 -40.5h-387l-1 88h252l-52 -23q5 13 5.5 22.5t0.5 18.5q0 22 -7 35.5t-19.5 20t-28.5 6.5q-30 0 -50 -16t-31 -41.5t-15 -55
t-4 -55.5q0 -27 10 -45t28 -26.5t41 -8.5q30 0 48 15t27 36l168 -58q-16 -41 -53 -69.5t-87.5 -43.5t-109.5 -15zM231 -224q-43 0 -69 16.5t-26 53.5q0 56 31 80.5t83 24.5q46 0 71.5 -17t25.5 -52q0 -58 -31 -82t-85 -24z" />
    <glyph glyph-name="uni1EBA" unicode="&#x1eba;" horiz-adv-x="626" 
d="M2 0l153 660h535l-35 -153h-331l-25 -107h261l-32 -142h-261l-24 -105h338l-36 -153h-543zM413 694l-22 58q37 8 49 23.5t12 29.5q0 12 -8 18.5t-21 6.5t-22 -5.5t-16 -15.5l-73 58q16 28 49.5 47t81.5 19t83 -26.5t35 -76.5q0 -43 -20.5 -72t-54 -44t-73.5 -20z" />
    <glyph glyph-name="uni1EBB" unicode="&#x1ebb;" horiz-adv-x="585" 
d="M284 -9q-75 0 -133.5 27.5t-91 79t-32.5 120.5q0 87 35.5 152.5t100.5 102.5t153 37q78 0 132 -28t82.5 -78t28.5 -117q0 -20 -2 -40.5t-8 -40.5h-387l-1 88h252l-52 -23q5 13 5.5 22.5t0.5 18.5q0 22 -7 35.5t-19.5 20t-28.5 6.5q-30 0 -50 -16t-31 -41.5t-15 -55
t-4 -55.5q0 -27 10 -45t28 -26.5t41 -8.5q30 0 48 15t27 36l168 -58q-16 -41 -53 -69.5t-87.5 -43.5t-109.5 -15zM332 543l-22 58q38 9 50.5 24.5t12.5 28.5q0 12 -8 19t-21 7q-12 0 -21.5 -6t-17.5 -16l-71 58q16 28 49.5 47t81.5 19t82.5 -26.5t34.5 -76.5
q0 -43 -20.5 -72t-54.5 -44t-75 -20z" />
    <glyph glyph-name="uni1EBC" unicode="&#x1ebc;" horiz-adv-x="626" 
d="M2 0l153 660h535l-35 -153h-331l-25 -107h261l-32 -142h-261l-24 -105h338l-36 -153h-543zM655 879q-12 -86 -54 -127.5t-94 -41.5q-27 0 -45.5 8.5t-32 19.5t-26 19.5t-26.5 8.5q-15 0 -25 -14.5t-16 -39.5h-106q14 85 53 126.5t94 41.5q22 0 40 -8.5t33 -19t29 -19
t28 -8.5q15 0 25.5 13.5t16.5 40.5h106z" />
    <glyph glyph-name="uni1EBD" unicode="&#x1ebd;" horiz-adv-x="585" 
d="M284 -9q-75 0 -133.5 27.5t-91 79t-32.5 120.5q0 87 35.5 152.5t100.5 102.5t153 37q78 0 132 -28t82.5 -78t28.5 -117q0 -20 -2 -40.5t-8 -40.5h-387l-1 88h252l-52 -23q5 13 5.5 22.5t0.5 18.5q0 22 -7 35.5t-19.5 20t-28.5 6.5q-30 0 -50 -16t-31 -41.5t-15 -55
t-4 -55.5q0 -27 10 -45t28 -26.5t41 -8.5q30 0 48 15t27 36l168 -58q-16 -41 -53 -69.5t-87.5 -43.5t-109.5 -15zM571 719q-12 -86 -54 -127.5t-94 -41.5q-27 0 -45.5 8.5t-32 19.5t-26 19.5t-26.5 8.5q-15 0 -25 -14.5t-16 -39.5h-106q14 85 53 126.5t94 41.5q22 0 40 -8.5
t33 -19t29 -19t28 -8.5q15 0 25.5 13.5t16.5 40.5h106z" />
    <glyph glyph-name="uni1EBE" unicode="&#x1ebe;" horiz-adv-x="626" 
d="M236 712l136 162h174l61 -162h-123l-40 74l-75 -74h-133zM684 960h162l-115 -148h-134zM2 0l153 660h535l-35 -153h-331l-25 -107h261l-32 -142h-261l-24 -105h338l-36 -153h-543z" />
    <glyph glyph-name="uni1EBF" unicode="&#x1ebf;" horiz-adv-x="585" 
d="M605 800h162l-115 -148h-134zM157 552l136 162h174l61 -162h-123l-40 74l-75 -74h-133zM284 -9q-75 0 -133.5 27.5t-91 79t-32.5 120.5q0 87 35.5 152.5t100.5 102.5t153 37q78 0 132.5 -28t82.5 -76.5t28 -112.5q0 -20 -2 -41t-9 -41h-386l-1 82h252l-52 -22
q5 13 5.5 22.5t0.5 18.5q0 22 -7 35.5t-19.5 20t-28.5 6.5q-30 0 -50 -16t-31 -41.5t-15 -55t-4 -55.5q0 -27 10 -45t28 -26.5t41 -8.5q30 0 48 15t27 36l168 -58q-16 -41 -53 -69.5t-87.5 -43.5t-109.5 -15z" />
    <glyph glyph-name="uni1EC0" unicode="&#x1ec0;" horiz-adv-x="626" 
d="M236 712l136 162h174l61 -162h-123l-40 74l-75 -74h-133zM709 960l26 -148h-117l-62 148h153zM2 0l153 660h535l-35 -153h-331l-25 -107h261l-32 -142h-261l-24 -105h338l-36 -153h-543z" />
    <glyph glyph-name="uni1EC1" unicode="&#x1ec1;" horiz-adv-x="585" 
d="M630 800l26 -148h-117l-62 148h153zM157 552l136 162h174l61 -162h-123l-40 74l-75 -74h-133zM284 -9q-75 0 -133.5 27.5t-91 79t-32.5 120.5q0 87 35.5 152.5t100.5 102.5t153 37q78 0 132.5 -28t82.5 -76.5t28 -112.5q0 -20 -2 -41t-9 -41h-386l-1 82h252l-52 -22
q5 13 5.5 22.5t0.5 18.5q0 22 -7 35.5t-19.5 20t-28.5 6.5q-30 0 -50 -16t-31 -41.5t-15 -55t-4 -55.5q0 -27 10 -45t28 -26.5t41 -8.5q30 0 48 15t27 36l168 -58q-16 -41 -53 -69.5t-87.5 -43.5t-109.5 -15z" />
    <glyph glyph-name="uni1EC2" unicode="&#x1ec2;" horiz-adv-x="626" 
d="M236 712l136 162h174l61 -162h-123l-40 74l-75 -74h-133zM616 795l-22 59q38 8 49.5 23.5t11.5 28.5q0 12 -7.5 19t-21.5 7q-12 0 -21 -6t-17 -16l-72 58q15 29 49 48t81 19q48 0 83 -27t35 -77q0 -42 -20.5 -71t-53.5 -44t-74 -21zM2 0l153 660h535l-35 -153h-331
l-25 -107h261l-32 -142h-261l-24 -105h338l-36 -153h-543z" />
    <glyph glyph-name="uni1EC3" unicode="&#x1ec3;" horiz-adv-x="585" 
d="M537 635l-22 59q38 8 49.5 23.5t11.5 28.5q0 12 -8 19t-21 7q-12 0 -21 -6t-17 -16l-72 58q15 29 49 48t81 19q48 0 83 -27t35 -77q0 -42 -20.5 -71t-53.5 -44t-74 -21zM157 552l136 162h174l61 -162h-123l-40 74l-75 -74h-133zM284 -9q-75 0 -133.5 27.5t-91 79
t-32.5 120.5q0 87 35.5 152.5t100.5 102.5t153 37q78 0 132.5 -28t82.5 -76.5t28 -112.5q0 -20 -2 -41t-9 -41h-386l-1 82h252l-52 -22q5 13 5.5 22.5t0.5 18.5q0 22 -7 35.5t-19.5 20t-28.5 6.5q-30 0 -50 -16t-31 -41.5t-15 -55t-4 -55.5q0 -27 10 -45t28 -26.5t41 -8.5
q30 0 48 15t27 36l168 -58q-16 -41 -53 -69.5t-87.5 -43.5t-109.5 -15z" />
    <glyph glyph-name="uni1EC4" unicode="&#x1ec4;" horiz-adv-x="626" 
d="M236 712l136 162h174l61 -162h-123l-40 74l-75 -74h-133zM667 1048q-11 -77 -49 -114t-85 -37q-24 0 -41 7.5t-29.5 17.5t-24 17.5t-25.5 7.5t-22.5 -13.5t-13.5 -34.5h-96q11 77 46.5 114t86.5 37q20 0 36 -7t30 -17.5t27 -17.5t26 -7q14 0 23.5 12t14.5 35h96zM2 0
l153 660h535l-35 -153h-331l-25 -107h261l-32 -142h-261l-24 -105h338l-36 -153h-543z" />
    <glyph glyph-name="uni1EC5" unicode="&#x1ec5;" horiz-adv-x="585" 
d="M157 552l136 162h174l61 -162h-123l-40 74l-75 -74h-133zM588 888q-11 -77 -49 -114t-85 -37q-24 0 -41 7.5t-29.5 17.5t-24 17.5t-25.5 7.5t-22.5 -13.5t-13.5 -34.5h-97q12 77 47.5 114t86.5 37q20 0 36 -7t30 -17.5t27 -17.5t26 -7q14 0 23 12t15 35h96zM284 -9
q-75 0 -133.5 27.5t-91 79t-32.5 120.5q0 87 35.5 152.5t100.5 102.5t153 37q78 0 132.5 -28t82.5 -76.5t28 -112.5q0 -20 -2 -41t-9 -41h-386l-1 82h252l-52 -22q5 13 5.5 22.5t0.5 18.5q0 22 -7 35.5t-19.5 20t-28.5 6.5q-30 0 -50 -16t-31 -41.5t-15 -55t-4 -55.5
q0 -27 10 -45t28 -26.5t41 -8.5q30 0 48 15t27 36l168 -58q-16 -41 -53 -69.5t-87.5 -43.5t-109.5 -15z" />
    <glyph glyph-name="uni1EC6" unicode="&#x1ec6;" horiz-adv-x="626" 
d="M2 0l153 660h535l-35 -153h-331l-25 -107h261l-32 -142h-261l-24 -105h338l-36 -153h-543zM239 -224q-43 0 -69 16.5t-26 53.5q0 56 31 80.5t83 24.5q46 0 71.5 -17t25.5 -52q0 -58 -31 -82t-85 -24zM567 881l58 -166h-128l-41 87l-79 -87h-140l136 166h194z" />
    <glyph glyph-name="uni1EC7" unicode="&#x1ec7;" horiz-adv-x="585" 
d="M284 -9q-75 0 -133.5 27.5t-91 79t-32.5 120.5q0 87 35.5 152.5t100.5 102.5t153 37q78 0 132 -28t82.5 -78t28.5 -117q0 -20 -2 -40.5t-8 -40.5h-387l-1 88h252l-52 -23q5 13 5.5 22.5t0.5 18.5q0 22 -7 35.5t-19.5 20t-28.5 6.5q-30 0 -50 -16t-31 -41.5t-15 -55
t-4 -55.5q0 -27 10 -45t28 -26.5t41 -8.5q30 0 48 15t27 36l168 -58q-16 -41 -53 -69.5t-87.5 -43.5t-109.5 -15zM231 -224q-43 0 -69 16.5t-26 53.5q0 56 31 80.5t83 24.5q46 0 71.5 -17t25.5 -52q0 -58 -31 -82t-85 -24zM139 552l148 176h191l67 -176h-135l-45 79l-80 -79
h-146z" />
    <glyph glyph-name="uni1EC8" unicode="&#x1ec8;" horiz-adv-x="325" 
d="M360 660l-153 -660h-205l153 660h205zM251 694l-22 58q37 8 49 23.5t12 29.5q0 12 -8 18.5t-21 6.5t-22 -5.5t-16 -15.5l-73 58q16 28 49.5 47t81.5 19t83 -26.5t35 -76.5q0 -43 -20.5 -72t-54 -44t-73.5 -20z" />
    <glyph glyph-name="uni1EC9" unicode="&#x1ec9;" horiz-adv-x="299" 
d="M308 500l-116 -500h-202l116 500h202zM205 543l-22 58q38 9 50.5 24.5t12.5 28.5q0 12 -8 19t-21 7q-12 0 -21.5 -6t-17.5 -16l-71 58q16 28 49.5 47t81.5 19t82.5 -26.5t34.5 -76.5q0 -43 -20.5 -72t-54.5 -44t-75 -20z" />
    <glyph glyph-name="uni1ECA" unicode="&#x1eca;" horiz-adv-x="325" 
d="M360 660l-153 -660h-205l153 660h205zM66 -224q-43 0 -69 16.5t-26 53.5q0 56 31 80.5t83 24.5q46 0 71.5 -17t25.5 -52q0 -58 -31 -82t-85 -24z" />
    <glyph glyph-name="uni1ECB" unicode="&#x1ecb;" horiz-adv-x="299" 
d="M227 544q-51 0 -78.5 20t-21.5 65q7 52 36 73t84 21q52 0 79.5 -20.5t21.5 -62.5q-7 -56 -37 -76t-84 -20zM308 500l-116 -500h-202l116 500h202zM52 -224q-43 0 -69 16.5t-26 53.5q0 56 31 80.5t83 24.5q46 0 71.5 -17t25.5 -52q0 -58 -31 -82t-85 -24z" />
    <glyph glyph-name="uni1ECC" unicode="&#x1ecc;" horiz-adv-x="728" 
d="M352 -10q-85 0 -153.5 34.5t-108 99.5t-39.5 157q0 84 24.5 155.5t71 124t114 81t152.5 28.5q86 0 154 -34.5t107.5 -99.5t39.5 -157q0 -84 -24 -155t-70.5 -124t-114 -81.5t-153.5 -28.5zM357 147q39 0 67.5 23t47.5 60.5t28.5 81.5t9.5 85q0 38 -11.5 64t-34 39
t-56.5 13q-39 0 -67.5 -23t-47.5 -60.5t-28.5 -81.5t-9.5 -85q0 -37 11.5 -63.5t34.5 -39.5t56 -13zM290 -224q-43 0 -69 16.5t-26 53.5q0 56 31 80.5t83 24.5q46 0 71.5 -17t25.5 -52q0 -58 -31 -82t-85 -24z" />
    <glyph glyph-name="uni1ECD" unicode="&#x1ecd;" horiz-adv-x="602" 
d="M280 -10q-77 0 -134 29.5t-88.5 81t-31.5 117.5q0 79 34 145.5t99.5 106.5t161.5 40q78 0 135 -29.5t88.5 -80.5t31.5 -117q0 -79 -34 -146t-99.5 -107t-162.5 -40zM283 128q22 0 39.5 17t30 44t19 57t6.5 56q0 24 -7 39t-20.5 23t-32.5 8q-22 0 -39.5 -17t-30 -44
t-19.5 -57t-7 -56q0 -23 7.5 -38.5t21 -23.5t32.5 -8zM208 -224q-43 0 -69 16.5t-26 53.5q0 56 31 80.5t83 24.5q46 0 71.5 -17t25.5 -52q0 -58 -31 -82t-85 -24z" />
    <glyph glyph-name="uni1ECE" unicode="&#x1ece;" horiz-adv-x="728" 
d="M352 -10q-85 0 -153.5 34.5t-108 99.5t-39.5 157q0 84 24.5 155.5t71 124t114 81t152.5 28.5q86 0 154 -34.5t107.5 -99.5t39.5 -157q0 -84 -24 -155t-70.5 -124t-114 -81.5t-153.5 -28.5zM357 147q39 0 67.5 23t47.5 60.5t28.5 81.5t9.5 85q0 38 -11.5 64t-34 39
t-56.5 13q-39 0 -67.5 -23t-47.5 -60.5t-28.5 -81.5t-9.5 -85q0 -37 11.5 -63.5t34.5 -39.5t56 -13zM431 694l-22 58q37 8 49 23.5t12 29.5q0 12 -8 18.5t-21 6.5t-22 -5.5t-16 -15.5l-73 58q16 28 49.5 47t81.5 19t83 -26.5t35 -76.5q0 -43 -20.5 -72t-54 -44t-73.5 -20z
" />
    <glyph glyph-name="uni1ECF" unicode="&#x1ecf;" horiz-adv-x="602" 
d="M280 -10q-77 0 -134 29.5t-88.5 81t-31.5 117.5q0 79 34 145.5t99.5 106.5t161.5 40q78 0 135 -29.5t88.5 -80.5t31.5 -117q0 -79 -34 -146t-99.5 -107t-162.5 -40zM283 128q22 0 39.5 17t30 44t19 57t6.5 56q0 24 -7 39t-20.5 23t-32.5 8q-22 0 -39.5 -17t-30 -44
t-19.5 -57t-7 -56q0 -23 7.5 -38.5t21 -23.5t32.5 -8zM347 543l-22 58q38 9 50.5 24.5t12.5 28.5q0 12 -8 19t-21 7q-12 0 -21.5 -6t-17.5 -16l-71 58q16 28 49.5 47t81.5 19t82.5 -26.5t34.5 -76.5q0 -43 -20.5 -72t-54.5 -44t-75 -20z" />
    <glyph glyph-name="uni1ED0" unicode="&#x1ed0;" horiz-adv-x="728" 
d="M254 712l136 162h173l62 -162h-123l-40 74l-75 -74h-133zM702 960h162l-116 -148h-133zM352 -10q-85 0 -153.5 34.5t-108 99.5t-39.5 157q0 84 24.5 155.5t71 124t114 81t152.5 28.5q86 0 154 -34.5t107.5 -99.5t39.5 -157q0 -84 -24 -155t-70.5 -124t-114 -81.5
t-153.5 -28.5zM357 147q39 0 67.5 23t47.5 60.5t28.5 81.5t9.5 85q0 38 -11.5 64t-34 39t-56.5 13q-39 0 -67.5 -23t-47.5 -60.5t-28.5 -81.5t-9.5 -85q0 -37 11.5 -63.5t34.5 -39.5t56 -13z" />
    <glyph glyph-name="uni1ED1" unicode="&#x1ed1;" horiz-adv-x="602" 
d="M619 800h163l-116 -148h-133zM171 552l136 162h174l61 -162h-122l-41 74l-74 -74h-134zM280 -10q-77 0 -134 29.5t-88.5 81t-31.5 117.5q0 79 34 145.5t99.5 106.5t161.5 40q78 0 135 -29.5t88.5 -80.5t31.5 -117q0 -79 -34 -146t-99.5 -107t-162.5 -40zM283 128
q22 0 39.5 17t30 44t19 57t6.5 56q0 24 -7 39t-20.5 23t-32.5 8q-22 0 -39.5 -17t-30 -44t-19.5 -57t-7 -56q0 -23 7.5 -38.5t21 -23.5t32.5 -8z" />
    </font>
</defs>
</svg>
