<?xml version="1.0" standalone="no"?>
<!DOCTYPE svg PUBLIC "-//W3C//DTD SVG 1.1//EN" "http://www.w3.org/Graphics/SVG/1.1/DTD/svg11.dtd" >
<svg xmlns="http://www.w3.org/2000/svg" xmlns:xlink="http://www.w3.org/1999/xlink" version="1.1">
<metadata>
Created by FontForge 20170731 at Wed Aug 11 21:25:12 2021
 By Aleksey,,,
Copyright 2019 The Work Sans Project Authors (https://github.com/weiweihuanghuang/Work-Sans)
</metadata>
<defs>
<font id="WorkSans-BoldItalic" horiz-adv-x="626" >
  <font-face 
    font-family="Work Sans"
    font-weight="700"
    font-style="italic"
    font-stretch="normal"
    units-per-em="1000"
    panose-1="0 0 0 0 0 0 0 0 0 0"
    ascent="800"
    descent="-200"
    x-height="500"
    cap-height="660"
    bbox="-301 -310 1380 1098"
    underline-thickness="50"
    underline-position="-175"
    slope="-13"
    unicode-range="U+000D-FB02"
  />
<missing-glyph horiz-adv-x="500" 
d="M130 80v500h240v-500h-240zM50 0h400v660h-400v-660z" />
    <glyph glyph-name="fi" unicode="fi" horiz-adv-x="705" 
d="M42 0l127 549q16 67 48 105.5t78 55t103 16.5q38 0 68 -7t48 -18l-38 -109q-9 5 -23.5 9t-35.5 4q-39 0 -59 -14.5t-28 -52.5l-16 -68l1 -28l-103 -442h-170zM42 379l28 121h390l-28 -121h-390zM642 558q-44 0 -68.5 18t-19.5 58q5 46 31 66.5t73 20.5q45 0 69.5 -19
t19.5 -56q-5 -49 -31.5 -68.5t-73.5 -19.5zM704 500l-116 -500h-170l116 500h170z" />
    <glyph glyph-name="fl" unicode="fl" horiz-adv-x="751" 
d="M42 0l127 549q16 67 48 105.5t78 55t103 16.5q38 0 68 -7t48 -18l-38 -109q-9 5 -23.5 9t-35.5 4q-39 0 -59 -14.5t-28 -52.5l-16 -68l1 -28l-103 -442h-170zM42 379l28 121h390l-28 -121h-390zM605 -9q-90 0 -126.5 49.5t-16.5 132.5l125 539h170l-124 -537
q-9 -33 3 -49.5t44 -16.5q12 0 21 1t15 3l-30 -110q-16 -7 -35 -9.5t-46 -2.5z" />
    <glyph glyph-name="f_f" unicode="ff" horiz-adv-x="786" 
d="M42 0l127 549q16 67 48 105.5t78 55t103 16.5q38 0 68 -7t48 -18l-38 -109q-9 5 -23.5 9t-35.5 4q-39 0 -59 -14.5t-28 -52.5l-16 -68l1 -28l-103 -442h-170zM42 379l28 121h390l-28 -121h-390zM415 0l127 549q16 67 48 105.5t78 55t103 16.5q38 0 68 -7t48 -18l-38 -109
q-9 5 -23.5 9t-35.5 4q-39 0 -59 -14.5t-28 -52.5l-16 -68l1 -28l-103 -442h-170zM415 379l28 121h390l-28 -121h-390z" />
    <glyph glyph-name="f_f_i" unicode="ffi" horiz-adv-x="1077" 
d="M42 0l127 549q16 67 48 105.5t78 55t103 16.5q38 0 68 -7t48 -18l-38 -109q-9 5 -23.5 9t-35.5 4q-39 0 -59 -14.5t-28 -52.5l-16 -68l1 -28l-103 -442h-170zM42 379l28 121h390l-28 -121h-390zM415 0l127 549q16 67 48 105.5t78 55t103 16.5q38 0 68 -7t48 -18l-38 -109
q-9 5 -23.5 9t-35.5 4q-39 0 -59 -14.5t-28 -52.5l-16 -68l1 -28l-103 -442h-170zM415 379l28 121h390l-28 -121h-390zM1014 558q-44 0 -68.5 18t-19.5 58q5 46 31 66.5t73 20.5q45 0 69.5 -19t19.5 -56q-5 -49 -31.5 -68.5t-73.5 -19.5zM1076 500l-116 -500h-170l116 500
h170z" />
    <glyph glyph-name="f_f_l" unicode="ffl" horiz-adv-x="1124" 
d="M42 0l127 549q16 67 48 105.5t78 55t103 16.5q38 0 68 -7t48 -18l-38 -109q-9 5 -23.5 9t-35.5 4q-39 0 -59 -14.5t-28 -52.5l-16 -68l1 -28l-103 -442h-170zM42 379l28 121h390l-28 -121h-390zM415 0l127 549q16 67 48 105.5t78 55t103 16.5q38 0 68 -7t48 -18l-38 -109
q-9 5 -23.5 9t-35.5 4q-39 0 -59 -14.5t-28 -52.5l-16 -68l1 -28l-103 -442h-170zM415 379l28 121h390l-28 -121h-390zM977 -9q-90 0 -126.5 49.5t-16.5 132.5l125 539h170l-124 -537q-9 -33 3 -49.5t44 -16.5q12 0 21 1t15 3l-30 -110q-16 -7 -35 -9.5t-46 -2.5z" />
    <glyph glyph-name=".notdef" horiz-adv-x="500" 
d="M130 80v500h240v-500h-240zM50 0h400v660h-400v-660z" />
    <glyph glyph-name=".null" horiz-adv-x="0" 
 />
    <glyph glyph-name="nonmarkingreturn" horiz-adv-x="333" 
 />
    <glyph glyph-name="NULL" horiz-adv-x="0" 
 />
    <glyph glyph-name="NULL" horiz-adv-x="0" 
 />
    <glyph glyph-name="CR" unicode="&#xd;" horiz-adv-x="284" 
 />
    <glyph glyph-name="space" unicode=" " horiz-adv-x="284" 
 />
    <glyph glyph-name="exclam" unicode="!" horiz-adv-x="300" 
d="M71 215l34 232l49 213h178l-49 -213l-74 -232h-138zM106 -8q-41 0 -65.5 18t-24.5 53q0 44 27 70.5t74 26.5q40 0 65 -18.5t25 -53.5q0 -44 -27 -70t-74 -26z" />
    <glyph glyph-name="quotedbl" unicode="&#x22;" horiz-adv-x="451" 
d="M507 678l-94 -277h-118l65 277h147zM308 678l-94 -277h-118l65 277h147z" />
    <glyph glyph-name="numbersign" unicode="#" horiz-adv-x="688" 
d="M317 0l213 660h120l-214 -660h-119zM32 159v102h593v-102h-593zM71 0l214 660h119l-213 -660h-120zM100 399v102h593v-102h-593z" />
    <glyph glyph-name="dollar" unicode="$" horiz-adv-x="634" 
d="M328 -1q-70 0 -132.5 17t-113 52.5t-84.5 90.5l102 94q22 -44 59.5 -73.5t83.5 -45t93 -15.5q33 0 55 9.5t32.5 25t10.5 34.5q0 22 -16.5 36t-57.5 26l-106 31q-48 15 -83.5 39t-55 58t-19.5 77q0 66 34.5 111.5t95.5 69.5t138 24q59 0 113.5 -15t100.5 -46.5t76 -79.5
l-98 -88q-25 41 -55.5 64.5t-66 34.5t-77.5 11q-53 0 -80.5 -20t-27.5 -47q0 -13 7 -25t21.5 -21.5t34.5 -15.5l133 -39q67 -20 103 -60.5t36 -98.5q0 -70 -34.5 -118t-92.5 -72.5t-129 -24.5zM191 -88l194 836h105l-193 -836h-106z" />
    <glyph glyph-name="percent" unicode="%" horiz-adv-x="1001" 
d="M137 0l621 661h142l-620 -661h-143zM257 294q-51 0 -90 21t-60.5 59t-21.5 88q0 59 26 105.5t71 74.5t103 28q52 0 91 -21t60.5 -58.5t21.5 -88.5q0 -58 -26 -105t-71.5 -75t-103.5 -28zM263 408q22 0 37 13t24 33.5t9 43.5q0 27 -14.5 42.5t-38.5 15.5q-22 0 -38 -13
t-24 -33.5t-8 -43.5q0 -27 14.5 -42.5t38.5 -15.5zM753 -9q-51 0 -90 20.5t-60.5 58.5t-21.5 88q0 59 26 106t71 75t103 28q52 0 91 -21t60.5 -58.5t21.5 -88.5q0 -58 -26 -105.5t-71.5 -75t-103.5 -27.5zM759 105q22 0 37 12.5t24 33.5t9 44q0 26 -14.5 42t-38.5 16
q-22 0 -38 -13t-24 -33.5t-8 -44.5q0 -26 14.5 -41.5t38.5 -15.5z" />
    <glyph glyph-name="ampersand" unicode="&#x26;" horiz-adv-x="643" 
d="M230 -10q-68 0 -117 23t-75 64.5t-26 95.5q0 63 28 107.5t79 71.5t118 37l47 22q39 7 70 17.5t49 29.5t18 50q0 25 -14 38t-36 13q-33 0 -50 -22t-17 -55q0 -17 3.5 -37.5t14 -46t28 -59t44.5 -77.5q30 -48 61.5 -86t68.5 -58.5t81 -16.5l-30 -111h-17q-55 0 -100 22
t-85 65.5t-81 106.5q-45 67 -71.5 118.5t-38 94t-11.5 80.5q0 57 26 100.5t72.5 68t109.5 24.5q79 0 125 -36.5t46 -97.5q0 -59 -31 -101t-84.5 -67.5t-123.5 -38.5l-7 -19q-41 -9 -73 -23.5t-50.5 -38t-18.5 -58.5q0 -43 29 -66.5t77 -23.5q39 0 67.5 16t56.5 42l21 12
q27 24 46.5 59.5t29.5 85.5l115 -3q-17 -69 -51 -126.5t-80 -93.5l-21 -14q-29 -24 -61.5 -44t-71.5 -32t-89 -12z" />
    <glyph glyph-name="quotesingle" unicode="'" horiz-adv-x="251" 
d="M308 678l-94 -277h-118l65 277h147z" />
    <glyph glyph-name="parenleft" unicode="(" horiz-adv-x="393" 
d="M201 -191q-64 77 -98.5 172.5t-34.5 206.5q0 88 24 169.5t68.5 153t108 129t141.5 96.5l62 -80q-85 -57 -142 -133t-85 -166.5t-28 -196.5q0 -81 20 -150.5t56 -127.5z" />
    <glyph glyph-name="parenright" unicode=")" horiz-adv-x="393" 
d="M203 736q64 -77 98.5 -172.5t34.5 -206.5q0 -88 -24 -169.5t-68.5 -153t-108 -129t-142.5 -96.5l-61 79q85 59 141.5 134t84.5 166.5t28 195.5q0 82 -19.5 151t-55.5 127z" />
    <glyph glyph-name="asterisk" unicode="*" horiz-adv-x="585" 
d="M389 237l-51 121l-10 38l-28 -37l-102 -103l-82 84l106 99l37 27l-38 11l-120 54l60 108l116 -61l35 -23l3 45l26 130h123l-37 -143l-16 -42l42 15l138 31l10 -117l-138 -25l-45 -3l23 -35l57 -118z" />
    <glyph glyph-name="plus" unicode="+" horiz-adv-x="604" 
d="M448 589l-122 -529h-135l122 529h135zM585 386l-28 -122h-503l28 122h503z" />
    <glyph glyph-name="comma" unicode="," horiz-adv-x="282" 
d="M107 172q52 0 75.5 -28.5t23.5 -72.5q0 -49 -26 -96.5t-73 -83.5t-111 -50l-39 65q38 9 68 23.5t50.5 33.5t31.5 39l-2 2q-6 -3 -12.5 -4.5t-17.5 -1.5q-29 0 -50 22.5t-21 53.5q0 45 28.5 71.5t74.5 26.5z" />
    <glyph glyph-name="hyphen" unicode="-" horiz-adv-x="528" 
d="M467 337l-32 -139h-366l32 139h366z" />
    <glyph glyph-name="period" unicode="." horiz-adv-x="286" 
d="M99 -8q-42 0 -67.5 19.5t-25.5 56.5q0 47 28 75.5t76 28.5q42 0 67.5 -20t25.5 -57q0 -47 -27.5 -75t-76.5 -28z" />
    <glyph glyph-name="slash" unicode="/" horiz-adv-x="461" 
d="M557 712l-453 -782h-168l453 782h168z" />
    <glyph glyph-name="zero" unicode="0" horiz-adv-x="642" 
d="M307 -10q-81 0 -136.5 32t-83.5 90t-28 137q0 30 3 59.5t9 59.5q13 61 36.5 116t59.5 97t88 66t121 24q80 0 134 -32.5t82 -90.5t28 -137q0 -29 -3 -58t-9 -59q-13 -61 -36 -116t-59 -97.5t-87 -66.5t-119 -24zM309 125q34 0 58 21t42.5 62.5t32.5 99.5q10 36 14 66t4 54
q0 56 -22.5 82.5t-64.5 26.5q-34 0 -59.5 -21.5t-44 -62.5t-33.5 -101q-9 -34 -13.5 -64.5t-4.5 -54.5q0 -38 11 -62t32 -35t48 -11z" />
    <glyph glyph-name="one" unicode="1" horiz-adv-x="425" 
d="M122 0l86 372q8 30 15 58.5t17 57.5q-23 -19 -53.5 -35.5t-62 -28t-60.5 -16.5l20 146q34 7 75 24t80.5 39.5t65.5 42.5h136l-153 -660h-166z" />
    <glyph glyph-name="two" unicode="2" horiz-adv-x="579" 
d="M3 0l27 114q67 41 132.5 84t119 87t85.5 88.5t32 88.5q0 33 -20.5 53t-55.5 20q-48 0 -76 -33.5t-38 -92.5l-143 55q14 63 49 109.5t91 71.5t133 25q78 0 129.5 -26.5t77 -68.5t25.5 -90q0 -52 -20.5 -96.5t-55 -81.5t-78.5 -69t-91.5 -59t-91.5 -51v-1q18 2 51 3t63 1
h180l-31 -131h-494z" />
    <glyph glyph-name="three" unicode="3" horiz-adv-x="583" 
d="M285 -10q-117 0 -185 54.5t-78 143.5l160 34q3 -50 28 -74.5t72 -24.5q27 0 47 11t30.5 30.5t10.5 42.5q0 43 -28 57t-65 14q-7 0 -12.5 -0.5t-12.5 -1.5l25 111q8 -2 18.5 -3t21.5 -1q30 0 51 10.5t32 29t11 44.5q0 25 -11.5 40t-29 22.5t-38.5 7.5q-42 0 -64.5 -20
t-33.5 -58l-144 54q28 77 92.5 117t159.5 40q72 0 124.5 -21t80.5 -59.5t28 -92.5q0 -48 -19 -85t-52.5 -59t-78.5 -25l-1 -4q30 -4 55.5 -19.5t40.5 -42.5t15 -66q0 -66 -34.5 -112t-91.5 -70t-124 -24z" />
    <glyph glyph-name="four" unicode="4" horiz-adv-x="630" 
d="M288 0l33 145h-306l27 118q19 26 40 51t43 51l260 295h207l-92 -397h115l-27 -118h-115l-34 -145h-151zM174 263h174l66 272l-164 -190q-18 -21 -37 -41t-39 -41z" />
    <glyph glyph-name="five" unicode="5" horiz-adv-x="570" 
d="M273 -10q-65 0 -117 21.5t-87.5 59t-49.5 85.5l156 55q4 -25 15 -45.5t32.5 -33t56.5 -12.5t57.5 15t34 39.5t11.5 53.5q0 28 -13 46.5t-35.5 28.5t-51.5 10q-28 0 -48.5 -7.5t-40.5 -21.5l-123 29l111 347h411l-32 -133h-279l-50 -146q22 21 53 32.5t71 11.5
q54 0 95.5 -22t65 -62.5t23.5 -95.5q0 -78 -34.5 -135t-94 -88.5t-137.5 -31.5z" />
    <glyph glyph-name="six" unicode="6" horiz-adv-x="602" 
d="M324 -11q-81 0 -140 32t-91 92t-32 143t21 156.5t63 131t104.5 90.5t145.5 33q89 0 149 -42t74 -118l-146 -57q-2 37 -26 59.5t-63 22.5q-37 0 -65.5 -18.5t-48 -49.5t-31 -68t-15.5 -74q20 39 64.5 60.5t95.5 21.5q83 0 134.5 -48t51.5 -129q0 -69 -30.5 -123
t-85.5 -84.5t-129 -30.5zM320 115q30 0 50.5 13.5t31 36t10.5 50.5q0 36 -24.5 57.5t-65.5 21.5q-29 0 -50.5 -13t-32.5 -34.5t-11 -46.5q0 -20 7 -36t19 -26.5t29 -16.5t37 -6z" />
    <glyph glyph-name="seven" unicode="7" horiz-adv-x="598" 
d="M127 660h530l-30 -125q-88 -75 -148.5 -158t-97.5 -177t-59 -200h-170q20 109 66 210t122 193t184 171l20 -49h-449z" />
    <glyph glyph-name="eight" unicode="8" horiz-adv-x="629" 
d="M318 -11q-56 0 -107.5 12t-92 36.5t-64 60.5t-23.5 83q0 52 21.5 88t60.5 57.5t91 29.5l-2 -6q-26 13 -44.5 32.5t-28 44t-9.5 51.5q0 62 31 104t84.5 64.5t119.5 22.5q70 0 128.5 -20.5t94.5 -60t36 -98.5q0 -67 -39.5 -112t-109.5 -60v6q32 -14 54.5 -34.5t35 -46.5
t12.5 -58q0 -63 -33 -107t-89.5 -66.5t-126.5 -22.5zM309 115q29 0 50.5 10.5t32.5 29.5t11 44q0 26 -14.5 44t-39 28t-54.5 10q-29 0 -51 -11.5t-33.5 -30.5t-11.5 -43q0 -25 14.5 -43t39.5 -28t56 -10zM366 389q27 0 46.5 11t30.5 29.5t11 41.5q0 32 -24.5 52.5
t-65.5 20.5q-28 0 -48 -11t-30.5 -29.5t-10.5 -40.5q0 -21 11 -37.5t31.5 -26.5t48.5 -10z" />
    <glyph glyph-name="nine" unicode="9" horiz-adv-x="607" 
d="M261 -10q-62 0 -111.5 21t-81 60t-39.5 94l156 40q3 -23 13 -42t29.5 -30.5t46.5 -11.5q35 0 60 16t43 44t28 64t15 75q-11 -24 -32.5 -41t-49 -25t-57.5 -8q-60 0 -105.5 24t-70.5 67t-25 99q0 69 33.5 121.5t91.5 82.5t130 30q80 0 135 -30t84 -88.5t29 -143.5
q0 -80 -19.5 -154.5t-59 -134t-100.5 -94.5t-143 -35zM327 362q29 0 50.5 12t33.5 33.5t12 49.5q0 26 -12 44.5t-32 28.5t-46 10q-30 0 -52 -12.5t-33 -33.5t-11 -48q0 -23 10.5 -42.5t31 -30.5t48.5 -11z" />
    <glyph glyph-name="colon" unicode=":" horiz-adv-x="296" 
d="M116 -8q-42 0 -67.5 19.5t-25.5 56.5q0 47 28 75.5t76 28.5q42 0 67.5 -20t25.5 -57q0 -47 -27.5 -75t-76.5 -28zM206 382q-42 0 -67.5 19.5t-25.5 56.5q0 47 28 75.5t76 28.5q42 0 67.5 -20t25.5 -57q0 -47 -27.5 -75t-76.5 -28z" />
    <glyph glyph-name="semicolon" unicode=";" horiz-adv-x="300" 
d="M194 510q43 0 68.5 -19.5t25.5 -56.5q0 -48 -27.5 -76t-76.5 -28q-43 0 -68.5 20t-25.5 57q0 47 28.5 75t75.5 28zM112 172q52 0 75.5 -28.5t23.5 -72.5q0 -49 -25.5 -96.5t-72.5 -83.5t-111 -50l-40 65q38 9 68 23.5t51 33.5t32 39l-3 2q-6 -3 -12 -4.5t-17 -1.5
q-29 0 -50.5 22.5t-21.5 53.5q0 45 29 71.5t74 26.5z" />
    <glyph glyph-name="less" unicode="&#x3c;" horiz-adv-x="604" 
d="M631 588l-39 -166l-382 -128l320 -142l-33 -147l-441 218l34 147z" />
    <glyph glyph-name="equal" unicode="=" horiz-adv-x="604" 
d="M593 483l-27 -117h-474l26 117h475zM543 267l-27 -117h-475l28 117h474z" />
    <glyph glyph-name="greater" unicode="&#x3e;" horiz-adv-x="605" 
d="M-5 5l39 166l381 128l-319 142l33 147l440 -218l-33 -147z" />
    <glyph glyph-name="question" unicode="?" horiz-adv-x="598" 
d="M196 214l35 153q56 0 100 9t70.5 32t26.5 63q0 31 -22 47t-58 16q-43 0 -70 -23.5t-40 -67.5l-156 61q16 46 51.5 83.5t93 59.5t139.5 22q72 0 126 -21t84.5 -60.5t30.5 -94.5q0 -63 -28 -106.5t-82 -68.5t-130 -32l-21 -72h-150zM240 -8q-41 0 -65.5 18.5t-24.5 52.5
q0 44 27 70t74 26q40 0 64.5 -18t24.5 -53q0 -44 -26.5 -70t-73.5 -26z" />
    <glyph glyph-name="at" unicode="@" horiz-adv-x="934" 
d="M460 -186q-119 0 -213 45.5t-148 132t-54 209.5q0 104 33.5 189t95 146.5t145 95t183.5 33.5q87 0 158.5 -25.5t123 -73t79 -115t27.5 -152.5q0 -81 -20.5 -139t-53.5 -94.5t-72.5 -54t-77.5 -17.5q-44 0 -74.5 15t-46.5 43t-15 65q-22 -50 -64 -79t-91 -29
q-43 0 -77.5 22.5t-54 65.5t-19.5 102q0 51 14.5 98.5t43 86t68.5 61t90 22.5q29 0 55.5 -10.5t46 -33t26.5 -58.5l21 93h147l-66 -286q-2 -12 -4 -23t-2 -21q0 -26 12 -37t34 -11q20 0 39 13t33.5 39.5t23 67t8.5 95.5q0 72 -22.5 127t-64.5 92.5t-99.5 57t-128.5 19.5
q-81 0 -149 -27.5t-117 -78.5t-76 -122.5t-27 -161.5q0 -77 26.5 -136t73.5 -98.5t108 -59t129 -19.5q54 0 95 10.5t70 24.5l24 -67q-24 -11 -52.5 -20.5t-63 -15.5t-80.5 -6zM442 118q30 0 52.5 24.5t35 61t12.5 73.5q0 25 -8 42.5t-23 27.5t-37 10q-25 0 -44.5 -14.5
t-33 -37.5t-20.5 -49.5t-7 -52.5q0 -27 8.5 -46t24.5 -29t40 -10z" />
    <glyph glyph-name="A" unicode="A" horiz-adv-x="671" 
d="M-55 0l382 660h208l74 -660h-163l-13 155h-225l-84 -155h-179zM270 272h157l-20 256z" />
    <glyph glyph-name="B" unicode="B" horiz-adv-x="683" 
d="M14 0l153 660h307q92 0 144.5 -41t52.5 -113q0 -50 -21 -87.5t-56 -60.5t-79 -31v-1q54 -5 88 -40t34 -87q0 -67 -32.5 -111t-90 -66t-134.5 -22h-366zM208 121h143q53 0 82.5 21t29.5 62q0 20 -9 34t-27 21t-45 7h-140zM270 389h122q33 0 56.5 11t35.5 30t12 44
q0 32 -21.5 46t-56.5 14h-114z" />
    <glyph glyph-name="C" unicode="C" horiz-adv-x="688" 
d="M356 -10q-85 0 -152 34t-106 98t-39 153q0 84 24 155.5t70 125.5t112.5 84t152.5 30q74 0 132 -25t95 -72.5t49 -117.5l-165 -37q-6 60 -34 88.5t-82 28.5q-46 0 -80 -24.5t-57 -63.5t-33.5 -85t-10.5 -90q0 -46 16 -78.5t46.5 -50.5t72.5 -18q51 0 80 26.5t49 69.5
l154 -60q-43 -79 -114 -125t-180 -46z" />
    <glyph glyph-name="D" unicode="D" horiz-adv-x="708" 
d="M14 0l153 660h233q94 0 157.5 -34t96.5 -95t33 -141q0 -87 -25 -158.5t-73 -123t-116.5 -80t-154.5 -28.5h-304zM216 130h96q50 0 88 22t63 59.5t37.5 83.5t12.5 94q0 43 -14.5 74.5t-43.5 49t-74 17.5h-72z" />
    <glyph glyph-name="E" unicode="E" 
d="M14 0l153 660h514l-32 -133h-341l-31 -134h269l-29 -125h-269l-31 -135h352l-31 -133h-524z" />
    <glyph glyph-name="F" unicode="F" horiz-adv-x="599" 
d="M637 527h-329l-33 -140h270l-31 -133h-269l-59 -254h-172l153 660h501z" />
    <glyph glyph-name="G" unicode="G" horiz-adv-x="715" 
d="M322 -9q-74 0 -133.5 34.5t-94.5 98.5t-35 153q0 80 24 150.5t70 125.5t113.5 86t155.5 31q73 0 131.5 -23.5t97 -69.5t48.5 -113l-162 -31q-7 50 -37 76t-82 26q-42 0 -76.5 -19t-59 -53t-37.5 -78.5t-13 -94.5q0 -52 16 -90t48 -58.5t80 -20.5q38 0 66 12t46 33.5
t27 49.5l8 22h-158l26 114h294l-88 -352h-114l33 155l15 -16q-18 -48 -46 -81t-68 -50t-95 -17z" />
    <glyph glyph-name="H" unicode="H" horiz-adv-x="736" 
d="M759 660l-153 -660h-172l153 660h172zM339 660l-153 -660h-172l153 660h172zM619 399l-31 -133h-428l31 133h428z" />
    <glyph glyph-name="I" unicode="I" horiz-adv-x="316" 
d="M339 660l-153 -660h-172l153 660h172z" />
    <glyph glyph-name="J" unicode="J" horiz-adv-x="609" 
d="M262 -9q-74 0 -126 23.5t-80.5 64t-32.5 93t18 110.5l171 7q-21 -55 -19 -91.5t23 -54.5t58 -18q47 0 69 32t39 107l91 396h172l-98 -426q-16 -72 -49 -127t-90 -85.5t-146 -30.5z" />
    <glyph glyph-name="K" unicode="K" horiz-adv-x="685" 
d="M14 0l153 660h172l-63 -268l294 268h195l-297 -277l150 -383h-177l-106 274l-108 -97l-41 -177h-172z" />
    <glyph glyph-name="L" unicode="L" horiz-adv-x="603" 
d="M217 133h333l-31 -133h-505l153 660h172z" />
    <glyph glyph-name="M" unicode="M" horiz-adv-x="904" 
d="M14 0l153 660h217l32 -320l9 -163h1l80 163l175 320h246l-153 -660h-152l70 303l47 195h-2l-277 -498h-132l-54 494h-2l-36 -191l-70 -303h-152z" />
    <glyph glyph-name="N" unicode="N" horiz-adv-x="735" 
d="M14 0l153 660h184l119 -363l31 -108h1l27 138l78 333h151l-153 -660h-181l-123 357l-31 108h-2l-25 -132l-77 -333h-152z" />
    <glyph glyph-name="O" unicode="O" horiz-adv-x="732" 
d="M354 -10q-82 0 -149 34t-106 99.5t-39 157.5q0 82 23.5 153t69 124t112 82.5t151.5 29.5q83 0 149 -34.5t105 -99t39 -157.5q0 -82 -23.5 -152.5t-69 -124t-111.5 -83t-151 -29.5zM360 125q45 0 77.5 24t54.5 63.5t33 86.5t11 92q0 46 -15 78t-43 49t-69 17
q-44 0 -77 -24t-55 -63.5t-33 -86t-11 -92.5t15 -78t43.5 -49t68.5 -17z" />
    <glyph glyph-name="P" unicode="P" horiz-adv-x="664" 
d="M14 0l153 660h248q118 0 184.5 -52.5t66.5 -145.5q0 -72 -34 -127.5t-98 -87t-152 -31.5h-226l29 129h192q39 0 65.5 14.5t40 38t13.5 51.5q0 38 -24 60t-76 22h-87l-123 -531h-172z" />
    <glyph glyph-name="Q" unicode="Q" horiz-adv-x="732" 
d="M469 -204q-40 0 -78 10t-68 30t-48 50.5t-18 72.5q0 12 1.5 26.5t6.5 32.5l115 7q-4 -10 -5.5 -19.5t-1.5 -17.5q0 -34 30.5 -48.5t79.5 -14.5q35 0 61 6t48 17l2 -123q-24 -14 -55.5 -21.5t-69.5 -7.5zM354 -10q-82 0 -149 34t-106 99.5t-39 157.5q0 82 23.5 153t69 124
t112 82.5t151.5 29.5q83 0 149 -34.5t105 -99t39 -157.5q0 -82 -23.5 -152.5t-69 -124t-111.5 -83t-151 -29.5zM360 125q45 0 77.5 24t54.5 63.5t33 86.5t11 92q0 46 -15 78t-43 49t-69 17q-44 0 -77 -24t-55 -63.5t-33 -86t-11 -92.5t15 -78t43.5 -49t68.5 -17z" />
    <glyph glyph-name="R" unicode="R" horiz-adv-x="677" 
d="M14 0l153 660h283q102 0 161.5 -49.5t59.5 -138.5q0 -72 -33.5 -122t-90.5 -77.5t-129 -30.5l-38 -9h-158l28 122h131q39 0 65.5 13t40.5 36.5t14 51.5q0 39 -26 56.5t-67 17.5h-102l-123 -530h-169zM441 0l-108 286l156 24l126 -310h-174z" />
    <glyph glyph-name="S" unicode="S" horiz-adv-x="640" 
d="M332 -11q-70 0 -132 18.5t-111.5 54.5t-84.5 91l101 99q24 -42 60.5 -71.5t79.5 -44t86 -14.5q31 0 50.5 9t29.5 24t10 32q0 22 -16 34.5t-48 22.5l-99 32q-45 15 -81.5 39.5t-57.5 60.5t-21 83q0 67 34.5 114t95 72t138.5 25q103 0 174 -36.5t117 -102.5l-105 -96
q-21 35 -50.5 57.5t-64.5 33.5t-71 11q-30 0 -50 -8t-29.5 -21.5t-9.5 -31.5q0 -20 19.5 -36.5t51.5 -26.5l99 -32q75 -24 114 -65.5t39 -108.5q0 -68 -35.5 -117t-96.5 -75t-136 -26z" />
    <glyph glyph-name="T" unicode="T" horiz-adv-x="648" 
d="M719 660l-31 -133h-213l-122 -527h-172l122 527h-215l31 133h600z" />
    <glyph glyph-name="U" unicode="U" horiz-adv-x="704" 
d="M329 -10q-99 0 -165 36t-92 104t-4 163l86 367h172l-89 -391q-10 -47 0.5 -79t38 -48.5t68.5 -16.5q55 0 86 33t45 97l94 405h171l-95 -410q-30 -128 -106 -194t-210 -66z" />
    <glyph glyph-name="V" unicode="V" horiz-adv-x="663" 
d="M756 660l-380 -660h-202l-73 660h164l30 -395l6 -130l60 129l219 396h176z" />
    <glyph glyph-name="W" unicode="W" horiz-adv-x="988" 
d="M139 0l-36 660h169l1 -515l224 515h159l8 -517l222 517h188l-342 -660h-191l-5 320l9 166h-3l-68 -166l-144 -320h-191z" />
    <glyph glyph-name="X" unicode="X" horiz-adv-x="660" 
d="M-51 0l307 343l-139 317h187l75 -196l158 196h194l-290 -326l152 -334h-186l-81 206l-170 -206h-207z" />
    <glyph glyph-name="Y" unicode="Y" horiz-adv-x="653" 
d="M182 0l57 245l-133 415h166l54 -182l25 -110l71 112l130 180h184l-328 -427l-54 -233h-172z" />
    <glyph glyph-name="Z" unicode="Z" horiz-adv-x="623" 
d="M-17 0l30 131l437 399h-352l31 130h544l-30 -130l-437 -400h365l-30 -130h-558z" />
    <glyph glyph-name="bracketleft" unicode="[" horiz-adv-x="390" 
d="M444 594h-133l-149 -643h133l-27 -119h-281l204 881h280z" />
    <glyph glyph-name="backslash" unicode="\" horiz-adv-x="466" 
d="M117 712h149l116 -782h-149z" />
    <glyph glyph-name="bracketright" unicode="]" horiz-adv-x="390" 
d="M-44 -49h133l149 643h-134l28 119h280l-203 -881h-281z" />
    <glyph glyph-name="asciicircum" unicode="^" horiz-adv-x="612" 
d="M49 355l295 369h144l124 -369h-144l-77 257l-186 -257h-156z" />
    <glyph glyph-name="underscore" unicode="_" horiz-adv-x="539" 
d="M466 -66l-31 -135h-539l31 135h539z" />
    <glyph glyph-name="grave" unicode="`" horiz-adv-x="500" 
d="M406 738l30 -173h-117l-69 173h156z" />
    <glyph glyph-name="a" unicode="a" horiz-adv-x="618" 
d="M205 -9q-50 0 -89.5 23.5t-62 68t-22.5 109.5q0 60 17 117t49.5 102.5t78 72t102.5 26.5q33 0 63.5 -12t52 -37t29.5 -66l24 105h170l-116 -500h-154l17 94q-24 -48 -66 -75.5t-93 -27.5zM279 115q25 0 46 16t36.5 42.5t24 58t8.5 62.5q0 28 -9.5 48.5t-26.5 31.5t-41 11
q-28 0 -50 -16.5t-37 -42.5t-23 -56.5t-8 -58.5q0 -30 9 -51.5t26.5 -33t44.5 -11.5z" />
    <glyph glyph-name="b" unicode="b" horiz-adv-x="618" 
d="M422 509q49 0 86 -22.5t58 -67t21 -110.5q0 -60 -17 -117t-48.5 -102.5t-75 -72.5t-97.5 -27q-36 0 -69 12.5t-56 37.5t-31 64l-27 -104h-166l165 712h170l-67 -292q25 41 65.5 65t88.5 24zM302 115q27 0 48.5 16.5t36.5 42t23.5 56.5t8.5 60q0 31 -9.5 52t-27 31.5
t-41.5 10.5q-27 0 -48.5 -15.5t-37 -41.5t-23.5 -58t-8 -64q0 -41 20 -65.5t58 -24.5z" />
    <glyph glyph-name="c" unicode="c" horiz-adv-x="563" 
d="M286 -10q-79 0 -135.5 29.5t-86.5 81t-30 117.5q0 81 33.5 147t98 105.5t155.5 39.5q69 0 120.5 -23t81 -64t31.5 -96l-163 -26q3 39 -13.5 63t-57.5 24q-28 0 -50 -16.5t-37.5 -43.5t-24 -59.5t-8.5 -65.5q0 -28 10.5 -49t30 -32.5t46.5 -11.5t50.5 18.5t32.5 49.5
l152 -49q-28 -65 -89.5 -102t-146.5 -37z" />
    <glyph glyph-name="d" unicode="d" horiz-adv-x="618" 
d="M205 -9q-50 0 -89.5 23.5t-62 68t-22.5 109.5q0 60 17 117t49.5 102.5t78 72t102.5 26.5q33 0 63.5 -12t52 -37t29.5 -66l73 317h170l-165 -712h-154l17 94q-24 -48 -66 -75.5t-93 -27.5zM279 115q25 0 46 16t36.5 42.5t24 58t8.5 62.5q0 28 -9.5 48.5t-26.5 31.5t-41 11
q-28 0 -50 -16.5t-37 -42.5t-23 -56.5t-8 -58.5q0 -30 9 -51.5t26.5 -33t44.5 -11.5z" />
    <glyph glyph-name="e" unicode="e" horiz-adv-x="582" 
d="M282 -9q-74 0 -130 28.5t-87 79.5t-31 119q0 84 34.5 149.5t98 103.5t151.5 38q73 0 124.5 -27.5t78.5 -77.5t27 -118q0 -19 -2 -40t-8 -41h-394v92h283l-47 -26q4 14 5 24t1 19q0 26 -9 43t-25 25.5t-38 8.5q-36 0 -59.5 -17t-37.5 -44.5t-19.5 -59.5t-5.5 -62
q0 -32 12.5 -54t34 -33.5t50.5 -11.5q36 0 58 16.5t34 41.5l140 -55q-17 -38 -52.5 -65t-83 -41.5t-103.5 -14.5z" />
    <glyph glyph-name="f" unicode="f" horiz-adv-x="414" 
d="M42 0l127 549q16 67 48 105.5t78 55t103 16.5q38 0 68 -7t48 -18l-38 -109q-9 5 -23.5 9t-35.5 4q-39 0 -59 -14.5t-28 -52.5l-16 -68l1 -28l-103 -442h-170zM42 379l28 121h390l-28 -121h-390z" />
    <glyph glyph-name="g" unicode="g" horiz-adv-x="616" 
d="M210 -215q-45 0 -86.5 11t-73.5 34t-51 57.5t-20 80.5l171 18q2 -42 18.5 -66.5t61.5 -24.5q25 0 45.5 11t36 36t24.5 68l37 160h9q-16 -76 -61 -116.5t-112 -40.5q-50 0 -90 23.5t-63 68t-23 105.5q0 60 17.5 113.5t49.5 96t77 66.5t101 24q39 0 72.5 -17t55 -52.5
t20.5 -90.5l-20 -25l40 175h170l-110 -476q-21 -89 -60.5 -141t-98.5 -75t-137 -23zM284 136q33 0 57.5 23t38 59.5t13.5 77.5q0 27 -9.5 47t-27 31t-41.5 11q-36 0 -61.5 -23.5t-39 -59t-13.5 -72.5q0 -42 21 -68t62 -26z" />
    <glyph glyph-name="h" unicode="h" horiz-adv-x="611" 
d="M0 0l165 712h170l-75 -326l-17 -24q13 42 39 75t65 53t89 20t85.5 -23t50 -65t1.5 -100l-75 -322h-170l69 295q9 40 -7 62.5t-52 22.5q-27 0 -47.5 -12.5t-35 -37t-22.5 -60.5l-63 -270h-170z" />
    <glyph glyph-name="i" unicode="i" horiz-adv-x="288" 
d="M225 558q-44 0 -68.5 18t-19.5 58q5 46 31 66.5t73 20.5q45 0 69.5 -19t19.5 -56q-5 -49 -31.5 -68.5t-73.5 -19.5zM287 500l-116 -500h-170l116 500h170z" />
    <glyph glyph-name="j" unicode="j" horiz-adv-x="288" 
d="M225 558q-44 0 -68.5 18t-19.5 58q5 46 31 66.5t73 20.5q45 0 69.5 -19t19.5 -56q-5 -49 -31.5 -68.5t-73.5 -19.5zM-31 -215q-37 0 -73.5 8t-61.5 26l39 110q12 -8 26.5 -13.5t28.5 -5.5q30 0 44.5 15.5t23.5 57.5l121 517h170l-125 -539q-21 -92 -68.5 -134t-124.5 -42
z" />
    <glyph glyph-name="k" unicode="k" horiz-adv-x="612" 
d="M652 500l-287 -250l-20 -9l-181 -158l15 161l276 256h197zM335 712l-165 -712h-170l165 712h170zM407 350l149 -350h-167l-101 253z" />
    <glyph glyph-name="l" unicode="l" horiz-adv-x="328" 
d="M182 -9q-90 0 -126.5 49.5t-16.5 132.5l125 539h170l-124 -537q-9 -33 3 -49.5t44 -16.5q12 0 21 1t15 3l-30 -110q-16 -7 -35 -9.5t-46 -2.5z" />
    <glyph glyph-name="m" unicode="m" horiz-adv-x="933" 
d="M0 0l116 500h151l-25 -159l-9 14q21 75 73.5 115t122.5 40q53 0 88.5 -23.5t50 -67t-0.5 -104.5l-73 -315h-170l69 294q9 40 -6.5 63t-49.5 23q-26 0 -47 -12.5t-35 -37t-22 -60.5l-63 -270h-170zM648 0l69 294q9 40 -6.5 63t-49.5 23q-26 0 -47 -12.5t-35 -37t-22 -60.5
l-10 75q24 80 78 122.5t125 42.5q54 0 90.5 -23.5t51 -67t-0.5 -104.5l-73 -315h-170z" />
    <glyph glyph-name="n" unicode="n" horiz-adv-x="611" 
d="M0 0l116 500h151l-25 -159l-9 14q21 75 74 115t123 40q54 0 90.5 -23.5t51 -66.5t0.5 -104l-74 -316h-170l69 295q9 40 -7 62.5t-52 22.5q-27 0 -47.5 -12.5t-35 -37t-22.5 -60.5l-63 -270h-170z" />
    <glyph glyph-name="o" unicode="o" horiz-adv-x="600" 
d="M281 -10q-76 0 -131.5 30t-85.5 81.5t-30 115.5q0 81 33.5 147.5t97 106t154.5 39.5q77 0 132 -30t85 -81t30 -116q0 -80 -33.5 -147t-97 -106.5t-154.5 -39.5zM283 110q26 0 47.5 16.5t37 44.5t23.5 60.5t8 65.5q0 29 -9.5 49.5t-28 32t-45.5 11.5q-25 0 -46.5 -16.5
t-37 -44t-24 -60.5t-8.5 -66q0 -28 9.5 -49t28.5 -32.5t45 -11.5z" />
    <glyph glyph-name="p" unicode="p" horiz-adv-x="618" 
d="M-48 -210l164 710h154l-30 -170l-11 6q12 54 40 92.5t68.5 59.5t86.5 21q48 0 84.5 -22.5t57.5 -67t21 -108.5q0 -60 -17 -118t-48.5 -103.5t-75 -72.5t-96.5 -27q-40 0 -76.5 15.5t-59.5 49t-24 87.5l21 33l-89 -385h-170zM302 115q27 0 48.5 16.5t36.5 42.5t23.5 57
t8.5 60q0 30 -9 50.5t-27 31.5t-43 11q-26 0 -47.5 -15.5t-37 -41.5t-23.5 -58t-8 -64q0 -41 20 -65.5t58 -24.5z" />
    <glyph glyph-name="q" unicode="q" horiz-adv-x="618" 
d="M288 -210l86 375l9 -10q-18 -75 -66 -119.5t-112 -44.5q-49 0 -88.5 23t-62.5 68t-23 110q0 60 17.5 117.5t50 102.5t78 71.5t101.5 26.5q39 0 73 -16t55 -51t20 -91l-18 -23l39 171h170l-164 -710h-165zM279 115q25 0 46.5 16t36.5 42.5t23.5 58t8.5 62.5
q0 28 -9.5 48.5t-26.5 31.5t-41 11q-28 0 -50 -16.5t-37 -42.5t-23 -56.5t-8 -58.5q0 -30 9 -51.5t27 -33t44 -11.5z" />
    <glyph glyph-name="r" unicode="r" horiz-adv-x="423" 
d="M0 0l116 500h151l-31 -182l-7 17q16 53 42 92t64 61t86 22q17 0 28.5 -2.5t19.5 -6.5l-41 -143q-10 5 -23.5 7.5t-34.5 2.5q-31 0 -60.5 -13.5t-51.5 -43.5t-34 -80l-54 -231h-170z" />
    <glyph glyph-name="s" unicode="s" horiz-adv-x="522" 
d="M254 -11q-53 0 -104 15t-91.5 43.5t-66.5 67.5l89 81q26 -41 68 -66.5t89 -25.5q31 0 48 9t17 28q0 14 -10.5 24t-31.5 16l-60 18q-75 24 -107.5 59.5t-32.5 87.5q0 51 27 87.5t76 56.5t113 20q79 0 139 -27t95 -76l-85 -84q-13 21 -35.5 37.5t-49.5 26t-57 9.5
q-31 0 -47 -9.5t-16 -26.5q0 -15 14 -23.5t32 -14.5l95 -29q53 -17 81.5 -50.5t28.5 -80.5q0 -53 -26 -92t-75 -60t-117 -21z" />
    <glyph glyph-name="t" unicode="t" horiz-adv-x="436" 
d="M256 -9q-62 0 -105 21.5t-60 64.5t-3 106l97 425l182 48l-109 -469q-10 -39 9.5 -58.5t57.5 -19.5q23 0 37.5 4t25.5 10l-10 -109q-27 -13 -58 -18t-64 -5zM40 379l28 121h399l-28 -121h-399z" />
    <glyph glyph-name="u" unicode="u" horiz-adv-x="610" 
d="M183 -9q-53 0 -90 23t-52.5 65.5t-2.5 101.5l75 319h170l-68 -294q-10 -41 7.5 -63t52.5 -22q27 0 47 12.5t33.5 37t21.5 59.5l63 270h170l-116 -500h-151l25 159l9 -15q-21 -74 -72.5 -113.5t-121.5 -39.5z" />
    <glyph glyph-name="v" unicode="v" horiz-adv-x="550" 
d="M421 500h191l-292 -500h-204l-62 500h168l20 -462l-33 6z" />
    <glyph glyph-name="w" unicode="w" horiz-adv-x="880" 
d="M87 0l-27 500h166l3 -361l173 361h168l20 -363l163 363h180l-259 -500h-202l-22 308l-156 -308h-207z" />
    <glyph glyph-name="x" unicode="x" horiz-adv-x="586" 
d="M-54 0l258 280l54 -11l177 231h198l-250 -273l-62 7l-171 -234h-204zM340 0l-85 237l-58 -3l-126 266h184l72 -234l62 10l134 -276h-183z" />
    <glyph glyph-name="y" unicode="y" horiz-adv-x="558" 
d="M44 -215q-43 0 -79 9.5t-57 25.5l47 119q35 -29 86 -29q28 0 49.5 11t36.5 35l20 33l-88 511h172l15 -269l4 -122l57 119l132 272h181l-322 -542q-36 -62 -74 -100.5t-81.5 -55.5t-98.5 -17z" />
    <glyph glyph-name="z" unicode="z" horiz-adv-x="512" 
d="M-18 0l25 105l241 231l57 48l-79 -3h-159l27 119h433l-25 -107l-229 -218l-67 -59l92 3h157l-27 -119h-446z" />
    <glyph glyph-name="braceleft" unicode="{" horiz-adv-x="413" 
d="M280 -191q-111 0 -161.5 44t-29.5 137l27 118q13 58 -7.5 83.5t-67.5 25.5h-8l25 110h24q40 0 66.5 19t37.5 66l39 169q18 80 69 117.5t144 37.5h61l-25 -107h-22q-40 0 -64.5 -20.5t-35.5 -65.5l-37 -161q-10 -47 -40 -76t-76 -37q42 -11 57.5 -41.5t4.5 -78.5l-34 -147
q-10 -46 8.5 -66.5t61.5 -21.5h12l-24 -105h-5z" />
    <glyph glyph-name="bar" unicode="|" horiz-adv-x="319" 
d="M341 713l-204 -881h-150l204 881h150z" />
    <glyph glyph-name="braceright" unicode="}" horiz-adv-x="413" 
d="M-76 -191l25 105h22q44 0 67.5 22t33.5 66l36 161q11 46 40.5 75.5t75.5 36.5q-41 12 -56.5 42.5t-5.5 78.5l34 146q11 45 -7.5 66t-56.5 21h-18l24 107h35q59 0 100 -19t59 -56.5t5 -93.5l-29 -130q-13 -59 7.5 -84.5t68.5 -25.5h6l-25 -110h-24q-40 0 -66.5 -18.5
t-37.5 -66.5l-39 -169q-18 -79 -68 -116.5t-138 -37.5h-68z" />
    <glyph glyph-name="asciitilde" unicode="~" horiz-adv-x="592" 
d="M589 425q-14 -74 -43.5 -116.5t-67 -60t-75.5 -17.5q-34 0 -57.5 9.5t-42 23t-35.5 23t-38 9.5q-20 0 -35.5 -15t-23.5 -45h-130q13 71 42 113.5t68.5 61.5t81.5 19q29 0 51 -10t40.5 -23t36 -23t38.5 -10q20 0 36 15t24 46h130z" />
    <glyph glyph-name="uni00A0" unicode="&#xa0;" horiz-adv-x="284" 
 />
    <glyph glyph-name="exclamdown" unicode="&#xa1;" horiz-adv-x="298" 
d="M225 285l-34 -232l-49 -213h-178l49 213l73 232h139zM190 508q41 0 65.5 -18t24.5 -53q0 -44 -27 -70.5t-74 -26.5q-41 0 -65.5 18.5t-24.5 53.5q0 44 27 70t74 26z" />
    <glyph glyph-name="cent" unicode="&#xa2;" horiz-adv-x="575" 
d="M282 -10q-75 0 -130 30t-85 82t-30 118q0 87 34.5 152t97 101.5t146.5 36.5q73 0 125 -24t81 -65.5t33 -93.5l-143 -21q2 42 -22.5 69.5t-72.5 27.5q-42 0 -72.5 -26t-47 -69t-16.5 -95q0 -34 12 -60.5t36.5 -41t58.5 -14.5q35 0 61 19.5t39 60.5l136 -44
q-24 -66 -88.5 -104.5t-152.5 -38.5zM163 -100l161 700h105l-161 -700h-105z" />
    <glyph glyph-name="sterling" unicode="&#xa3;" horiz-adv-x="624" 
d="M68 271l18 76h406l-17 -76h-407zM417 -11q-44 0 -77.5 12.5t-61 31t-51.5 36t-48 30t-52 12.5q-16 0 -25.5 -8t-9.5 -21t9 -21t24 -8q27 0 43.5 19.5t24.5 50.5t8 63q0 39 -7.5 72t-16.5 63t-16 61.5t-7 65.5q0 67 31 116.5t85.5 77.5t122.5 28q64 0 113.5 -22t78 -65
t28.5 -105l-142 -31q-1 44 -20 71.5t-60 27.5q-28 0 -49 -13t-32.5 -36t-11.5 -53t6 -60.5t11 -63.5t5 -72q0 -49 -14 -95t-40.5 -83t-62.5 -59t-82 -22q-47 0 -77 25t-30 64q0 45 33.5 71t83.5 26q30 0 59.5 -7.5t57 -18.5t53.5 -21.5t52 -18t50 -7.5q31 0 48.5 19.5
t23.5 65.5l108 -22q-2 -58 -26 -97t-61 -59t-79 -20z" />
    <glyph glyph-name="currency" unicode="&#xa4;" horiz-adv-x="658" 
d="M348 537q63 0 110.5 -26.5t74.5 -73t27 -107.5q0 -62 -27 -109t-74.5 -73.5t-110.5 -26.5t-111.5 26.5t-75.5 73.5t-27 109q0 61 27 107.5t75.5 73t111.5 26.5zM348 417q-38 0 -61 -24t-23 -63q0 -40 23 -64t61 -24q37 0 60 24t23 64q0 39 -23 63t-60 24zM158 616
l131 -147l-81 -81l-148 130zM207 271l81 -81l-130 -147l-98 97zM490 267l144 -127l-98 -97l-128 142zM536 616l98 -98l-142 -129l-83 83z" />
    <glyph glyph-name="yen" unicode="&#xa5;" horiz-adv-x="658" 
d="M187 0l29 121h-172l13 58h172l15 66h-171l14 60h97l61 -4l-138 359h159l60 -206l26 -101h2l58 102l126 205h189l-291 -360l60 5h98l-14 -60h-172l-15 -66h172l-13 -58h-172l-29 -121h-164z" />
    <glyph glyph-name="brokenbar" unicode="&#xa6;" horiz-adv-x="319" 
d="M341 713l-87 -380h-150l87 380h150zM226 212l-89 -380h-150l89 380h150z" />
    <glyph glyph-name="section" unicode="&#xa7;" horiz-adv-x="622" 
d="M275 -111q-56 0 -109 15t-95.5 45.5t-65.5 76.5l103 66q24 -44 71 -70.5t106 -26.5q41 0 64.5 14.5t23.5 39.5q0 20 -14.5 32.5t-51.5 23.5l-123 40q-74 23 -113 57.5t-39 98.5q0 49 25.5 81t69.5 48t100 16l35 -68q-59 -4 -83.5 -18t-24.5 -40q0 -23 18.5 -38t58.5 -27
l133 -40q68 -20 104 -52t36 -83q0 -55 -28 -98.5t-79 -68t-122 -24.5zM398 111l-31 72q30 -1 54.5 4t39.5 18t15 33q0 21 -16.5 33.5t-48.5 21.5l-156 49q-37 12 -63 31.5t-39.5 47.5t-13.5 64q0 55 28 96.5t78.5 64.5t118.5 23q53 0 101.5 -12t88.5 -39.5t69 -74.5
l-103 -68q-27 44 -66 63.5t-93 19.5q-29 0 -47.5 -8t-27.5 -21t-9 -29q0 -21 14 -36t63 -28l93 -26q74 -20 112.5 -55.5t38.5 -89.5q0 -50 -25 -86.5t-70 -54.5t-105 -13z" />
    <glyph glyph-name="dieresis" unicode="&#xa8;" horiz-adv-x="500" 
d="M442 555q-36 0 -57.5 15.5t-21.5 47.5q0 47 26 69t69 22q36 0 57 -15.5t21 -47.5q0 -48 -26 -69.5t-68 -21.5zM219 555q-35 0 -56.5 15.5t-21.5 47.5q0 47 26 69t69 22q35 0 56.5 -15.5t21.5 -47.5q0 -48 -26 -69.5t-69 -21.5z" />
    <glyph glyph-name="copyright" unicode="&#xa9;" horiz-adv-x="778" 
d="M408 -10q-101 0 -178.5 43.5t-122 120t-44.5 176.5q0 101 44.5 177t122 119.5t178.5 43.5q100 0 178 -43.5t122 -119.5t44 -177q0 -100 -44 -176.5t-122 -120t-178 -43.5zM408 74q76 0 134 32.5t90 90.5t32 133t-32 133t-90 90.5t-134 32.5q-77 0 -135 -32.5t-90 -90.5
t-32 -133t32 -133t90 -90.5t135 -32.5zM413 138q-90 0 -140.5 52t-50.5 139q0 88 50.5 139.5t140.5 51.5q68 0 112 -30t61 -80l-98 -47q-11 23 -27.5 32t-42.5 9q-33 0 -53 -19.5t-20 -55.5t20 -55.5t54 -19.5q25 0 43.5 9.5t28.5 35.5l94 -45q-23 -60 -64 -88t-108 -28z
" />
    <glyph glyph-name="ordfeminine" unicode="&#xaa;" horiz-adv-x="428" 
d="M183 306q-48 0 -81 35t-33 101q0 42 11.5 81.5t34 71t54 49.5t71.5 18q24 0 45.5 -11t35.5 -36t12 -68l-16 -23l31 132h124l-80 -342h-112l30 151l2 -32q-13 -61 -48.5 -94t-80.5 -33zM15 151l20 89h351l-20 -89h-351zM239 397q23 0 39 19t24 46.5t8 52.5t-12 40.5
t-32 15.5q-26 0 -42 -19.5t-24 -46.5t-8 -50q0 -26 12 -42t35 -16z" />
    <glyph glyph-name="guillemotleft" unicode="&#xab;" horiz-adv-x="578" 
d="M356 461l-202 -235l3 96l103 -253h-143l-80 196l170 196h149zM592 461l-202 -235l3 96l103 -253h-143l-80 196l170 196h149z" />
    <glyph glyph-name="logicalnot" unicode="&#xac;" horiz-adv-x="604" 
d="M559 314l-49 -217h-137l49 217h137zM576 386l-28 -122h-485l28 122h485z" />
    <glyph glyph-name="uni00AD" unicode="&#xad;" horiz-adv-x="528" 
d="M467 337l-32 -139h-366l32 139h366z" />
    <glyph glyph-name="registered" unicode="&#xae;" horiz-adv-x="780" 
d="M409 670q104 0 181.5 -42.5t120 -118.5t42.5 -179q0 -102 -42.5 -178.5t-120 -119t-181.5 -42.5t-182 42.5t-120.5 119t-42.5 178.5q0 103 42.5 179t120.5 118.5t182 42.5zM367 515v-364h-101v364h101zM472 318l109 -167h-122l-75 144zM409 586q-78 0 -135 -31.5t-89 -89
t-32 -135.5q0 -77 32 -135t89 -89.5t135 -31.5q77 0 134.5 31.5t89 89.5t31.5 135q0 78 -31.5 135.5t-89 89t-134.5 31.5zM441 515q38 0 67.5 -15t46.5 -42t17 -62q0 -57 -39 -88.5t-104 -31.5h-105v69h93q24 0 38 10t14 33q0 24 -14 33.5t-38 9.5h-93v84h117z" />
    <glyph glyph-name="macron" unicode="&#xaf;" horiz-adv-x="500" 
d="M527 674l-24 -105h-359l25 105h358z" />
    <glyph glyph-name="degree" unicode="&#xb0;" horiz-adv-x="478" 
d="M293 298q-62 0 -107 23t-70 65t-25 98t25 98t70 65t107 23t107 -23t70 -65t25 -98t-25 -98t-70 -65t-107 -23zM293 407q35 0 56.5 22t21.5 56t-21.5 55.5t-56.5 21.5t-57 -21.5t-22 -55.5t22 -56t57 -22z" />
    <glyph glyph-name="plusminus" unicode="&#xb1;" horiz-adv-x="604" 
d="M457 652l-108 -467h-123l108 467h123zM606 477l-28 -117h-502l27 117h503zM522 115l-26 -114h-503l27 114h502z" />
    <glyph glyph-name="uni00B2" unicode="&#xb2;" horiz-adv-x="386" 
d="M56 334l19 82q41 21 82.5 43t76 45t55 47t20.5 49q0 23 -10.5 31.5t-28.5 8.5q-26 0 -41 -18t-20 -50l-114 31q13 62 57.5 97.5t126.5 35.5q75 0 114.5 -32t39.5 -80q0 -41 -18.5 -71.5t-48.5 -52.5t-65.5 -39t-69.5 -32v-1q16 1 35.5 1.5t38.5 0.5h102l-22 -96h-329z
" />
    <glyph glyph-name="uni00B3" unicode="&#xb3;" horiz-adv-x="376" 
d="M233 327q-79 0 -124.5 33.5t-51.5 88.5l114 21q2 -26 17 -40t40 -14q23 0 36 12.5t13 32.5q0 19 -12.5 28t-35.5 9q-7 0 -12 -0.5t-10 -1.5l17 69q6 -1 12.5 -2t13.5 -1q26 0 38.5 12t12.5 31q0 18 -12 27t-32 9t-34 -10t-20 -31l-106 36q14 45 56.5 72.5t115.5 27.5
q65 0 109 -27.5t44 -78.5q0 -41 -25 -70t-69 -32l-1 -2q31 -3 51.5 -20.5t20.5 -52.5q0 -41 -22.5 -69.5t-60.5 -42.5t-83 -14z" />
    <glyph glyph-name="acute" unicode="&#xb4;" horiz-adv-x="600" 
d="M366 738h164l-148 -173h-126z" />
    <glyph glyph-name="uni00B5" unicode="&#xb5;" horiz-adv-x="614" 
d="M-47 -210l163 710h170l-67 -294q-10 -40 6 -62.5t54 -22.5q27 0 46.5 12.5t33.5 37t22 59.5l62 270h170l-116 -500h-151l16 96q-27 -50 -70.5 -77.5t-99.5 -27.5q-26 0 -54 8t-52 26l105 53l-68 -288h-170z" />
    <glyph glyph-name="paragraph" unicode="&#xb6;" horiz-adv-x="750" 
d="M218 -100l63 273q-35 1 -71.5 14.5t-68.5 40t-51.5 68t-19.5 98.5q0 85 39 144t109 90.5t164 31.5h397l-176 -760h-138l145 630h-108l-145 -630h-139zM307 307l52 223h-25q-38 0 -67 -14.5t-45.5 -42.5t-16.5 -71q0 -41 27 -68t75 -27z" />
    <glyph glyph-name="periodcentered" unicode="&#xb7;" horiz-adv-x="270" 
d="M154 264q-42 0 -67.5 19.5t-25.5 56.5q0 47 28 75.5t76 28.5q42 0 67.5 -20t25.5 -57q0 -47 -27.5 -75t-76.5 -28z" />
    <glyph glyph-name="cedilla" unicode="&#xb8;" horiz-adv-x="500" 
d="M127 6l46 23q56 -11 86 -40t30 -74q0 -41 -19 -70.5t-50.5 -45.5t-72.5 -16q-38 0 -66.5 11.5t-47.5 30.5l44 73q12 -12 30 -17.5t33 -5.5q25 0 41.5 17t16.5 40q0 24 -17.5 42t-53.5 32z" />
    <glyph glyph-name="uni00B9" unicode="&#xb9;" horiz-adv-x="285" 
d="M136 334l50 210q2 10 6 24.5t8 26t4 12.5q-24 -15 -58.5 -26t-59.5 -13l18 98q25 5 53.5 15t54 23t41.5 26h98l-92 -396h-123z" />
    <glyph glyph-name="ordmasculine" unicode="&#xba;" horiz-adv-x="420" 
d="M249 306q-80 0 -124 42.5t-44 110.5q0 54 23 100.5t67.5 74.5t108.5 28q79 0 123 -42t44 -110q0 -53 -22.5 -99.5t-66.5 -75.5t-109 -29zM13 151l20 89h349l-21 -89h-348zM251 393q24 0 40.5 21t25 51t8.5 55q0 27 -13 41t-35 14q-24 0 -40.5 -20.5t-24.5 -50t-8 -56.5
q0 -26 12 -40.5t35 -14.5z" />
    <glyph glyph-name="guillemotright" unicode="&#xbb;" horiz-adv-x="579" 
d="M-7 69l193 229l6 -95l-103 258h139l83 -196l-168 -196h-150zM229 69l193 229l6 -95l-103 258h139l83 -196l-168 -196h-150z" />
    <glyph glyph-name="onequarter" unicode="&#xbc;" horiz-adv-x="871" 
d="M121 269l50 210q2 10 6 24.5t8 26t4 12.5q-24 -15 -58.5 -26t-59.5 -13l18 98q25 5 53.5 15t54 23t41.5 26h98l-92 -396h-123zM65 0l623 661h128l-624 -661h-127zM627 -3l19 84h-183l18 76q11 14 20 24.5t18.5 22t21.5 26.5l140 163h144l-53 -231h70l-18 -81h-70l-19 -84
h-108zM585 162h80l35 147l-87 -114q-8 -9 -15 -17.5t-13 -15.5z" />
    <glyph glyph-name="onehalf" unicode="&#xbd;" horiz-adv-x="946" 
d="M121 269l50 210q2 10 6 24.5t8 26t4 12.5q-24 -15 -58.5 -26t-59.5 -13l18 98q25 5 53.5 15t54 23t41.5 26h98l-92 -396h-123zM65 0l623 661h128l-624 -661h-127zM538 -3l19 82q41 21 82.5 43t76 45t55 47t20.5 49q0 23 -10.5 31.5t-28.5 8.5q-26 0 -41 -18t-20 -50
l-114 31q13 62 57.5 97.5t126.5 35.5q75 0 114.5 -32t39.5 -80q0 -41 -18.5 -71.5t-48.5 -52.5t-65.5 -39t-69.5 -32v-1q16 1 35.5 1.5t38.5 0.5h102l-22 -96h-329z" />
    <glyph glyph-name="threequarters" unicode="&#xbe;" horiz-adv-x="961" 
d="M218 262q-79 0 -124.5 33.5t-51.5 88.5l114 21q2 -26 17 -40t40 -14q23 0 36 12.5t13 32.5q0 19 -12.5 28t-35.5 9q-7 0 -12 -0.5t-10 -1.5l17 69q6 -1 12.5 -2t13.5 -1q26 0 38.5 12t12.5 31q0 18 -12 27t-32 9t-34 -10t-20 -31l-106 36q14 45 56.5 72.5t115.5 27.5
q65 0 109 -27.5t44 -78.5q0 -41 -25 -70t-69 -32l-1 -2q31 -3 51.5 -20.5t20.5 -52.5q0 -41 -22.5 -69.5t-60.5 -42.5t-83 -14zM156 0l623 661h128l-624 -661h-127zM718 -3l19 84h-183l18 76q11 14 20 24.5t18.5 22t21.5 26.5l140 163h144l-53 -231h70l-18 -81h-70l-19 -84
h-108zM676 162h80l35 147l-87 -114q-8 -9 -15 -17.5t-13 -15.5z" />
    <glyph glyph-name="questiondown" unicode="&#xbf;" horiz-adv-x="595" 
d="M402 287l-34 -153q-56 -1 -100.5 -10t-70.5 -31.5t-26 -63.5q0 -31 22.5 -46.5t57.5 -15.5q43 0 69.5 23.5t40.5 66.5l156 -60q-16 -46 -51.5 -83.5t-93 -60t-139.5 -22.5q-71 0 -125.5 21.5t-85 61t-30.5 93.5q0 63 28 107t82 69t130 32l21 72h149zM359 508q40 0 65 -18
t25 -53q0 -43 -27 -69t-74 -26q-40 0 -65 18t-25 53q0 43 27 69t74 26z" />
    <glyph glyph-name="Agrave" unicode="&#xc0;" horiz-adv-x="671" 
d="M-55 0l382 660h208l74 -660h-163l-13 155h-225l-84 -155h-179zM270 272h157l-20 256zM476 886l31 -163h-111l-68 163h148z" />
    <glyph glyph-name="Aacute" unicode="&#xc1;" horiz-adv-x="671" 
d="M-55 0l382 660h208l74 -660h-163l-13 155h-225l-84 -155h-179zM270 272h157l-20 256zM467 886h157l-126 -163h-127z" />
    <glyph glyph-name="Acircumflex" unicode="&#xc2;" horiz-adv-x="671" 
d="M-55 0l382 660h208l74 -660h-163l-13 155h-225l-84 -155h-179zM270 272h157l-20 256zM562 886l62 -163h-112l-45 91l-85 -91h-124l138 163h166z" />
    <glyph glyph-name="Atilde" unicode="&#xc3;" horiz-adv-x="671" 
d="M-55 0l382 660h208l74 -660h-163l-13 155h-225l-84 -155h-179zM270 272h157l-20 256zM659 878q-12 -80 -52 -119.5t-90 -39.5q-27 0 -45 9t-31.5 20.5t-26 20.5t-26.5 9q-16 0 -27 -16t-18 -42h-94q12 80 50 119.5t90 39.5q23 0 41 -9t32.5 -20.5t28 -20.5t28.5 -9
t26.5 15t18.5 43h95z" />
    <glyph glyph-name="Adieresis" unicode="&#xc4;" horiz-adv-x="671" 
d="M-55 0l382 660h208l74 -660h-163l-13 155h-225l-84 -155h-179zM270 272h157l-20 256zM557 715q-36 0 -57.5 15.5t-21.5 47.5q0 47 26 69t69 22q36 0 57 -15.5t21 -47.5q0 -48 -26 -69.5t-68 -21.5zM334 715q-35 0 -56.5 15.5t-21.5 47.5q0 47 26 69t69 22
q35 0 56.5 -15.5t21.5 -47.5q0 -48 -26 -69.5t-69 -21.5z" />
    <glyph glyph-name="Aring" unicode="&#xc5;" horiz-adv-x="671" 
d="M-55 0l382 660h208l74 -660h-163l-13 155h-225l-84 -155h-179zM270 272h157l-20 256zM444 842q61 0 97 -32t36 -82q0 -60 -40.5 -99t-103.5 -39q-60 0 -97 31.5t-37 81.5q0 60 41 99.5t104 39.5zM441 768q-22 0 -38.5 -15.5t-16.5 -42.5q0 -20 14 -33t36 -13
q23 0 39 15.5t16 42.5q0 21 -13.5 33.5t-36.5 12.5z" />
    <glyph glyph-name="AE" unicode="&#xc6;" horiz-adv-x="916" 
d="M-62 0l425 660h605l-30 -127h-295l-33 -142h226l-28 -120h-225l-34 -144h309l-30 -127h-469l46 196h-165l-118 -196h-184zM302 308h129l53 230h-37z" />
    <glyph glyph-name="Ccedilla" unicode="&#xc7;" horiz-adv-x="688" 
d="M356 -10q-85 0 -152 34t-106 98t-39 153q0 84 24 155.5t70 125.5t112.5 84t152.5 30q74 0 132 -25t95 -72.5t49 -117.5l-165 -37q-6 60 -34 88.5t-82 28.5q-46 0 -80 -24.5t-57 -63.5t-33.5 -85t-10.5 -90q0 -46 16 -78.5t46.5 -50.5t72.5 -18q51 0 80 26.5t49 69.5
l154 -60q-43 -79 -114 -125t-180 -46zM261 6l46 23q56 -11 86 -40t30 -74q0 -41 -19 -70.5t-50.5 -45.5t-72.5 -16q-38 0 -66.5 11.5t-47.5 30.5l44 73q12 -12 30 -17.5t33 -5.5q25 0 41.5 17t16.5 40q0 24 -17.5 42t-53.5 32z" />
    <glyph glyph-name="Egrave" unicode="&#xc8;" 
d="M14 0l153 660h514l-32 -133h-341l-31 -134h269l-29 -125h-269l-31 -135h352l-31 -133h-524zM462 886l31 -163h-111l-68 163h148z" />
    <glyph glyph-name="Eacute" unicode="&#xc9;" 
d="M14 0l153 660h514l-32 -133h-341l-31 -134h269l-29 -125h-269l-31 -135h352l-31 -133h-524zM452 886h157l-126 -163h-127z" />
    <glyph glyph-name="Ecircumflex" unicode="&#xca;" 
d="M14 0l153 660h514l-32 -133h-341l-31 -134h269l-29 -125h-269l-31 -135h352l-31 -133h-524zM554 886l62 -163h-112l-45 91l-85 -91h-124l138 163h166z" />
    <glyph glyph-name="Edieresis" unicode="&#xcb;" 
d="M14 0l153 660h514l-32 -133h-341l-31 -134h269l-29 -125h-269l-31 -135h352l-31 -133h-524zM548 715q-36 0 -57.5 15.5t-21.5 47.5q0 47 26 69t69 22q36 0 57 -15.5t21 -47.5q0 -48 -26 -69.5t-68 -21.5zM325 715q-35 0 -56.5 15.5t-21.5 47.5q0 47 26 69t69 22
q35 0 56.5 -15.5t21.5 -47.5q0 -48 -26 -69.5t-69 -21.5z" />
    <glyph glyph-name="Igrave" unicode="&#xcc;" horiz-adv-x="316" 
d="M339 660l-153 -660h-172l153 660h172zM293 886l31 -163h-111l-68 163h148z" />
    <glyph glyph-name="Iacute" unicode="&#xcd;" horiz-adv-x="316" 
d="M339 660l-153 -660h-172l153 660h172zM297 886h157l-126 -163h-127z" />
    <glyph glyph-name="Icircumflex" unicode="&#xce;" horiz-adv-x="316" 
d="M339 660l-153 -660h-172l153 660h172zM387 886l62 -163h-112l-45 91l-85 -91h-124l138 163h166z" />
    <glyph glyph-name="Idieresis" unicode="&#xcf;" horiz-adv-x="316" 
d="M377 715q-35 0 -57 15.5t-22 47.5q0 47 26.5 69t69.5 22q35 0 56.5 -15.5t21.5 -47.5q0 -48 -26 -69.5t-69 -21.5zM163 715q-35 0 -57 15.5t-22 47.5q0 47 26 69t70 22q35 0 56 -15.5t21 -47.5q0 -48 -25.5 -69.5t-68.5 -21.5zM339 660l-153 -660h-172l153 660h172z" />
    <glyph glyph-name="Eth" unicode="&#xd0;" horiz-adv-x="732" 
d="M14 270l27 120h386l-27 -120h-386zM38 0l153 660h233q94 0 158 -34t96.5 -95t32.5 -141q0 -87 -25 -158.5t-73 -123t-116 -80t-155 -28.5h-304zM240 130h97q49 0 87 22t63 59.5t38 83.5t13 94q0 43 -14.5 74.5t-44 49t-74.5 17.5h-72z" />
    <glyph glyph-name="Ntilde" unicode="&#xd1;" horiz-adv-x="735" 
d="M14 0l153 660h184l119 -363l31 -108h1l27 138l78 333h151l-153 -660h-181l-123 357l-31 108h-2l-25 -132l-77 -333h-152zM691 878q-12 -80 -52 -119.5t-90 -39.5q-27 0 -45 9t-31.5 20.5t-26 20.5t-26.5 9q-16 0 -27 -16t-18 -42h-94q12 80 50 119.5t90 39.5q23 0 41 -9
t32.5 -20.5t28 -20.5t28.5 -9t26.5 15t18.5 43h95z" />
    <glyph glyph-name="Ograve" unicode="&#xd2;" horiz-adv-x="732" 
d="M354 -10q-82 0 -149 34t-106 99.5t-39 157.5q0 82 23.5 153t69 124t112 82.5t151.5 29.5q83 0 149 -34.5t105 -99t39 -157.5q0 -82 -23.5 -152.5t-69 -124t-111.5 -83t-151 -29.5zM360 125q45 0 77.5 24t54.5 63.5t33 86.5t11 92q0 46 -15 78t-43 49t-69 17
q-44 0 -77 -24t-55 -63.5t-33 -86t-11 -92.5t15 -78t43.5 -49t68.5 -17zM480 886l31 -163h-111l-68 163h148z" />
    <glyph glyph-name="Oacute" unicode="&#xd3;" horiz-adv-x="732" 
d="M354 -10q-82 0 -149 34t-106 99.5t-39 157.5q0 82 23.5 153t69 124t112 82.5t151.5 29.5q83 0 149 -34.5t105 -99t39 -157.5q0 -82 -23.5 -152.5t-69 -124t-111.5 -83t-151 -29.5zM360 125q45 0 77.5 24t54.5 63.5t33 86.5t11 92q0 46 -15 78t-43 49t-69 17
q-44 0 -77 -24t-55 -63.5t-33 -86t-11 -92.5t15 -78t43.5 -49t68.5 -17zM476 886h157l-126 -163h-127z" />
    <glyph glyph-name="Ocircumflex" unicode="&#xd4;" horiz-adv-x="732" 
d="M354 -10q-82 0 -149 34t-106 99.5t-39 157.5q0 82 23.5 153t69 124t112 82.5t151.5 29.5q83 0 149 -34.5t105 -99t39 -157.5q0 -82 -23.5 -152.5t-69 -124t-111.5 -83t-151 -29.5zM360 125q45 0 77.5 24t54.5 63.5t33 86.5t11 92q0 46 -15 78t-43 49t-69 17
q-44 0 -77 -24t-55 -63.5t-33 -86t-11 -92.5t15 -78t43.5 -49t68.5 -17zM571 886l62 -163h-112l-45 91l-85 -91h-124l138 163h166z" />
    <glyph glyph-name="Otilde" unicode="&#xd5;" horiz-adv-x="732" 
d="M354 -10q-82 0 -149 34t-106 99.5t-39 157.5q0 82 23.5 153t69 124t112 82.5t151.5 29.5q83 0 149 -34.5t105 -99t39 -157.5q0 -82 -23.5 -152.5t-69 -124t-111.5 -83t-151 -29.5zM360 125q45 0 77.5 24t54.5 63.5t33 86.5t11 92q0 46 -15 78t-43 49t-69 17
q-44 0 -77 -24t-55 -63.5t-33 -86t-11 -92.5t15 -78t43.5 -49t68.5 -17zM668 878q-12 -80 -52 -119.5t-90 -39.5q-27 0 -45 9t-31.5 20.5t-26 20.5t-26.5 9q-16 0 -27 -16t-18 -42h-94q12 80 50 119.5t90 39.5q23 0 41 -9t32.5 -20.5t28 -20.5t28.5 -9t26.5 15t18.5 43h95z
" />
    <glyph glyph-name="Odieresis" unicode="&#xd6;" horiz-adv-x="732" 
d="M354 -10q-82 0 -149 34t-106 99.5t-39 157.5q0 82 23.5 153t69 124t112 82.5t151.5 29.5q83 0 149 -34.5t105 -99t39 -157.5q0 -82 -23.5 -152.5t-69 -124t-111.5 -83t-151 -29.5zM360 125q45 0 77.5 24t54.5 63.5t33 86.5t11 92q0 46 -15 78t-43 49t-69 17
q-44 0 -77 -24t-55 -63.5t-33 -86t-11 -92.5t15 -78t43.5 -49t68.5 -17zM566 715q-36 0 -57.5 15.5t-21.5 47.5q0 47 26 69t69 22q36 0 57 -15.5t21 -47.5q0 -48 -26 -69.5t-68 -21.5zM343 715q-35 0 -56.5 15.5t-21.5 47.5q0 47 26 69t69 22q35 0 56.5 -15.5t21.5 -47.5
q0 -48 -26 -69.5t-69 -21.5z" />
    <glyph glyph-name="multiply" unicode="&#xd7;" horiz-adv-x="604" 
d="M111 78l-79 104l484 392l79 -103zM420 78l-316 415l101 81l317 -415z" />
    <glyph glyph-name="Oslash" unicode="&#xd8;" horiz-adv-x="732" 
d="M244 126l-40 51l322 367l36 -54zM27 -17l135 152l43 -47l-97 -105h-81zM581 507l-21 69l92 102h82zM354 -10q-82 0 -149 34t-106 99.5t-39 157.5q0 82 23.5 153t69 124t112 82.5t151.5 29.5q83 0 149 -34.5t105 -99t39 -157.5q0 -82 -23.5 -152.5t-69 -124t-111.5 -83
t-151 -29.5zM360 125q45 0 77.5 24t54.5 63.5t33 86.5t11 92q0 46 -15 78t-43 49t-69 17q-44 0 -77 -24t-55 -63.5t-33 -86t-11 -92.5t15 -78t43.5 -49t68.5 -17z" />
    <glyph glyph-name="Ugrave" unicode="&#xd9;" horiz-adv-x="704" 
d="M329 -10q-99 0 -165 36t-92 104t-4 163l86 367h172l-89 -391q-10 -47 0.5 -79t38 -48.5t68.5 -16.5q55 0 86 33t45 97l94 405h171l-95 -410q-30 -128 -106 -194t-210 -66zM486 878l31 -163h-111l-68 163h148z" />
    <glyph glyph-name="Uacute" unicode="&#xda;" horiz-adv-x="704" 
d="M329 -10q-99 0 -165 36t-92 104t-4 163l86 367h172l-89 -391q-10 -47 0.5 -79t38 -48.5t68.5 -16.5q55 0 86 33t45 97l94 405h171l-95 -410q-30 -128 -106 -194t-210 -66zM482 878h157l-126 -163h-127z" />
    <glyph glyph-name="Ucircumflex" unicode="&#xdb;" horiz-adv-x="704" 
d="M329 -10q-99 0 -165 36t-92 104t-4 163l86 367h172l-89 -391q-10 -47 0.5 -79t38 -48.5t68.5 -16.5q55 0 86 33t45 97l94 405h171l-95 -410q-30 -128 -106 -194t-210 -66zM577 878l62 -163h-112l-45 91l-85 -91h-124l138 163h166z" />
    <glyph glyph-name="Udieresis" unicode="&#xdc;" horiz-adv-x="704" 
d="M329 -10q-99 0 -165 36t-92 104t-4 163l86 367h172l-89 -391q-10 -47 0.5 -79t38 -48.5t68.5 -16.5q55 0 86 33t45 97l94 405h171l-95 -410q-30 -128 -106 -194t-210 -66zM572 707q-36 0 -57.5 15.5t-21.5 47.5q0 47 26 69t69 22q36 0 57 -15.5t21 -47.5q0 -48 -26 -69.5
t-68 -21.5zM349 707q-35 0 -56.5 15.5t-21.5 47.5q0 47 26 69t69 22q35 0 56.5 -15.5t21.5 -47.5q0 -48 -26 -69.5t-69 -21.5z" />
    <glyph glyph-name="Yacute" unicode="&#xdd;" horiz-adv-x="653" 
d="M182 0l57 245l-133 415h166l54 -182l25 -110l71 112l130 180h184l-328 -427l-54 -233h-172zM442 878h157l-126 -163h-127z" />
    <glyph glyph-name="Thorn" unicode="&#xde;" horiz-adv-x="668" 
d="M142 114l29 129h191q40 0 66.5 15t39.5 39.5t13 52.5q0 37 -24 58t-76 21h-170l30 129h159q118 0 184.5 -52.5t66.5 -145.5q0 -72 -34 -127.5t-97 -87t-149 -31.5h-229zM14 0l153 660h172l-153 -660h-172z" />
    <glyph glyph-name="germandbls" unicode="&#xdf;" horiz-adv-x="637" 
d="M365 -10q-47 0 -84 8.5t-57 22.5l44 114q14 -10 33 -15.5t42 -5.5q32 0 53 14t32 36.5t11 49.5q0 40 -27 62.5t-78 22.5q-8 0 -15.5 -0.5t-16.5 -1.5l36 121q10 -1 18.5 -1.5t16.5 -0.5q35 0 58.5 13.5t35.5 37t12 51.5q0 26 -11 43t-29.5 25t-41.5 8q-47 0 -74.5 -28
t-42.5 -94l-110 -472h-170l114 494q26 113 99.5 168t196.5 55q75 0 126.5 -22t78.5 -60.5t27 -89.5q0 -58 -24 -99t-65 -63.5t-93 -25.5v-2q37 -3 68 -20.5t49.5 -48.5t18.5 -77q0 -65 -29.5 -114.5t-81 -77t-120.5 -27.5z" />
    <glyph glyph-name="agrave" unicode="&#xe0;" horiz-adv-x="618" 
d="M205 -9q-50 0 -89.5 23.5t-62 68t-22.5 109.5q0 60 17 117t49.5 102.5t78 72t102.5 26.5q33 0 63.5 -12t52 -37t29.5 -66l24 105h170l-116 -500h-154l17 94q-24 -48 -66 -75.5t-93 -27.5zM279 115q25 0 46 16t36.5 42.5t24 58t8.5 62.5q0 28 -9.5 48.5t-26.5 31.5t-41 11
q-28 0 -50 -16.5t-37 -42.5t-23 -56.5t-8 -58.5q0 -30 9 -51.5t26.5 -33t44.5 -11.5zM389 738l30 -173h-117l-69 173h156z" />
    <glyph glyph-name="aacute" unicode="&#xe1;" horiz-adv-x="618" 
d="M205 -9q-50 0 -89.5 23.5t-62 68t-22.5 109.5q0 60 17 117t49.5 102.5t78 72t102.5 26.5q33 0 63.5 -12t52 -37t29.5 -66l24 105h170l-116 -500h-154l17 94q-24 -48 -66 -75.5t-93 -27.5zM279 115q25 0 46 16t36.5 42.5t24 58t8.5 62.5q0 28 -9.5 48.5t-26.5 31.5t-41 11
q-28 0 -50 -16.5t-37 -42.5t-23 -56.5t-8 -58.5q0 -30 9 -51.5t26.5 -33t44.5 -11.5zM386 738h164l-148 -173h-126z" />
    <glyph glyph-name="acircumflex" unicode="&#xe2;" horiz-adv-x="618" 
d="M205 -9q-50 0 -89.5 23.5t-62 68t-22.5 109.5q0 60 17 117t49.5 102.5t78 72t102.5 26.5q33 0 63.5 -12t52 -37t29.5 -66l24 105h170l-116 -500h-154l17 94q-24 -48 -66 -75.5t-93 -27.5zM279 115q25 0 46 16t36.5 42.5t24 58t8.5 62.5q0 28 -9.5 48.5t-26.5 31.5t-41 11
q-28 0 -50 -16.5t-37 -42.5t-23 -56.5t-8 -58.5q0 -30 9 -51.5t26.5 -33t44.5 -11.5zM161 559l149 173h165l69 -173h-118l-48 88l-88 -88h-129z" />
    <glyph glyph-name="atilde" unicode="&#xe3;" horiz-adv-x="618" 
d="M205 -9q-50 0 -89.5 23.5t-62 68t-22.5 109.5q0 60 17 117t49.5 102.5t78 72t102.5 26.5q33 0 63.5 -12t52 -37t29.5 -66l24 105h170l-116 -500h-154l17 94q-24 -48 -66 -75.5t-93 -27.5zM279 115q25 0 46 16t36.5 42.5t24 58t8.5 62.5q0 28 -9.5 48.5t-26.5 31.5t-41 11
q-28 0 -50 -16.5t-37 -42.5t-23 -56.5t-8 -58.5q0 -30 9 -51.5t26.5 -33t44.5 -11.5zM575 718q-12 -80 -52 -119.5t-90 -39.5q-27 0 -45 9t-31.5 20.5t-26 20.5t-26.5 9q-16 0 -27 -16t-18 -42h-94q12 80 50 119.5t90 39.5q23 0 41 -9t32.5 -20.5t28 -20.5t28.5 -9t26.5 15
t18.5 43h95z" />
    <glyph glyph-name="adieresis" unicode="&#xe4;" horiz-adv-x="618" 
d="M205 -9q-50 0 -89.5 23.5t-62 68t-22.5 109.5q0 60 17 117t49.5 102.5t78 72t102.5 26.5q33 0 63.5 -12t52 -37t29.5 -66l24 105h170l-116 -500h-154l17 94q-24 -48 -66 -75.5t-93 -27.5zM279 115q25 0 46 16t36.5 42.5t24 58t8.5 62.5q0 28 -9.5 48.5t-26.5 31.5t-41 11
q-28 0 -50 -16.5t-37 -42.5t-23 -56.5t-8 -58.5q0 -30 9 -51.5t26.5 -33t44.5 -11.5zM473 555q-36 0 -57.5 15.5t-21.5 47.5q0 47 26 69t69 22q36 0 57 -15.5t21 -47.5q0 -48 -26 -69.5t-68 -21.5zM250 555q-35 0 -56.5 15.5t-21.5 47.5q0 47 26 69t69 22q35 0 56.5 -15.5
t21.5 -47.5q0 -48 -26 -69.5t-69 -21.5z" />
    <glyph glyph-name="aring" unicode="&#xe5;" horiz-adv-x="618" 
d="M205 -9q-50 0 -89.5 23.5t-62 68t-22.5 109.5q0 60 17 117t49.5 102.5t78 72t102.5 26.5q33 0 63.5 -12t52 -37t29.5 -66l24 105h170l-116 -500h-154l17 94q-24 -48 -66 -75.5t-93 -27.5zM279 115q25 0 46 16t36.5 42.5t24 58t8.5 62.5q0 28 -9.5 48.5t-26.5 31.5t-41 11
q-28 0 -50 -16.5t-37 -42.5t-23 -56.5t-8 -58.5q0 -30 9 -51.5t26.5 -33t44.5 -11.5zM378 803q61 0 97 -32t36 -82q0 -60 -40.5 -99t-103.5 -39q-60 0 -97 31.5t-37 81.5q0 60 41 99.5t104 39.5zM375 729q-22 0 -38.5 -15.5t-16.5 -42.5q0 -20 14 -33t36 -13q23 0 39 15.5
t16 42.5q0 21 -13.5 33.5t-36.5 12.5z" />
    <glyph glyph-name="ae" unicode="&#xe6;" horiz-adv-x="884" 
d="M186 -10q-79 0 -123.5 38t-44.5 101q0 47 23.5 78.5t62.5 49.5t84 23l180 22l-13 -88l-102 -14q-37 -5 -59 -15t-22 -39q0 -23 15 -35t44 -12q37 0 59.5 18t30.5 54l29 128q2 8 2.5 15.5t0.5 13.5q0 31 -18 48.5t-53 17.5q-36 0 -57.5 -19t-34.5 -56l-138 34
q19 71 77 114t158 43q51 0 88 -15t58.5 -41t24.5 -61l-31 11q23 32 52.5 55.5t68.5 37t90 13.5q65 0 112.5 -27t73.5 -74.5t26 -109.5q0 -22 -2.5 -46t-9.5 -47h-355l10 93h194q1 5 1 10v9q0 24 -9 40.5t-24 24.5t-34 8q-35 0 -59 -17t-38 -45t-20 -60.5t-6 -62.5
q0 -31 12 -53t33.5 -33t48.5 -11q35 0 57 16t34 41l140 -54q-18 -38 -52.5 -65t-80 -41.5t-97.5 -14.5q-58 0 -104.5 21t-75 57.5t-35.5 83.5l36 -3q-8 -41 -36 -78t-76 -59.5t-116 -22.5z" />
    <glyph glyph-name="ccedilla" unicode="&#xe7;" horiz-adv-x="563" 
d="M286 -10q-79 0 -135.5 29.5t-86.5 81t-30 117.5q0 81 33.5 147t98 105.5t155.5 39.5q69 0 120.5 -23t81 -64t31.5 -96l-163 -26q3 39 -13.5 63t-57.5 24q-28 0 -50 -16.5t-37.5 -43.5t-24 -59.5t-8.5 -65.5q0 -28 10.5 -49t30 -32.5t46.5 -11.5t50.5 18.5t32.5 49.5
l152 -49q-28 -65 -89.5 -102t-146.5 -37zM197 8l46 23q56 -11 86 -40t30 -74q0 -41 -19 -70.5t-50.5 -45.5t-72.5 -16q-38 0 -66.5 11.5t-47.5 30.5l44 73q12 -12 30 -17.5t33 -5.5q25 0 41.5 17t16.5 40q0 24 -17.5 42t-53.5 32z" />
    <glyph glyph-name="egrave" unicode="&#xe8;" horiz-adv-x="582" 
d="M282 -9q-74 0 -130 28.5t-87 79.5t-31 119q0 84 34.5 149.5t98 103.5t151.5 38q73 0 124.5 -27.5t78.5 -77.5t27 -118q0 -19 -2 -40t-8 -41h-394v92h283l-47 -26q4 14 5 24t1 19q0 26 -9 43t-25 25.5t-38 8.5q-36 0 -59.5 -17t-37.5 -44.5t-19.5 -59.5t-5.5 -62
q0 -32 12.5 -54t34 -33.5t50.5 -11.5q36 0 58 16.5t34 41.5l140 -55q-17 -38 -52.5 -65t-83 -41.5t-103.5 -14.5zM376 738l30 -173h-117l-69 173h156z" />
    <glyph glyph-name="eacute" unicode="&#xe9;" horiz-adv-x="582" 
d="M282 -9q-74 0 -130 28.5t-87 79.5t-31 119q0 84 34.5 149.5t98 103.5t151.5 38q73 0 124.5 -27.5t78.5 -77.5t27 -118q0 -19 -2 -40t-8 -41h-394v92h283l-47 -26q4 14 5 24t1 19q0 26 -9 43t-25 25.5t-38 8.5q-36 0 -59.5 -17t-37.5 -44.5t-19.5 -59.5t-5.5 -62
q0 -32 12.5 -54t34 -33.5t50.5 -11.5q36 0 58 16.5t34 41.5l140 -55q-17 -38 -52.5 -65t-83 -41.5t-103.5 -14.5zM373 738h164l-148 -173h-126z" />
    <glyph glyph-name="ecircumflex" unicode="&#xea;" horiz-adv-x="582" 
d="M282 -9q-74 0 -130 28.5t-87 79.5t-31 119q0 84 34.5 149.5t98 103.5t151.5 38q73 0 124.5 -27.5t78.5 -77.5t27 -118q0 -19 -2 -40t-8 -41h-394v92h283l-47 -26q4 14 5 24t1 19q0 26 -9 43t-25 25.5t-38 8.5q-36 0 -59.5 -17t-37.5 -44.5t-19.5 -59.5t-5.5 -62
q0 -32 12.5 -54t34 -33.5t50.5 -11.5q36 0 58 16.5t34 41.5l140 -55q-17 -38 -52.5 -65t-83 -41.5t-103.5 -14.5zM148 559l149 173h165l69 -173h-118l-48 88l-88 -88h-129z" />
    <glyph glyph-name="edieresis" unicode="&#xeb;" horiz-adv-x="582" 
d="M282 -9q-74 0 -130 28.5t-87 79.5t-31 119q0 84 34.5 149.5t98 103.5t151.5 38q73 0 124.5 -27.5t78.5 -77.5t27 -118q0 -19 -2 -40t-8 -41h-394v92h283l-47 -26q4 14 5 24t1 19q0 26 -9 43t-25 25.5t-38 8.5q-36 0 -59.5 -17t-37.5 -44.5t-19.5 -59.5t-5.5 -62
q0 -32 12.5 -54t34 -33.5t50.5 -11.5q36 0 58 16.5t34 41.5l140 -55q-17 -38 -52.5 -65t-83 -41.5t-103.5 -14.5zM460 555q-36 0 -57.5 15.5t-21.5 47.5q0 47 26 69t69 22q36 0 57 -15.5t21 -47.5q0 -48 -26 -69.5t-68 -21.5zM237 555q-35 0 -56.5 15.5t-21.5 47.5
q0 47 26 69t69 22q35 0 56.5 -15.5t21.5 -47.5q0 -48 -26 -69.5t-69 -21.5z" />
    <glyph glyph-name="igrave" unicode="&#xec;" horiz-adv-x="288" 
d="M287 500l-116 -500h-170l116 500h170zM247 738l30 -173h-117l-69 173h156z" />
    <glyph glyph-name="iacute" unicode="&#xed;" horiz-adv-x="288" 
d="M287 500l-116 -500h-170l116 500h170zM244 738h164l-148 -173h-126z" />
    <glyph glyph-name="icircumflex" unicode="&#xee;" horiz-adv-x="288" 
d="M287 500l-116 -500h-170l116 500h170zM19 559l149 173h165l69 -173h-118l-48 88l-88 -88h-129z" />
    <glyph glyph-name="idieresis" unicode="&#xef;" horiz-adv-x="288" 
d="M327 555q-36 0 -57.5 15.5t-21.5 47.5q0 47 26 69t69 22q36 0 57 -15.5t21 -47.5q0 -48 -26 -69.5t-68 -21.5zM112 555q-35 0 -56.5 15.5t-21.5 47.5q0 47 26 69t69 22q35 0 56.5 -15.5t21.5 -47.5q0 -48 -26 -69.5t-69 -21.5zM287 500l-116 -500h-170l116 500h170z" />
    <glyph glyph-name="eth" unicode="&#xf0;" horiz-adv-x="599" 
d="M272 -10q-71 0 -124 29t-82.5 81.5t-29.5 119.5q0 79 33 142t91 99.5t133 36.5q51 0 86 -16.5t53.5 -47t18.5 -73.5l-11 -14q2 14 3 27.5t1 27.5q0 67 -21.5 123.5t-62.5 105t-100 91.5h148q35 -21 65 -55t52.5 -76.5t35 -92.5t12.5 -106q0 -84 -19.5 -157t-57.5 -128
t-94.5 -86t-129.5 -31zM285 110q27 0 48.5 17t36.5 44.5t23 60t8 63.5q0 29 -10.5 48.5t-28.5 29.5t-44 10q-27 0 -48.5 -17.5t-37 -45.5t-23.5 -60t-8 -60t10 -48t29 -31t45 -11zM251 542l-10 59l165 28l30 -52zM480 584l-22 52l164 32l11 -58z" />
    <glyph glyph-name="ntilde" unicode="&#xf1;" horiz-adv-x="611" 
d="M0 0l116 500h151l-25 -159l-9 14q21 75 74 115t123 40q54 0 90.5 -23.5t51 -66.5t0.5 -104l-74 -316h-170l69 295q9 40 -7 62.5t-52 22.5q-27 0 -47.5 -12.5t-35 -37t-22.5 -60.5l-63 -270h-170zM595 718q-12 -80 -52 -119.5t-90 -39.5q-27 0 -45 9t-31.5 20.5t-26 20.5
t-26.5 9q-16 0 -27 -16t-18 -42h-94q12 80 50 119.5t90 39.5q23 0 41 -9t32.5 -20.5t28 -20.5t28.5 -9t26.5 15t18.5 43h95z" />
    <glyph glyph-name="ograve" unicode="&#xf2;" horiz-adv-x="600" 
d="M281 -10q-76 0 -131.5 30t-85.5 81.5t-30 115.5q0 81 33.5 147.5t97 106t154.5 39.5q77 0 132 -30t85 -81t30 -116q0 -80 -33.5 -147t-97 -106.5t-154.5 -39.5zM283 110q26 0 47.5 16.5t37 44.5t23.5 60.5t8 65.5q0 29 -9.5 49.5t-28 32t-45.5 11.5q-25 0 -46.5 -16.5
t-37 -44t-24 -60.5t-8.5 -66q0 -28 9.5 -49t28.5 -32.5t45 -11.5zM387 738l30 -173h-117l-69 173h156z" />
    <glyph glyph-name="oacute" unicode="&#xf3;" horiz-adv-x="600" 
d="M281 -10q-76 0 -131.5 30t-85.5 81.5t-30 115.5q0 81 33.5 147.5t97 106t154.5 39.5q77 0 132 -30t85 -81t30 -116q0 -80 -33.5 -147t-97 -106.5t-154.5 -39.5zM283 110q26 0 47.5 16.5t37 44.5t23.5 60.5t8 65.5q0 29 -9.5 49.5t-28 32t-45.5 11.5q-25 0 -46.5 -16.5
t-37 -44t-24 -60.5t-8.5 -66q0 -28 9.5 -49t28.5 -32.5t45 -11.5zM384 738h164l-148 -173h-126z" />
    <glyph glyph-name="ocircumflex" unicode="&#xf4;" horiz-adv-x="600" 
d="M281 -10q-76 0 -131.5 30t-85.5 81.5t-30 115.5q0 81 33.5 147.5t97 106t154.5 39.5q77 0 132 -30t85 -81t30 -116q0 -80 -33.5 -147t-97 -106.5t-154.5 -39.5zM283 110q26 0 47.5 16.5t37 44.5t23.5 60.5t8 65.5q0 29 -9.5 49.5t-28 32t-45.5 11.5q-25 0 -46.5 -16.5
t-37 -44t-24 -60.5t-8.5 -66q0 -28 9.5 -49t28.5 -32.5t45 -11.5zM159 559l149 173h165l69 -173h-118l-48 88l-88 -88h-129z" />
    <glyph glyph-name="otilde" unicode="&#xf5;" horiz-adv-x="600" 
d="M281 -10q-76 0 -131.5 30t-85.5 81.5t-30 115.5q0 81 33.5 147.5t97 106t154.5 39.5q77 0 132 -30t85 -81t30 -116q0 -80 -33.5 -147t-97 -106.5t-154.5 -39.5zM283 110q26 0 47.5 16.5t37 44.5t23.5 60.5t8 65.5q0 29 -9.5 49.5t-28 32t-45.5 11.5q-25 0 -46.5 -16.5
t-37 -44t-24 -60.5t-8.5 -66q0 -28 9.5 -49t28.5 -32.5t45 -11.5zM573 718q-12 -80 -52 -119.5t-90 -39.5q-27 0 -45 9t-31.5 20.5t-26 20.5t-26.5 9q-16 0 -27 -16t-18 -42h-94q12 80 50 119.5t90 39.5q23 0 41 -9t32.5 -20.5t28 -20.5t28.5 -9t26.5 15t18.5 43h95z" />
    <glyph glyph-name="odieresis" unicode="&#xf6;" horiz-adv-x="600" 
d="M281 -10q-76 0 -131.5 30t-85.5 81.5t-30 115.5q0 81 33.5 147.5t97 106t154.5 39.5q77 0 132 -30t85 -81t30 -116q0 -80 -33.5 -147t-97 -106.5t-154.5 -39.5zM283 110q26 0 47.5 16.5t37 44.5t23.5 60.5t8 65.5q0 29 -9.5 49.5t-28 32t-45.5 11.5q-25 0 -46.5 -16.5
t-37 -44t-24 -60.5t-8.5 -66q0 -28 9.5 -49t28.5 -32.5t45 -11.5zM471 555q-36 0 -57.5 15.5t-21.5 47.5q0 47 26 69t69 22q36 0 57 -15.5t21 -47.5q0 -48 -26 -69.5t-68 -21.5zM248 555q-35 0 -56.5 15.5t-21.5 47.5q0 47 26 69t69 22q35 0 56.5 -15.5t21.5 -47.5
q0 -48 -26 -69.5t-69 -21.5z" />
    <glyph glyph-name="divide" unicode="&#xf7;" horiz-adv-x="623" 
d="M595 386l-28 -122h-504l28 122h504zM274 29q-35 0 -56.5 17.5t-21.5 51.5q0 42 24 67.5t64 25.5q35 0 56 -18t21 -51q0 -43 -23 -68t-64 -25zM374 459q-35 0 -56.5 17.5t-21.5 51.5q0 42 23.5 67.5t63.5 25.5q35 0 56.5 -18t21.5 -51q0 -43 -23.5 -68t-63.5 -25z" />
    <glyph glyph-name="oslash" unicode="&#xf8;" horiz-adv-x="600" 
d="M281 -10q-76 0 -131.5 30t-85.5 81.5t-30 115.5q0 81 33.5 147.5t97 106t154.5 39.5q77 0 132 -30t85 -81t30 -116q0 -80 -33.5 -147t-97 -106.5t-154.5 -39.5zM283 110q26 0 47.5 16.5t37 44.5t23.5 60.5t8 65.5q0 29 -9.5 49.5t-28 32t-45.5 11.5q-25 0 -46.5 -16.5
t-37 -44t-24 -60.5t-8.5 -66q0 -28 9.5 -49t28.5 -32.5t45 -11.5zM-8 -23l540 546h75l-541 -546h-74z" />
    <glyph glyph-name="ugrave" unicode="&#xf9;" horiz-adv-x="610" 
d="M183 -9q-53 0 -90 23t-52.5 65.5t-2.5 101.5l75 319h170l-68 -294q-10 -41 7.5 -63t52.5 -22q27 0 47 12.5t33.5 37t21.5 59.5l63 270h170l-116 -500h-151l25 159l9 -15q-21 -74 -72.5 -113.5t-121.5 -39.5zM399 734l30 -173h-117l-69 173h156z" />
    <glyph glyph-name="uacute" unicode="&#xfa;" horiz-adv-x="610" 
d="M183 -9q-53 0 -90 23t-52.5 65.5t-2.5 101.5l75 319h170l-68 -294q-10 -41 7.5 -63t52.5 -22q27 0 47 12.5t33.5 37t21.5 59.5l63 270h170l-116 -500h-151l25 159l9 -15q-21 -74 -72.5 -113.5t-121.5 -39.5zM396 734h164l-148 -173h-126z" />
    <glyph glyph-name="ucircumflex" unicode="&#xfb;" horiz-adv-x="610" 
d="M183 -9q-53 0 -90 23t-52.5 65.5t-2.5 101.5l75 319h170l-68 -294q-10 -41 7.5 -63t52.5 -22q27 0 47 12.5t33.5 37t21.5 59.5l63 270h170l-116 -500h-151l25 159l9 -15q-21 -74 -72.5 -113.5t-121.5 -39.5zM171 555l149 173h165l69 -173h-118l-48 88l-88 -88h-129z" />
    <glyph glyph-name="udieresis" unicode="&#xfc;" horiz-adv-x="610" 
d="M183 -9q-53 0 -90 23t-52.5 65.5t-2.5 101.5l75 319h170l-68 -294q-10 -41 7.5 -63t52.5 -22q27 0 47 12.5t33.5 37t21.5 59.5l63 270h170l-116 -500h-151l25 159l9 -15q-21 -74 -72.5 -113.5t-121.5 -39.5zM483 551q-36 0 -57.5 15.5t-21.5 47.5q0 47 26 69t69 22
q36 0 57 -15.5t21 -47.5q0 -48 -26 -69.5t-68 -21.5zM260 551q-35 0 -56.5 15.5t-21.5 47.5q0 47 26 69t69 22q35 0 56.5 -15.5t21.5 -47.5q0 -48 -26 -69.5t-69 -21.5z" />
    <glyph glyph-name="yacute" unicode="&#xfd;" horiz-adv-x="558" 
d="M44 -215q-43 0 -79 9.5t-57 25.5l47 119q35 -29 86 -29q28 0 49.5 11t36.5 35l20 33l-88 511h172l15 -269l4 -122l57 119l132 272h181l-322 -542q-36 -62 -74 -100.5t-81.5 -55.5t-98.5 -17zM391 734h164l-148 -173h-126z" />
    <glyph glyph-name="thorn" unicode="&#xfe;" horiz-adv-x="618" 
d="M-48 -210l213 922h170l-85 -368l-13 -8q16 80 66.5 126.5t121.5 46.5q47 0 83.5 -22.5t57.5 -67t21 -108.5q0 -60 -17 -118t-48.5 -103.5t-75 -72.5t-96.5 -27q-40 0 -76.5 15.5t-59.5 49t-24 87.5l21 33l-89 -385h-170zM302 115q27 0 48.5 16.5t36.5 42.5t23.5 57
t8.5 60q0 30 -9 50.5t-27 31.5t-43 11q-26 0 -47.5 -15.5t-37 -41.5t-23.5 -58t-8 -64q0 -41 20 -65.5t58 -24.5z" />
    <glyph glyph-name="ydieresis" unicode="&#xff;" horiz-adv-x="558" 
d="M44 -215q-43 0 -79 9.5t-57 25.5l47 119q35 -29 86 -29q28 0 49.5 11t36.5 35l20 33l-88 511h172l15 -269l4 -122l57 119l132 272h181l-322 -542q-36 -62 -74 -100.5t-81.5 -55.5t-98.5 -17zM478 551q-36 0 -57.5 15.5t-21.5 47.5q0 47 26 69t69 22q36 0 57 -15.5
t21 -47.5q0 -48 -26 -69.5t-68 -21.5zM255 551q-35 0 -56.5 15.5t-21.5 47.5q0 47 26 69t69 22q35 0 56.5 -15.5t21.5 -47.5q0 -48 -26 -69.5t-69 -21.5z" />
    <glyph glyph-name="Amacron" unicode="&#x100;" horiz-adv-x="671" 
d="M-55 0l382 660h208l74 -660h-163l-13 155h-225l-84 -155h-179zM270 272h157l-20 256zM647 834l-24 -105h-359l25 105h358z" />
    <glyph glyph-name="amacron" unicode="&#x101;" horiz-adv-x="618" 
d="M205 -9q-50 0 -89.5 23.5t-62 68t-22.5 109.5q0 60 17 117t49.5 102.5t78 72t102.5 26.5q33 0 63.5 -12t52 -37t29.5 -66l24 105h170l-116 -500h-154l17 94q-24 -48 -66 -75.5t-93 -27.5zM279 115q25 0 46 16t36.5 42.5t24 58t8.5 62.5q0 28 -9.5 48.5t-26.5 31.5t-41 11
q-28 0 -50 -16.5t-37 -42.5t-23 -56.5t-8 -58.5q0 -30 9 -51.5t26.5 -33t44.5 -11.5zM563 674l-24 -105h-359l25 105h358z" />
    <glyph glyph-name="Abreve" unicode="&#x102;" horiz-adv-x="671" 
d="M-55 0l382 660h208l74 -660h-163l-13 155h-225l-84 -155h-179zM270 272h157l-20 256zM637 878q-12 -74 -64.5 -118.5t-131.5 -44.5q-69 0 -108 34.5t-39 89.5q0 9 1.5 19t3.5 20h107q-1 -5 -1.5 -10.5t-0.5 -10.5q0 -22 14 -34.5t39 -12.5q27 0 46 17.5t25 50.5h109z" />
    <glyph glyph-name="abreve" unicode="&#x103;" horiz-adv-x="618" 
d="M205 -9q-50 0 -89.5 23.5t-62 68t-22.5 109.5q0 60 17 117t49.5 102.5t78 72t102.5 26.5q33 0 63.5 -12t52 -37t29.5 -66l24 105h170l-116 -500h-154l17 94q-24 -48 -66 -75.5t-93 -27.5zM279 115q25 0 46 16t36.5 42.5t24 58t8.5 62.5q0 28 -9.5 48.5t-26.5 31.5t-41 11
q-28 0 -50 -16.5t-37 -42.5t-23 -56.5t-8 -58.5q0 -30 9 -51.5t26.5 -33t44.5 -11.5zM555 718q-12 -74 -64.5 -118.5t-131.5 -44.5q-69 0 -108 34.5t-39 89.5q0 9 1.5 19t3.5 20h107q-1 -5 -1.5 -10.5t-0.5 -10.5q0 -22 14 -34.5t39 -12.5q27 0 46 17.5t25 50.5h109z" />
    <glyph glyph-name="Aogonek" unicode="&#x104;" horiz-adv-x="671" 
d="M502 -219q-36 0 -67.5 11.5t-51.5 35.5t-20 62q0 41 23 70.5t65 48.5t99 28l59 -37q-32 -5 -61 -15t-47 -26.5t-18 -41.5t17.5 -34t37.5 -9q11 0 19 1.5t15 4.5l-6 -86q-15 -7 -32 -10t-32 -3zM-55 0l382 660h208l74 -660h-163l-13 155h-225l-84 -155h-179zM270 272h157
l-20 256z" />
    <glyph glyph-name="aogonek" unicode="&#x105;" horiz-adv-x="618" 
d="M395 -219q-36 0 -67 10.5t-50.5 33.5t-19.5 61q0 39 23 68.5t64 50.5t95 32l61 -37q-56 -20 -89 -39t-33 -50q0 -22 16 -30t36 -8q10 0 18.5 2t15.5 5l-6 -86q-15 -7 -32 -10t-32 -3zM205 -9q-50 0 -89.5 23.5t-62 68t-22.5 109.5q0 60 17 117t49.5 102.5t78 72
t102.5 26.5q33 0 63.5 -12t52 -37t29.5 -66l24 105h170l-116 -500h-154l17 94q-24 -48 -66 -75.5t-93 -27.5zM279 115q25 0 46 16t36.5 42.5t24 58t8.5 62.5q0 28 -9.5 48.5t-26.5 31.5t-41 11q-28 0 -50 -16.5t-37 -42.5t-23 -56.5t-8 -58.5q0 -30 9 -51.5t26.5 -33
t44.5 -11.5z" />
    <glyph glyph-name="Cacute" unicode="&#x106;" horiz-adv-x="688" 
d="M356 -10q-85 0 -152 34t-106 98t-39 153q0 84 24 155.5t70 125.5t112.5 84t152.5 30q74 0 132 -25t95 -72.5t49 -117.5l-165 -37q-6 60 -34 88.5t-82 28.5q-46 0 -80 -24.5t-57 -63.5t-33.5 -85t-10.5 -90q0 -46 16 -78.5t46.5 -50.5t72.5 -18q51 0 80 26.5t49 69.5
l154 -60q-43 -79 -114 -125t-180 -46zM475 886h157l-126 -163h-127z" />
    <glyph glyph-name="cacute" unicode="&#x107;" horiz-adv-x="563" 
d="M286 -10q-79 0 -135.5 29.5t-86.5 81t-30 117.5q0 81 33.5 147t98 105.5t155.5 39.5q69 0 120.5 -23t81 -64t31.5 -96l-163 -26q3 39 -13.5 63t-57.5 24q-28 0 -50 -16.5t-37.5 -43.5t-24 -59.5t-8.5 -65.5q0 -28 10.5 -49t30 -32.5t46.5 -11.5t50.5 18.5t32.5 49.5
l152 -49q-28 -65 -89.5 -102t-146.5 -37zM385 738h164l-148 -173h-126z" />
    <glyph glyph-name="Ccircumflex" unicode="&#x108;" horiz-adv-x="688" 
d="M356 -10q-85 0 -152 34t-106 98t-39 153q0 84 24 155.5t70 125.5t112.5 84t152.5 30q74 0 132 -25t95 -72.5t49 -117.5l-165 -37q-6 60 -34 88.5t-82 28.5q-46 0 -80 -24.5t-57 -63.5t-33.5 -85t-10.5 -90q0 -46 16 -78.5t46.5 -50.5t72.5 -18q51 0 80 26.5t49 69.5
l154 -60q-43 -79 -114 -125t-180 -46zM570 886l62 -163h-112l-45 91l-85 -91h-124l138 163h166z" />
    <glyph glyph-name="ccircumflex" unicode="&#x109;" horiz-adv-x="563" 
d="M286 -10q-79 0 -135.5 29.5t-86.5 81t-30 117.5q0 81 33.5 147t98 105.5t155.5 39.5q69 0 120.5 -23t81 -64t31.5 -96l-163 -26q3 39 -13.5 63t-57.5 24q-28 0 -50 -16.5t-37.5 -43.5t-24 -59.5t-8.5 -65.5q0 -28 10.5 -49t30 -32.5t46.5 -11.5t50.5 18.5t32.5 49.5
l152 -49q-28 -65 -89.5 -102t-146.5 -37zM160 559l149 173h165l69 -173h-118l-48 88l-88 -88h-129z" />
    <glyph glyph-name="Cdotaccent" unicode="&#x10a;" horiz-adv-x="688" 
d="M356 -10q-85 0 -152 34t-106 98t-39 153q0 84 24 155.5t70 125.5t112.5 84t152.5 30q74 0 132 -25t95 -72.5t49 -117.5l-165 -37q-6 60 -34 88.5t-82 28.5q-46 0 -80 -24.5t-57 -63.5t-33.5 -85t-10.5 -90q0 -46 16 -78.5t46.5 -50.5t72.5 -18q51 0 80 26.5t49 69.5
l154 -60q-43 -79 -114 -125t-180 -46zM454 721q-38 0 -61 16t-23 49q0 50 27.5 73t72.5 23q41 0 63.5 -16.5t22.5 -48.5q0 -50 -27.5 -73t-74.5 -23z" />
    <glyph glyph-name="cdotaccent" unicode="&#x10b;" horiz-adv-x="563" 
d="M286 -10q-79 0 -135.5 29.5t-86.5 81t-30 117.5q0 81 33.5 147t98 105.5t155.5 39.5q69 0 120.5 -23t81 -64t31.5 -96l-163 -26q3 39 -13.5 63t-57.5 24q-28 0 -50 -16.5t-37.5 -43.5t-24 -59.5t-8.5 -65.5q0 -28 10.5 -49t30 -32.5t46.5 -11.5t50.5 18.5t32.5 49.5
l152 -49q-28 -65 -89.5 -102t-146.5 -37zM361 561q-38 0 -61 16t-23 49q0 50 27.5 73t72.5 23q41 0 63.5 -16.5t22.5 -48.5q0 -50 -27.5 -73t-74.5 -23z" />
    <glyph glyph-name="Ccaron" unicode="&#x10c;" horiz-adv-x="688" 
d="M356 -10q-85 0 -152 34t-106 98t-39 153q0 84 24 155.5t70 125.5t112.5 84t152.5 30q74 0 132 -25t95 -72.5t49 -117.5l-165 -37q-6 60 -34 88.5t-82 28.5q-46 0 -80 -24.5t-57 -63.5t-33.5 -85t-10.5 -90q0 -46 16 -78.5t46.5 -50.5t72.5 -18q51 0 80 26.5t49 69.5
l154 -60q-43 -79 -114 -125t-180 -46zM361 723l-63 163h113l45 -91l85 91h124l-138 -163h-166z" />
    <glyph glyph-name="ccaron" unicode="&#x10d;" horiz-adv-x="563" 
d="M286 -10q-79 0 -135.5 29.5t-86.5 81t-30 117.5q0 81 33.5 147t98 105.5t155.5 39.5q69 0 120.5 -23t81 -64t31.5 -96l-163 -26q3 39 -13.5 63t-57.5 24q-28 0 -50 -16.5t-37.5 -43.5t-24 -59.5t-8.5 -65.5q0 -28 10.5 -49t30 -32.5t46.5 -11.5t50.5 18.5t32.5 49.5
l152 -49q-28 -65 -89.5 -102t-146.5 -37zM261 565l-69 173h114l50 -90l90 90h129l-149 -173h-165z" />
    <glyph glyph-name="Dcaron" unicode="&#x10e;" horiz-adv-x="708" 
d="M14 0l153 660h233q94 0 157.5 -34t96.5 -95t33 -141q0 -87 -25 -158.5t-73 -123t-116.5 -80t-154.5 -28.5h-304zM216 130h96q50 0 88 22t63 59.5t37.5 83.5t12.5 94q0 43 -14.5 74.5t-43.5 49t-74 17.5h-72zM346 723l-63 163h113l45 -91l85 91h124l-138 -163h-166z" />
    <glyph glyph-name="dcaron" unicode="&#x10f;" horiz-adv-x="701" 
d="M861 712l-108 -239h-102l77 239h133zM206 -9q-50 0 -89.5 23.5t-62 68t-22.5 109.5q0 60 17.5 117t49.5 102.5t78 72t102 26.5q34 0 64 -12t52 -37t29 -66l73 317h170l-164 -712h-154l17 94q-25 -48 -67 -75.5t-93 -27.5zM280 115q25 0 46.5 16t36.5 42.5t23.5 58
t8.5 62.5q0 28 -9.5 48.5t-26.5 31.5t-40 11q-29 0 -51 -16.5t-37 -42.5t-23 -56.5t-8 -58.5q0 -30 9 -51.5t26.5 -33t44.5 -11.5z" />
    <glyph glyph-name="Dcroat" unicode="&#x110;" horiz-adv-x="732" 
d="M14 270l27 120h386l-27 -120h-386zM38 0l153 660h233q94 0 158 -34t96.5 -95t32.5 -141q0 -87 -25 -158.5t-73 -123t-116 -80t-155 -28.5h-304zM240 130h97q49 0 87 22t63 59.5t38 83.5t13 94q0 43 -14.5 74.5t-44 49t-74.5 17.5h-72z" />
    <glyph glyph-name="dcroat" unicode="&#x111;" horiz-adv-x="628" 
d="M731 635l-22 -97h-387l22 97h387zM205 -9q-50 0 -89.5 23.5t-62 68t-22.5 109.5q0 60 17 117t49.5 102.5t78 72t102.5 26.5q33 0 63.5 -12t52 -37t29.5 -66l73 317h170l-165 -712h-154l17 94q-24 -48 -66 -75.5t-93 -27.5zM279 115q25 0 46 16t36.5 42.5t24 58t8.5 62.5
q0 28 -9.5 48.5t-26.5 31.5t-41 11q-28 0 -50 -16.5t-37 -42.5t-23 -56.5t-8 -58.5q0 -30 9 -51.5t26.5 -33t44.5 -11.5z" />
    <glyph glyph-name="Emacron" unicode="&#x112;" 
d="M14 0l153 660h514l-32 -133h-341l-31 -134h269l-29 -125h-269l-31 -135h352l-31 -133h-524zM638 834l-24 -105h-359l25 105h358z" />
    <glyph glyph-name="emacron" unicode="&#x113;" horiz-adv-x="582" 
d="M282 -9q-74 0 -130 28.5t-87 79.5t-31 119q0 84 34.5 149.5t98 103.5t151.5 38q73 0 124.5 -27.5t78.5 -77.5t27 -118q0 -19 -2 -40t-8 -41h-394v92h283l-47 -26q4 14 5 24t1 19q0 26 -9 43t-25 25.5t-38 8.5q-36 0 -59.5 -17t-37.5 -44.5t-19.5 -59.5t-5.5 -62
q0 -32 12.5 -54t34 -33.5t50.5 -11.5q36 0 58 16.5t34 41.5l140 -55q-17 -38 -52.5 -65t-83 -41.5t-103.5 -14.5zM550 674l-24 -105h-359l25 105h358z" />
    <glyph glyph-name="Ebreve" unicode="&#x114;" 
d="M14 0l153 660h514l-32 -133h-341l-31 -134h269l-29 -125h-269l-31 -135h352l-31 -133h-524zM628 878q-12 -74 -64.5 -118.5t-131.5 -44.5q-69 0 -108 34.5t-39 89.5q0 9 1.5 19t3.5 20h107q-1 -5 -1.5 -10.5t-0.5 -10.5q0 -22 14 -34.5t39 -12.5q27 0 46 17.5t25 50.5
h109z" />
    <glyph glyph-name="ebreve" unicode="&#x115;" horiz-adv-x="582" 
d="M282 -9q-74 0 -130 28.5t-87 79.5t-31 119q0 84 34.5 149.5t98 103.5t151.5 38q73 0 124.5 -27.5t78.5 -77.5t27 -118q0 -19 -2 -40t-8 -41h-394v92h283l-47 -26q4 14 5 24t1 19q0 26 -9 43t-25 25.5t-38 8.5q-36 0 -59.5 -17t-37.5 -44.5t-19.5 -59.5t-5.5 -62
q0 -32 12.5 -54t34 -33.5t50.5 -11.5q36 0 58 16.5t34 41.5l140 -55q-17 -38 -52.5 -65t-83 -41.5t-103.5 -14.5zM542 718q-12 -74 -64.5 -118.5t-131.5 -44.5q-69 0 -108 34.5t-39 89.5q0 9 1.5 19t3.5 20h107q-1 -5 -1.5 -10.5t-0.5 -10.5q0 -22 14 -34.5t39 -12.5
q27 0 46 17.5t25 50.5h109z" />
    <glyph glyph-name="Edotaccent" unicode="&#x116;" 
d="M14 0l153 660h514l-32 -133h-341l-31 -134h269l-29 -125h-269l-31 -135h352l-31 -133h-524zM437 721q-38 0 -61 16t-23 49q0 50 27.5 73t72.5 23q41 0 63.5 -16.5t22.5 -48.5q0 -50 -27.5 -73t-74.5 -23z" />
    <glyph glyph-name="edotaccent" unicode="&#x117;" horiz-adv-x="582" 
d="M282 -9q-74 0 -130 28.5t-87 79.5t-31 119q0 84 34.5 149.5t98 103.5t151.5 38q73 0 124.5 -27.5t78.5 -77.5t27 -118q0 -19 -2 -40t-8 -41h-394v92h283l-47 -26q4 14 5 24t1 19q0 26 -9 43t-25 25.5t-38 8.5q-36 0 -59.5 -17t-37.5 -44.5t-19.5 -59.5t-5.5 -62
q0 -32 12.5 -54t34 -33.5t50.5 -11.5q36 0 58 16.5t34 41.5l140 -55q-17 -38 -52.5 -65t-83 -41.5t-103.5 -14.5zM349 561q-38 0 -61 16t-23 49q0 50 27.5 73t72.5 23q41 0 63.5 -16.5t22.5 -48.5q0 -50 -27.5 -73t-74.5 -23z" />
    <glyph glyph-name="Eogonek" unicode="&#x118;" 
d="M431 -219q-35 0 -67 10.5t-52 33t-20 58.5t19 63.5t62.5 45.5t116.5 26l48 -18q-35 -5 -64 -15t-45.5 -26.5t-16.5 -41.5t17.5 -34t37.5 -9q10 0 17.5 1.5t14.5 4.5l-6 -86q-15 -7 -31 -10t-31 -3zM14 0l153 660h514l-32 -133h-341l-31 -134h269l-29 -125h-269l-31 -135
h352l-31 -133h-524z" />
    <glyph glyph-name="eogonek" unicode="&#x119;" horiz-adv-x="582" 
d="M282 -9q-74 0 -130 28.5t-87 79.5t-31 119q0 84 34.5 149.5t98 103.5t151.5 38q73 0 124.5 -27.5t78.5 -77.5t27 -118q0 -19 -2 -40t-8 -41h-394v92h283l-47 -26q4 14 5 24t1 19q0 26 -9 43t-25 25.5t-38 8.5q-36 0 -59.5 -17t-37.5 -44.5t-19.5 -59.5t-5.5 -62
q0 -32 12.5 -54t34 -33.5t50.5 -11.5q36 0 58 16.5t34 41.5l140 -55q-17 -38 -52.5 -65t-83 -41.5t-103.5 -14.5zM282 -218q-35 0 -66 12t-50 36.5t-19 62.5q0 41 22 69.5t63.5 46.5t98.5 26l59 -26q-34 -12 -62.5 -24t-45.5 -27.5t-17 -39.5q0 -23 17 -32.5t37 -9.5
q10 0 18 2l16 4l-6 -87q-16 -7 -32.5 -10t-32.5 -3z" />
    <glyph glyph-name="Ecaron" unicode="&#x11a;" 
d="M14 0l153 660h514l-32 -133h-341l-31 -134h269l-29 -125h-269l-31 -135h352l-31 -133h-524zM344 723l-63 163h113l45 -91l85 91h124l-138 -163h-166z" />
    <glyph glyph-name="ecaron" unicode="&#x11b;" horiz-adv-x="582" 
d="M282 -9q-74 0 -130 28.5t-87 79.5t-31 119q0 84 34.5 149.5t98 103.5t151.5 38q73 0 124.5 -27.5t78.5 -77.5t27 -118q0 -19 -2 -40t-8 -41h-394v92h283l-47 -26q4 14 5 24t1 19q0 26 -9 43t-25 25.5t-38 8.5q-36 0 -59.5 -17t-37.5 -44.5t-19.5 -59.5t-5.5 -62
q0 -32 12.5 -54t34 -33.5t50.5 -11.5q36 0 58 16.5t34 41.5l140 -55q-17 -38 -52.5 -65t-83 -41.5t-103.5 -14.5zM249 565l-69 173h114l50 -90l90 90h129l-149 -173h-165z" />
    <glyph glyph-name="Gcircumflex" unicode="&#x11c;" horiz-adv-x="715" 
d="M322 -9q-74 0 -133.5 34.5t-94.5 98.5t-35 153q0 80 24 150.5t70 125.5t113.5 86t155.5 31q73 0 131.5 -23.5t97 -69.5t48.5 -113l-162 -31q-7 50 -37 76t-82 26q-42 0 -76.5 -19t-59 -53t-37.5 -78.5t-13 -94.5q0 -52 16 -90t48 -58.5t80 -20.5q38 0 66 12t46 33.5
t27 49.5l8 22h-158l26 114h294l-88 -352h-114l33 155l15 -16q-18 -48 -46 -81t-68 -50t-95 -17zM575 886l62 -163h-112l-45 91l-85 -91h-124l138 163h166z" />
    <glyph glyph-name="gcircumflex" unicode="&#x11d;" horiz-adv-x="616" 
d="M210 -215q-45 0 -86.5 11t-73.5 34t-51 57.5t-20 80.5l171 18q2 -42 18.5 -66.5t61.5 -24.5q25 0 45.5 11t36 36t24.5 68l37 160h9q-16 -76 -61 -116.5t-112 -40.5q-50 0 -90 23.5t-63 68t-23 105.5q0 60 17.5 113.5t49.5 96t77 66.5t101 24q39 0 72.5 -17t55 -52.5
t20.5 -90.5l-20 -25l40 175h170l-110 -476q-21 -89 -60.5 -141t-98.5 -75t-137 -23zM284 136q33 0 57.5 23t38 59.5t13.5 77.5q0 27 -9.5 47t-27 31t-41.5 11q-36 0 -61.5 -23.5t-39 -59t-13.5 -72.5q0 -42 21 -68t62 -26zM168 559l149 173h165l69 -173h-118l-48 88l-88 -88
h-129z" />
    <glyph glyph-name="Gbreve" unicode="&#x11e;" horiz-adv-x="715" 
d="M322 -9q-74 0 -133.5 34.5t-94.5 98.5t-35 153q0 80 24 150.5t70 125.5t113.5 86t155.5 31q73 0 131.5 -23.5t97 -69.5t48.5 -113l-162 -31q-7 50 -37 76t-82 26q-42 0 -76.5 -19t-59 -53t-37.5 -78.5t-13 -94.5q0 -52 16 -90t48 -58.5t80 -20.5q38 0 66 12t46 33.5
t27 49.5l8 22h-158l26 114h294l-88 -352h-114l33 155l15 -16q-18 -48 -46 -81t-68 -50t-95 -17zM649 878q-12 -74 -64.5 -118.5t-131.5 -44.5q-69 0 -108 34.5t-39 89.5q0 9 1.5 19t3.5 20h107q-1 -5 -1.5 -10.5t-0.5 -10.5q0 -22 14 -34.5t39 -12.5q27 0 46 17.5t25 50.5
h109z" />
    <glyph glyph-name="gbreve" unicode="&#x11f;" horiz-adv-x="616" 
d="M210 -215q-45 0 -86.5 11t-73.5 34t-51 57.5t-20 80.5l171 18q2 -42 18.5 -66.5t61.5 -24.5q25 0 45.5 11t36 36t24.5 68l37 160h9q-16 -76 -61 -116.5t-112 -40.5q-50 0 -90 23.5t-63 68t-23 105.5q0 60 17.5 113.5t49.5 96t77 66.5t101 24q39 0 72.5 -17t55 -52.5
t20.5 -90.5l-20 -25l40 175h170l-110 -476q-21 -89 -60.5 -141t-98.5 -75t-137 -23zM284 136q33 0 57.5 23t38 59.5t13.5 77.5q0 27 -9.5 47t-27 31t-41.5 11q-36 0 -61.5 -23.5t-39 -59t-13.5 -72.5q0 -42 21 -68t62 -26zM562 718q-12 -74 -64.5 -118.5t-131.5 -44.5
q-69 0 -108 34.5t-39 89.5q0 9 1.5 19t3.5 20h107q-1 -5 -1.5 -10.5t-0.5 -10.5q0 -22 14 -34.5t39 -12.5q27 0 46 17.5t25 50.5h109z" />
    <glyph glyph-name="Gdotaccent" unicode="&#x120;" horiz-adv-x="715" 
d="M322 -9q-74 0 -133.5 34.5t-94.5 98.5t-35 153q0 80 24 150.5t70 125.5t113.5 86t155.5 31q73 0 131.5 -23.5t97 -69.5t48.5 -113l-162 -31q-7 50 -37 76t-82 26q-42 0 -76.5 -19t-59 -53t-37.5 -78.5t-13 -94.5q0 -52 16 -90t48 -58.5t80 -20.5q38 0 66 12t46 33.5
t27 49.5l8 22h-158l26 114h294l-88 -352h-114l33 155l15 -16q-18 -48 -46 -81t-68 -50t-95 -17zM458 721q-38 0 -61 16t-23 49q0 50 27.5 73t72.5 23q41 0 63.5 -16.5t22.5 -48.5q0 -50 -27.5 -73t-74.5 -23z" />
    <glyph glyph-name="gdotaccent" unicode="&#x121;" horiz-adv-x="616" 
d="M210 -215q-45 0 -86.5 11t-73.5 34t-51 57.5t-20 80.5l171 18q2 -42 18.5 -66.5t61.5 -24.5q25 0 45.5 11t36 36t24.5 68l37 160h9q-16 -76 -61 -116.5t-112 -40.5q-50 0 -90 23.5t-63 68t-23 105.5q0 60 17.5 113.5t49.5 96t77 66.5t101 24q39 0 72.5 -17t55 -52.5
t20.5 -90.5l-20 -25l40 175h170l-110 -476q-21 -89 -60.5 -141t-98.5 -75t-137 -23zM284 136q33 0 57.5 23t38 59.5t13.5 77.5q0 27 -9.5 47t-27 31t-41.5 11q-36 0 -61.5 -23.5t-39 -59t-13.5 -72.5q0 -42 21 -68t62 -26zM369 561q-38 0 -61 16t-23 49q0 50 27.5 73
t72.5 23q41 0 63.5 -16.5t22.5 -48.5q0 -50 -27.5 -73t-74.5 -23z" />
    <glyph glyph-name="uni0122" unicode="&#x122;" horiz-adv-x="715" 
d="M322 -9q-74 0 -133.5 34.5t-94.5 98.5t-35 153q0 80 24 150.5t70 125.5t113.5 86t155.5 31q73 0 131.5 -23.5t97 -69.5t48.5 -113l-162 -31q-7 50 -37 76t-82 26q-42 0 -76.5 -19t-59 -53t-37.5 -78.5t-13 -94.5q0 -52 16 -90t48 -58.5t80 -20.5q38 0 66 12t46 33.5
t27 49.5l8 22h-158l26 114h294l-88 -352h-114l33 155l15 -16q-18 -48 -46 -81t-68 -50t-95 -17zM415 -60l-113 -181h-115l73 181h155z" />
    <glyph glyph-name="uni0123" unicode="&#x123;" horiz-adv-x="616" 
d="M210 -215q-45 0 -86.5 11t-73.5 34t-51 57.5t-20 80.5l171 18q2 -42 18.5 -66.5t61.5 -24.5q25 0 45.5 11t36 36t24.5 68l37 160h9q-16 -76 -61 -116.5t-112 -40.5q-50 0 -90 23.5t-63 68t-23 105.5q0 60 17.5 113.5t49.5 96t77 66.5t101 24q39 0 72.5 -17t55 -52.5
t20.5 -90.5l-20 -25l40 175h170l-110 -476q-21 -89 -60.5 -141t-98.5 -75t-137 -23zM284 136q33 0 57.5 23t38 59.5t13.5 77.5q0 27 -9.5 47t-27 31t-41.5 11q-36 0 -61.5 -23.5t-39 -59t-13.5 -72.5q0 -42 21 -68t62 -26zM524 772l-83 -209h-148l120 209h111z" />
    <glyph glyph-name="Hcircumflex" unicode="&#x124;" horiz-adv-x="736" 
d="M759 660l-153 -660h-172l153 660h172zM339 660l-153 -660h-172l153 660h172zM619 399l-31 -133h-428l31 133h428zM598 886l62 -163h-112l-45 91l-85 -91h-124l138 163h166z" />
    <glyph glyph-name="hcircumflex" unicode="&#x125;" horiz-adv-x="611" 
d="M0 0l165 712h170l-75 -326l-17 -24q13 42 39 75t65 53t89 20t85.5 -23t50 -65t1.5 -100l-75 -322h-170l69 295q9 40 -7 62.5t-52 22.5q-27 0 -47.5 -12.5t-35 -37t-22.5 -60.5l-63 -270h-170zM383 930l62 -163h-112l-45 91l-85 -91h-124l138 163h166z" />
    <glyph glyph-name="Hbar" unicode="&#x126;" horiz-adv-x="736" 
d="M759 660l-153 -660h-172l153 660h172zM339 660l-153 -660h-172l153 660h172zM619 399l-31 -133h-428l31 133h428zM812 575l-22 -96h-738l22 96h738z" />
    <glyph glyph-name="hbar" unicode="&#x127;" horiz-adv-x="611" 
d="M73 635h364l-22 -97h-364zM0 0l165 712h170l-75 -326l-17 -24q13 42 39 75t65 53t89 20t85.5 -23t50 -65t1.5 -100l-75 -322h-170l69 295q9 40 -7 62.5t-52 22.5q-27 0 -47.5 -12.5t-35 -37t-22.5 -60.5l-63 -270h-170z" />
    <glyph glyph-name="Itilde" unicode="&#x128;" horiz-adv-x="316" 
d="M339 660l-153 -660h-172l153 660h172zM484 878q-12 -80 -52 -119.5t-90 -39.5q-27 0 -45 9t-31.5 20.5t-26 20.5t-26.5 9q-16 0 -27 -16t-18 -42h-94q12 80 50 119.5t90 39.5q23 0 41 -9t32.5 -20.5t28 -20.5t28.5 -9t26.5 15t18.5 43h95z" />
    <glyph glyph-name="itilde" unicode="&#x129;" horiz-adv-x="288" 
d="M287 500l-116 -500h-170l116 500h170zM433 718q-12 -80 -52 -119.5t-90 -39.5q-27 0 -45 9t-31.5 20.5t-26 20.5t-26.5 9q-16 0 -27 -16t-18 -42h-94q12 80 50 119.5t90 39.5q23 0 41 -9t32.5 -20.5t28 -20.5t28.5 -9t26.5 15t18.5 43h95z" />
    <glyph glyph-name="Imacron" unicode="&#x12a;" horiz-adv-x="318" 
d="M435 834l-24 -105h-284l24 105h284zM339 660l-153 -660h-172l153 660h172z" />
    <glyph glyph-name="imacron" unicode="&#x12b;" horiz-adv-x="288" 
d="M373 674l-24 -105h-267l25 105h266zM287 500l-116 -500h-170l116 500h170z" />
    <glyph glyph-name="Ibreve" unicode="&#x12c;" horiz-adv-x="316" 
d="M339 660l-153 -660h-172l153 660h172zM462 878q-12 -74 -64.5 -118.5t-131.5 -44.5q-69 0 -108 34.5t-39 89.5q0 9 1.5 19t3.5 20h107q-1 -5 -1.5 -10.5t-0.5 -10.5q0 -22 14 -34.5t39 -12.5q27 0 46 17.5t25 50.5h109z" />
    <glyph glyph-name="ibreve" unicode="&#x12d;" horiz-adv-x="288" 
d="M287 500l-116 -500h-170l116 500h170zM413 718q-12 -74 -64.5 -118.5t-131.5 -44.5q-69 0 -108 34.5t-39 89.5q0 9 1.5 19t3.5 20h107q-1 -5 -1.5 -10.5t-0.5 -10.5q0 -22 14 -34.5t39 -12.5q27 0 46 17.5t25 50.5h109z" />
    <glyph glyph-name="Iogonek" unicode="&#x12e;" horiz-adv-x="316" 
d="M84 -226q-36 0 -67 11t-50.5 34.5t-19.5 60.5q0 40 21.5 70t61.5 50t96 29l60 -29q-34 -12 -60.5 -24.5t-42 -29t-15.5 -40.5q0 -23 16 -32t36 -9q10 0 18 2t16 5l-6 -86q-15 -7 -32 -9.5t-32 -2.5zM339 660l-153 -660h-172l153 660h172z" />
    <glyph glyph-name="iogonek" unicode="&#x12f;" horiz-adv-x="288" 
d="M69 -226q-36 0 -67 11t-50 34.5t-19 60.5q0 40 21.5 70t61.5 50t95 29l60 -29q-33 -12 -60 -24.5t-42.5 -29t-15.5 -40.5q0 -23 16 -32t36 -9q10 0 18.5 2t15.5 5l-6 -86q-15 -7 -32 -9.5t-32 -2.5zM225 558q-44 0 -68.5 18t-19.5 58q5 46 31 66.5t73 20.5q45 0 69.5 -19
t19.5 -56q-5 -49 -31.5 -68.5t-73.5 -19.5zM287 500l-116 -500h-170l116 500h170z" />
    <glyph glyph-name="Idotaccent" unicode="&#x130;" horiz-adv-x="316" 
d="M339 660l-153 -660h-172l153 660h172zM271 721q-38 0 -61 16t-23 49q0 50 27.5 73t72.5 23q41 0 63.5 -16.5t22.5 -48.5q0 -50 -27.5 -73t-74.5 -23z" />
    <glyph glyph-name="dotlessi" unicode="&#x131;" horiz-adv-x="288" 
d="M287 500l-116 -500h-170l116 500h170z" />
    <glyph glyph-name="IJ" unicode="&#x132;" horiz-adv-x="925" 
d="M339 660l-153 -660h-172l153 660h172zM578 -9q-74 0 -126 23.5t-80.5 64t-32.5 93t18 110.5l171 7q-21 -55 -19 -91.5t23 -54.5t58 -18q47 0 69 32t39 107l91 396h172l-98 -426q-16 -72 -49 -127t-90 -85.5t-146 -30.5z" />
    <glyph glyph-name="ij" unicode="&#x133;" horiz-adv-x="577" 
d="M225 558q-44 0 -68.5 18t-19.5 58q5 46 31 66.5t73 20.5q45 0 69.5 -19t19.5 -56q-5 -49 -31.5 -68.5t-73.5 -19.5zM287 500l-116 -500h-170l116 500h170zM514 558q-44 0 -68.5 18t-19.5 58q5 46 31 66.5t73 20.5q45 0 69.5 -19t19.5 -56q-5 -49 -31.5 -68.5t-73.5 -19.5
zM258 -215q-37 0 -73.5 8t-61.5 26l39 110q12 -8 26.5 -13.5t28.5 -5.5q30 0 44.5 15.5t23.5 57.5l121 517h170l-125 -539q-21 -92 -68.5 -134t-124.5 -42z" />
    <glyph glyph-name="Jcircumflex" unicode="&#x134;" horiz-adv-x="609" 
d="M262 -9q-74 0 -126 23.5t-80.5 64t-32.5 93t18 110.5l171 7q-21 -55 -19 -91.5t23 -54.5t58 -18q47 0 69 32t39 107l91 396h172l-98 -426q-16 -72 -49 -127t-90 -85.5t-146 -30.5zM694 886l62 -163h-112l-45 91l-85 -91h-124l138 163h166z" />
    <glyph glyph-name="jcircumflex" unicode="&#x135;" horiz-adv-x="288" 
d="M-31 -215q-37 0 -73.5 8t-61.5 26l39 110q12 -8 26.5 -13.5t28.5 -5.5q30 0 44.5 15.5t23.5 57.5l121 517h170l-125 -539q-21 -92 -68.5 -134t-124.5 -42zM19 559l149 173h165l69 -173h-118l-48 88l-88 -88h-129z" />
    <glyph glyph-name="uni0136" unicode="&#x136;" horiz-adv-x="685" 
d="M14 0l153 660h172l-63 -268l294 268h195l-297 -277l150 -383h-177l-106 274l-108 -97l-41 -177h-172zM379 -60l-113 -181h-115l73 181h155z" />
    <glyph glyph-name="uni0137" unicode="&#x137;" horiz-adv-x="612" 
d="M652 500l-287 -250l-20 -9l-181 -158l15 161l276 256h197zM335 712l-165 -712h-170l165 712h170zM407 350l149 -350h-167l-101 253zM341 -60l-113 -181h-115l73 181h155z" />
    <glyph glyph-name="kgreenlandic" unicode="&#x138;" horiz-adv-x="612" 
d="M652 500l-287 -251l-20 -9l-181 -157l15 172l276 245h197zM286 500l-116 -500h-170l116 500h170zM407 348l149 -348h-167l-101 252z" />
    <glyph glyph-name="Lacute" unicode="&#x139;" horiz-adv-x="603" 
d="M217 133h333l-31 -133h-505l153 660h172zM292 886h157l-126 -163h-127z" />
    <glyph glyph-name="lacute" unicode="&#x13a;" horiz-adv-x="328" 
d="M182 -9q-90 0 -126.5 49.5t-16.5 132.5l125 539h170l-124 -537q-9 -33 3 -49.5t44 -16.5q12 0 21 1t15 3l-30 -110q-16 -7 -35 -9.5t-46 -2.5zM189 768l91 152h154l-120 -152h-125z" />
    <glyph glyph-name="uni013B" unicode="&#x13b;" horiz-adv-x="603" 
d="M217 133h333l-31 -133h-505l153 660h172zM357 -60l-113 -181h-115l73 181h155z" />
    <glyph glyph-name="uni013C" unicode="&#x13c;" horiz-adv-x="328" 
d="M182 -9q-90 0 -126.5 49.5t-16.5 132.5l125 539h170l-124 -537q-9 -33 3 -49.5t44 -16.5q12 0 21 1t15 3l-30 -110q-16 -7 -35 -9.5t-46 -2.5zM214 -60l-113 -181h-115l73 181h155z" />
    <glyph glyph-name="Lcaron" unicode="&#x13d;" horiz-adv-x="603" 
d="M628 660l-122 -239h-118l87 239h153zM217 133h333l-31 -133h-505l153 660h172z" />
    <glyph glyph-name="lcaron" unicode="&#x13e;" horiz-adv-x="388" 
d="M530 712l-107 -239h-102l77 239h132zM182 -9q-90 0 -126.5 49.5t-16.5 132.5l125 539h170l-124 -537q-9 -33 3 -49.5t44 -16.5q12 0 21 1t15 3l-30 -110q-16 -7 -35 -9.5t-46 -2.5z" />
    <glyph glyph-name="Ldot" unicode="&#x13f;" horiz-adv-x="644" 
d="M217 133h333l-31 -133h-505l153 660h172zM502 287q-42 0 -67.5 19.5t-25.5 56.5q0 47 28 75.5t76 28.5q42 0 67.5 -20t25.5 -57q0 -47 -27.5 -75t-76.5 -28z" />
    <glyph glyph-name="ldot" unicode="&#x140;" horiz-adv-x="490" 
d="M182 -9q-90 0 -126.5 49.5t-16.5 132.5l125 539h170l-124 -537q-9 -33 3 -49.5t44 -16.5q12 0 21 1t15 3l-30 -110q-16 -7 -35 -9.5t-46 -2.5zM409 268q-42 0 -67.5 19.5t-25.5 56.5q0 47 28 75.5t76 28.5q42 0 67.5 -20t25.5 -57q0 -47 -27.5 -75t-76.5 -28z" />
    <glyph glyph-name="Lslash" unicode="&#x141;" horiz-adv-x="662" 
d="M512 510l-31 -134l-477 -211l32 134zM275 133h334l-32 -133h-505l153 660h172z" />
    <glyph glyph-name="lslash" unicode="&#x142;" horiz-adv-x="406" 
d="M13 193l29 125l134 66l77 24l182 96l-29 -124l-146 -77l-72 -23zM236 -9q-89 0 -125.5 49.5t-17.5 132.5l125 539h170l-124 -537q-8 -33 3.5 -49.5t43.5 -16.5q12 0 21 1t15 3l-30 -110q-16 -7 -35 -9.5t-46 -2.5z" />
    <glyph glyph-name="Nacute" unicode="&#x143;" horiz-adv-x="735" 
d="M14 0l153 660h184l119 -363l31 -108h1l27 138l78 333h151l-153 -660h-181l-123 357l-31 108h-2l-25 -132l-77 -333h-152zM499 886h157l-126 -163h-127z" />
    <glyph glyph-name="nacute" unicode="&#x144;" horiz-adv-x="611" 
d="M0 0l116 500h151l-25 -159l-9 14q21 75 74 115t123 40q54 0 90.5 -23.5t51 -66.5t0.5 -104l-74 -316h-170l69 295q9 40 -7 62.5t-52 22.5q-27 0 -47.5 -12.5t-35 -37t-22.5 -60.5l-63 -270h-170zM406 738h164l-148 -173h-126z" />
    <glyph glyph-name="uni0145" unicode="&#x145;" horiz-adv-x="735" 
d="M14 0l153 660h184l119 -363l31 -108h1l27 138l78 333h151l-153 -660h-181l-123 357l-31 108h-2l-25 -132l-77 -333h-152zM404 -60l-113 -181h-115l73 181h155z" />
    <glyph glyph-name="uni0146" unicode="&#x146;" horiz-adv-x="611" 
d="M0 0l116 500h151l-25 -159l-9 14q21 75 74 115t123 40q54 0 90.5 -23.5t51 -66.5t0.5 -104l-74 -316h-170l69 295q9 40 -7 62.5t-52 22.5q-27 0 -47.5 -12.5t-35 -37t-22.5 -60.5l-63 -270h-170zM333 -60l-113 -181h-115l73 181h155z" />
    <glyph glyph-name="Ncaron" unicode="&#x147;" horiz-adv-x="735" 
d="M14 0l153 660h184l119 -363l31 -108h1l27 138l78 333h151l-153 -660h-181l-123 357l-31 108h-2l-25 -132l-77 -333h-152zM385 723l-63 163h113l45 -91l85 91h124l-138 -163h-166z" />
    <glyph glyph-name="ncaron" unicode="&#x148;" horiz-adv-x="611" 
d="M0 0l116 500h151l-25 -159l-9 14q21 75 74 115t123 40q54 0 90.5 -23.5t51 -66.5t0.5 -104l-74 -316h-170l69 295q9 40 -7 62.5t-52 22.5q-27 0 -47.5 -12.5t-35 -37t-22.5 -60.5l-63 -270h-170zM282 565l-69 173h114l50 -90l90 90h129l-149 -173h-165z" />
    <glyph glyph-name="Eng" unicode="&#x14a;" horiz-adv-x="735" 
d="M391 -215q-38 0 -69 6.5t-53 21.5l46 117q11 -8 27 -13.5t36 -5.5q27 0 44.5 15t27.5 55l6 24l-141 333l-46 119h-1l-25 -124l-77 -333h-152l153 660h171l126 -326l43 -114h1l23 114l76 326h151l-162 -699q-21 -92 -73 -134t-132 -42z" />
    <glyph glyph-name="eng" unicode="&#x14b;" horiz-adv-x="611" 
d="M276 -215q-45 0 -78 8t-56 25l46 109q11 -8 26 -13t33 -5q28 0 48 14.5t29 53.5l73 318q9 40 -7 62.5t-52 22.5q-27 0 -47.5 -12.5t-35 -37t-22.5 -60.5l-63 -270h-170l116 500h151l-15 -96q27 52 73.5 79t104.5 27q54 0 90.5 -23.5t51 -66.5t0.5 -104l-79 -343
q-23 -101 -78 -144.5t-139 -43.5z" />
    <glyph glyph-name="Omacron" unicode="&#x14c;" horiz-adv-x="732" 
d="M354 -10q-82 0 -149 34t-106 99.5t-39 157.5q0 82 23.5 153t69 124t112 82.5t151.5 29.5q83 0 149 -34.5t105 -99t39 -157.5q0 -82 -23.5 -152.5t-69 -124t-111.5 -83t-151 -29.5zM360 125q45 0 77.5 24t54.5 63.5t33 86.5t11 92q0 46 -15 78t-43 49t-69 17
q-44 0 -77 -24t-55 -63.5t-33 -86t-11 -92.5t15 -78t43.5 -49t68.5 -17zM656 834l-24 -105h-359l25 105h358z" />
    <glyph glyph-name="omacron" unicode="&#x14d;" horiz-adv-x="600" 
d="M281 -10q-76 0 -131.5 30t-85.5 81.5t-30 115.5q0 81 33.5 147.5t97 106t154.5 39.5q77 0 132 -30t85 -81t30 -116q0 -80 -33.5 -147t-97 -106.5t-154.5 -39.5zM283 110q26 0 47.5 16.5t37 44.5t23.5 60.5t8 65.5q0 29 -9.5 49.5t-28 32t-45.5 11.5q-25 0 -46.5 -16.5
t-37 -44t-24 -60.5t-8.5 -66q0 -28 9.5 -49t28.5 -32.5t45 -11.5zM561 674l-24 -105h-359l25 105h358z" />
    <glyph glyph-name="Obreve" unicode="&#x14e;" horiz-adv-x="732" 
d="M354 -10q-82 0 -149 34t-106 99.5t-39 157.5q0 82 23.5 153t69 124t112 82.5t151.5 29.5q83 0 149 -34.5t105 -99t39 -157.5q0 -82 -23.5 -152.5t-69 -124t-111.5 -83t-151 -29.5zM360 125q45 0 77.5 24t54.5 63.5t33 86.5t11 92q0 46 -15 78t-43 49t-69 17
q-44 0 -77 -24t-55 -63.5t-33 -86t-11 -92.5t15 -78t43.5 -49t68.5 -17zM646 878q-12 -74 -64.5 -118.5t-131.5 -44.5q-69 0 -108 34.5t-39 89.5q0 9 1.5 19t3.5 20h107q-1 -5 -1.5 -10.5t-0.5 -10.5q0 -22 14 -34.5t39 -12.5q27 0 46 17.5t25 50.5h109z" />
    <glyph glyph-name="obreve" unicode="&#x14f;" horiz-adv-x="600" 
d="M281 -10q-76 0 -131.5 30t-85.5 81.5t-30 115.5q0 81 33.5 147.5t97 106t154.5 39.5q77 0 132 -30t85 -81t30 -116q0 -80 -33.5 -147t-97 -106.5t-154.5 -39.5zM283 110q26 0 47.5 16.5t37 44.5t23.5 60.5t8 65.5q0 29 -9.5 49.5t-28 32t-45.5 11.5q-25 0 -46.5 -16.5
t-37 -44t-24 -60.5t-8.5 -66q0 -28 9.5 -49t28.5 -32.5t45 -11.5zM553 718q-12 -74 -64.5 -118.5t-131.5 -44.5q-69 0 -108 34.5t-39 89.5q0 9 1.5 19t3.5 20h107q-1 -5 -1.5 -10.5t-0.5 -10.5q0 -22 14 -34.5t39 -12.5q27 0 46 17.5t25 50.5h109z" />
    <glyph glyph-name="Ohungarumlaut" unicode="&#x150;" horiz-adv-x="732" 
d="M354 -10q-82 0 -149 34t-106 99.5t-39 157.5q0 82 23.5 153t69 124t112 82.5t151.5 29.5q83 0 149 -34.5t105 -99t39 -157.5q0 -82 -23.5 -152.5t-69 -124t-111.5 -83t-151 -29.5zM360 125q45 0 77.5 24t54.5 63.5t33 86.5t11 92q0 46 -15 78t-43 49t-69 17
q-44 0 -77 -24t-55 -63.5t-33 -86t-11 -92.5t15 -78t43.5 -49t68.5 -17zM485 723l101 163h150l-133 -163h-118zM279 723l101 163h149l-133 -163h-117z" />
    <glyph glyph-name="ohungarumlaut" unicode="&#x151;" horiz-adv-x="600" 
d="M281 -10q-76 0 -131.5 30t-85.5 81.5t-30 115.5q0 81 33.5 147.5t97 106t154.5 39.5q77 0 132 -30t85 -81t30 -116q0 -80 -33.5 -147t-97 -106.5t-154.5 -39.5zM283 110q26 0 47.5 16.5t37 44.5t23.5 60.5t8 65.5q0 29 -9.5 49.5t-28 32t-45.5 11.5q-25 0 -46.5 -16.5
t-37 -44t-24 -60.5t-8.5 -66q0 -28 9.5 -49t28.5 -32.5t45 -11.5zM396 565l116 173h151l-147 -173h-120zM183 565l116 173h151l-147 -173h-120z" />
    <glyph glyph-name="OE" unicode="&#x152;" horiz-adv-x="1041" 
d="M332 -10q-72 0 -133.5 33.5t-99.5 97.5t-39 154q-1 81 22 153t67.5 126.5t109 85t146.5 30.5q54 0 97 -14t73 -40t45 -63l25 107h452l-32 -133h-318l-32 -134h246l-28 -125h-246l-32 -135h329l-31 -133h-449l18 77q-38 -42 -85 -64.5t-105 -22.5zM358 125q43 0 75.5 23.5
t55 62.5t34 86.5t11.5 93.5t-15 78t-42.5 49t-67.5 17q-44 0 -76.5 -24t-55 -63.5t-33.5 -86t-11 -92.5t15 -78t43 -49t67 -17z" />
    <glyph glyph-name="oe" unicode="&#x153;" horiz-adv-x="947" 
d="M279 -10q-76 0 -131 29.5t-84.5 81t-29.5 116.5q0 81 33.5 147.5t97.5 106t156 39.5q39 0 71.5 -9.5t59 -27t44.5 -44.5q36 39 84.5 60t106.5 21q71 0 122 -27.5t77.5 -74.5t26.5 -109q0 -19 -2.5 -40.5t-8.5 -42.5h-344v-5v-5q0 -31 12 -53t34 -33t50 -11
q36 0 58.5 16.5t34.5 40.5l140 -54q-27 -57 -91 -89t-147 -32q-37 0 -70.5 9.5t-60.5 27.5t-48 45q-34 -40 -82 -61.5t-109 -21.5zM282 110q27 0 48.5 17t37 44.5t23.5 60t8 65.5q0 29 -9.5 49.5t-28 32t-44.5 11.5t-47.5 -17t-37.5 -44.5t-24 -60t-8 -65.5q0 -43 21.5 -68
t60.5 -25zM569 295h181q1 5 1 10v9q0 25 -9 42.5t-25 26t-38 8.5q-30 0 -52 -13t-36 -34.5t-22 -48.5z" />
    <glyph glyph-name="Racute" unicode="&#x154;" horiz-adv-x="677" 
d="M14 0l153 660h283q102 0 161.5 -49.5t59.5 -138.5q0 -72 -33.5 -122t-90.5 -77.5t-129 -30.5l-38 -9h-158l28 122h131q39 0 65.5 13t40.5 36.5t14 51.5q0 39 -26 56.5t-67 17.5h-102l-123 -530h-169zM441 0l-108 286l156 24l126 -310h-174zM458 886h157l-126 -163h-127z
" />
    <glyph glyph-name="racute" unicode="&#x155;" horiz-adv-x="423" 
d="M0 0l116 500h151l-31 -182l-7 17q16 53 42 92t64 61t86 22q17 0 28.5 -2.5t19.5 -6.5l-41 -143q-10 5 -23.5 7.5t-34.5 2.5q-31 0 -60.5 -13.5t-51.5 -43.5t-34 -80l-54 -231h-170zM336 738h164l-148 -173h-126z" />
    <glyph glyph-name="uni0156" unicode="&#x156;" horiz-adv-x="677" 
d="M14 0l153 660h283q102 0 161.5 -49.5t59.5 -138.5q0 -72 -33.5 -122t-90.5 -77.5t-129 -30.5l-38 -9h-158l28 122h131q39 0 65.5 13t40.5 36.5t14 51.5q0 39 -26 56.5t-67 17.5h-102l-123 -530h-169zM441 0l-108 286l156 24l126 -310h-174zM391 -60l-113 -181h-115
l73 181h155z" />
    <glyph glyph-name="uni0157" unicode="&#x157;" horiz-adv-x="423" 
d="M0 0l116 500h151l-31 -182l-7 17q16 53 42 92t64 61t86 22q17 0 28.5 -2.5t19.5 -6.5l-41 -143q-10 5 -23.5 7.5t-34.5 2.5q-31 0 -60.5 -13.5t-51.5 -43.5t-34 -80l-54 -231h-170zM165 -60l-113 -181h-115l73 181h155z" />
    <glyph glyph-name="Rcaron" unicode="&#x158;" horiz-adv-x="677" 
d="M14 0l153 660h283q102 0 161.5 -49.5t59.5 -138.5q0 -72 -33.5 -122t-90.5 -77.5t-129 -30.5l-38 -9h-158l28 122h131q39 0 65.5 13t40.5 36.5t14 51.5q0 39 -26 56.5t-67 17.5h-102l-123 -530h-169zM441 0l-108 286l156 24l126 -310h-174zM344 723l-63 163h113l45 -91
l85 91h124l-138 -163h-166z" />
    <glyph glyph-name="rcaron" unicode="&#x159;" horiz-adv-x="423" 
d="M0 0l116 500h151l-31 -182l-7 17q16 53 42 92t64 61t86 22q17 0 28.5 -2.5t19.5 -6.5l-41 -143q-10 5 -23.5 7.5t-34.5 2.5q-31 0 -60.5 -13.5t-51.5 -43.5t-34 -80l-54 -231h-170zM212 565l-69 173h114l50 -90l90 90h129l-149 -173h-165z" />
    <glyph glyph-name="Sacute" unicode="&#x15a;" horiz-adv-x="640" 
d="M332 -11q-70 0 -132 18.5t-111.5 54.5t-84.5 91l101 99q24 -42 60.5 -71.5t79.5 -44t86 -14.5q31 0 50.5 9t29.5 24t10 32q0 22 -16 34.5t-48 22.5l-99 32q-45 15 -81.5 39.5t-57.5 60.5t-21 83q0 67 34.5 114t95 72t138.5 25q103 0 174 -36.5t117 -102.5l-105 -96
q-21 35 -50.5 57.5t-64.5 33.5t-71 11q-30 0 -50 -8t-29.5 -21.5t-9.5 -31.5q0 -20 19.5 -36.5t51.5 -26.5l99 -32q75 -24 114 -65.5t39 -108.5q0 -68 -35.5 -117t-96.5 -75t-136 -26zM437 886h157l-126 -163h-127z" />
    <glyph glyph-name="sacute" unicode="&#x15b;" horiz-adv-x="521" 
d="M254 -11q-53 0 -104 15t-91.5 43.5t-66.5 67.5l89 81q26 -41 68 -66.5t89 -25.5q31 0 48 9t17 28q0 14 -10.5 24t-31.5 16l-60 18q-75 24 -107.5 59.5t-32.5 87.5q0 51 27 87.5t76 56.5t113 20q79 0 139 -27t95 -76l-85 -84q-13 21 -35.5 37.5t-49.5 26t-57 9.5
q-31 0 -47 -9.5t-16 -26.5q0 -15 14 -23.5t32 -14.5l95 -29q53 -17 81.5 -50.5t28.5 -80.5q0 -53 -26 -92t-75 -60t-117 -21zM354 738h164l-148 -173h-126z" />
    <glyph glyph-name="Scircumflex" unicode="&#x15c;" horiz-adv-x="640" 
d="M332 -11q-70 0 -132 18.5t-111.5 54.5t-84.5 91l101 99q24 -42 60.5 -71.5t79.5 -44t86 -14.5q31 0 50.5 9t29.5 24t10 32q0 22 -16 34.5t-48 22.5l-99 32q-45 15 -81.5 39.5t-57.5 60.5t-21 83q0 67 34.5 114t95 72t138.5 25q103 0 174 -36.5t117 -102.5l-105 -96
q-21 35 -50.5 57.5t-64.5 33.5t-71 11q-30 0 -50 -8t-29.5 -21.5t-9.5 -31.5q0 -20 19.5 -36.5t51.5 -26.5l99 -32q75 -24 114 -65.5t39 -108.5q0 -68 -35.5 -117t-96.5 -75t-136 -26zM533 886l62 -163h-112l-45 91l-85 -91h-124l138 163h166z" />
    <glyph glyph-name="scircumflex" unicode="&#x15d;" horiz-adv-x="521" 
d="M254 -11q-53 0 -104 15t-91.5 43.5t-66.5 67.5l89 81q26 -41 68 -66.5t89 -25.5q31 0 48 9t17 28q0 14 -10.5 24t-31.5 16l-60 18q-75 24 -107.5 59.5t-32.5 87.5q0 51 27 87.5t76 56.5t113 20q79 0 139 -27t95 -76l-85 -84q-13 21 -35.5 37.5t-49.5 26t-57 9.5
q-31 0 -47 -9.5t-16 -26.5q0 -15 14 -23.5t32 -14.5l95 -29q53 -17 81.5 -50.5t28.5 -80.5q0 -53 -26 -92t-75 -60t-117 -21zM129 559l149 173h165l69 -173h-118l-48 88l-88 -88h-129z" />
    <glyph glyph-name="Scedilla" unicode="&#x15e;" horiz-adv-x="640" 
d="M332 -11q-70 0 -132 18.5t-111.5 54.5t-84.5 91l101 99q24 -42 60.5 -71.5t79.5 -44t86 -14.5q31 0 50.5 9t29.5 24t10 32q0 22 -16 34.5t-48 22.5l-99 32q-45 15 -81.5 39.5t-57.5 60.5t-21 83q0 67 34.5 114t95 72t138.5 25q103 0 174 -36.5t117 -102.5l-105 -96
q-21 35 -50.5 57.5t-64.5 33.5t-71 11q-30 0 -50 -8t-29.5 -21.5t-9.5 -31.5q0 -20 19.5 -36.5t51.5 -26.5l99 -32q75 -24 114 -65.5t39 -108.5q0 -68 -35.5 -117t-96.5 -75t-136 -26zM225 6l46 23q56 -11 86 -40t30 -74q0 -41 -19 -70.5t-50.5 -45.5t-72.5 -16
q-38 0 -66.5 11.5t-47.5 30.5l44 73q12 -12 30 -17.5t33 -5.5q25 0 41.5 17t16.5 40q0 24 -17.5 42t-53.5 32z" />
    <glyph glyph-name="scedilla" unicode="&#x15f;" horiz-adv-x="521" 
d="M254 -11q-53 0 -104 15t-91.5 43.5t-66.5 67.5l89 81q26 -41 68 -66.5t89 -25.5q31 0 48 9t17 28q0 14 -10.5 24t-31.5 16l-60 18q-75 24 -107.5 59.5t-32.5 87.5q0 51 27 87.5t76 56.5t113 20q79 0 139 -27t95 -76l-85 -84q-13 21 -35.5 37.5t-49.5 26t-57 9.5
q-31 0 -47 -9.5t-16 -26.5q0 -15 14 -23.5t32 -14.5l95 -29q53 -17 81.5 -50.5t28.5 -80.5q0 -53 -26 -92t-75 -60t-117 -21zM165 6l46 23q56 -11 86 -40t30 -74q0 -41 -19 -70.5t-50.5 -45.5t-72.5 -16q-38 0 -66.5 11.5t-47.5 30.5l44 73q12 -12 30 -17.5t33 -5.5
q25 0 41.5 17t16.5 40q0 24 -17.5 42t-53.5 32z" />
    <glyph glyph-name="Scaron" unicode="&#x160;" horiz-adv-x="640" 
d="M332 -11q-70 0 -132 18.5t-111.5 54.5t-84.5 91l101 99q24 -42 60.5 -71.5t79.5 -44t86 -14.5q31 0 50.5 9t29.5 24t10 32q0 22 -16 34.5t-48 22.5l-99 32q-45 15 -81.5 39.5t-57.5 60.5t-21 83q0 67 34.5 114t95 72t138.5 25q103 0 174 -36.5t117 -102.5l-105 -96
q-21 35 -50.5 57.5t-64.5 33.5t-71 11q-30 0 -50 -8t-29.5 -21.5t-9.5 -31.5q0 -20 19.5 -36.5t51.5 -26.5l99 -32q75 -24 114 -65.5t39 -108.5q0 -68 -35.5 -117t-96.5 -75t-136 -26zM323 723l-63 163h113l45 -91l85 91h124l-138 -163h-166z" />
    <glyph glyph-name="scaron" unicode="&#x161;" horiz-adv-x="521" 
d="M254 -11q-53 0 -104 15t-91.5 43.5t-66.5 67.5l89 81q26 -41 68 -66.5t89 -25.5q31 0 48 9t17 28q0 14 -10.5 24t-31.5 16l-60 18q-75 24 -107.5 59.5t-32.5 87.5q0 51 27 87.5t76 56.5t113 20q79 0 139 -27t95 -76l-85 -84q-13 21 -35.5 37.5t-49.5 26t-57 9.5
q-31 0 -47 -9.5t-16 -26.5q0 -15 14 -23.5t32 -14.5l95 -29q53 -17 81.5 -50.5t28.5 -80.5q0 -53 -26 -92t-75 -60t-117 -21zM230 565l-69 173h114l50 -90l90 90h129l-149 -173h-165z" />
    <glyph glyph-name="uni0162" unicode="&#x162;" horiz-adv-x="648" 
d="M233 -217q-38 0 -67 11.5t-47 30.5l44 73q12 -12 29.5 -17.5t32.5 -5.5q26 0 42.5 17t16.5 40q0 24 -17.5 42t-52.5 30l45 25q55 -11 85.5 -40t30.5 -74q0 -41 -19 -70.5t-51 -45.5t-72 -16zM719 660l-31 -133h-213l-122 -527h-172l122 527h-215l31 133h600z" />
    <glyph glyph-name="uni0163" unicode="&#x163;" horiz-adv-x="436" 
d="M256 -9q-62 0 -105 21.5t-60 64.5t-3 106l97 425l182 48l-109 -469q-10 -39 9.5 -58.5t57.5 -19.5q23 0 37.5 4t25.5 10l-10 -109q-27 -13 -58 -18t-64 -5zM40 379l28 121h399l-28 -121h-399zM164 6l46 23q56 -11 86 -40t30 -74q0 -41 -19 -70.5t-50.5 -45.5t-72.5 -16
q-38 0 -66.5 11.5t-47.5 30.5l44 73q12 -12 30 -17.5t33 -5.5q25 0 41.5 17t16.5 40q0 24 -17.5 42t-53.5 32z" />
    <glyph glyph-name="Tcaron" unicode="&#x164;" horiz-adv-x="648" 
d="M719 660l-31 -133h-213l-122 -527h-172l122 527h-215l31 133h600zM344 723l-63 163h113l45 -91l85 91h124l-138 -163h-166z" />
    <glyph glyph-name="tcaron" unicode="&#x165;" horiz-adv-x="436" 
d="M592 767l-108 -215h-102l77 215h133zM256 -9q-62 0 -105 21.5t-60 64.5t-3 106l97 425l182 48l-109 -469q-10 -39 9.5 -58.5t57.5 -19.5q23 0 37.5 4t25.5 10l-10 -109q-27 -13 -58 -18t-64 -5zM40 379l28 121h399l-28 -121h-399z" />
    <glyph glyph-name="Tbar" unicode="&#x166;" horiz-adv-x="648" 
d="M719 660l-31 -133h-213l-122 -527h-172l122 527h-215l31 133h600zM587 368l-30 -133h-470l31 133h469z" />
    <glyph glyph-name="tbar" unicode="&#x167;" horiz-adv-x="436" 
d="M426 322l-22 -97h-397l23 97h396zM256 -9q-62 0 -105 21.5t-60 64.5t-3 106l97 425l182 48l-109 -469q-10 -39 9.5 -58.5t57.5 -19.5q23 0 37.5 4t25.5 10l-10 -109q-27 -13 -58 -18t-64 -5zM40 379l28 121h399l-28 -121h-399z" />
    <glyph glyph-name="Utilde" unicode="&#x168;" horiz-adv-x="704" 
d="M329 -10q-99 0 -165 36t-92 104t-4 163l86 367h172l-89 -391q-10 -47 0.5 -79t38 -48.5t68.5 -16.5q55 0 86 33t45 97l94 405h171l-95 -410q-30 -128 -106 -194t-210 -66zM674 870q-12 -80 -52 -119.5t-90 -39.5q-27 0 -45 9t-31.5 20.5t-26 20.5t-26.5 9q-16 0 -27 -16
t-18 -42h-94q12 80 50 119.5t90 39.5q23 0 41 -9t32.5 -20.5t28 -20.5t28.5 -9t26.5 15t18.5 43h95z" />
    <glyph glyph-name="utilde" unicode="&#x169;" horiz-adv-x="610" 
d="M183 -9q-53 0 -90 23t-52.5 65.5t-2.5 101.5l75 319h170l-68 -294q-10 -41 7.5 -63t52.5 -22q27 0 47 12.5t33.5 37t21.5 59.5l63 270h170l-116 -500h-151l25 159l9 -15q-21 -74 -72.5 -113.5t-121.5 -39.5zM585 714q-12 -80 -52 -119.5t-90 -39.5q-27 0 -45 9
t-31.5 20.5t-26 20.5t-26.5 9q-16 0 -27 -16t-18 -42h-94q12 80 50 119.5t90 39.5q23 0 41 -9t32.5 -20.5t28 -20.5t28.5 -9t26.5 15t18.5 43h95z" />
    <glyph glyph-name="Umacron" unicode="&#x16a;" horiz-adv-x="704" 
d="M329 -10q-99 0 -165 36t-92 104t-4 163l86 367h172l-89 -391q-10 -47 0.5 -79t38 -48.5t68.5 -16.5q55 0 86 33t45 97l94 405h171l-95 -410q-30 -128 -106 -194t-210 -66zM662 826l-24 -105h-359l25 105h358z" />
    <glyph glyph-name="umacron" unicode="&#x16b;" horiz-adv-x="610" 
d="M183 -9q-53 0 -90 23t-52.5 65.5t-2.5 101.5l75 319h170l-68 -294q-10 -41 7.5 -63t52.5 -22q27 0 47 12.5t33.5 37t21.5 59.5l63 270h170l-116 -500h-151l25 159l9 -15q-21 -74 -72.5 -113.5t-121.5 -39.5zM573 670l-24 -105h-359l25 105h358z" />
    <glyph glyph-name="Ubreve" unicode="&#x16c;" horiz-adv-x="704" 
d="M329 -10q-99 0 -165 36t-92 104t-4 163l86 367h172l-89 -391q-10 -47 0.5 -79t38 -48.5t68.5 -16.5q55 0 86 33t45 97l94 405h171l-95 -410q-30 -128 -106 -194t-210 -66zM652 870q-12 -74 -64.5 -118.5t-131.5 -44.5q-69 0 -108 34.5t-39 89.5q0 9 1.5 19t3.5 20h107
q-1 -5 -1.5 -10.5t-0.5 -10.5q0 -22 14 -34.5t39 -12.5q27 0 46 17.5t25 50.5h109z" />
    <glyph glyph-name="ubreve" unicode="&#x16d;" horiz-adv-x="610" 
d="M183 -9q-53 0 -90 23t-52.5 65.5t-2.5 101.5l75 319h170l-68 -294q-10 -41 7.5 -63t52.5 -22q27 0 47 12.5t33.5 37t21.5 59.5l63 270h170l-116 -500h-151l25 159l9 -15q-21 -74 -72.5 -113.5t-121.5 -39.5zM565 714q-12 -74 -64.5 -118.5t-131.5 -44.5q-69 0 -108 34.5
t-39 89.5q0 9 1.5 19t3.5 20h107q-1 -5 -1.5 -10.5t-0.5 -10.5q0 -22 14 -34.5t39 -12.5q27 0 46 17.5t25 50.5h109z" />
    <glyph glyph-name="Uring" unicode="&#x16e;" horiz-adv-x="704" 
d="M329 -10q-99 0 -165 36t-92 104t-4 163l86 367h172l-89 -391q-10 -47 0.5 -79t38 -48.5t68.5 -16.5q55 0 86 33t45 97l94 405h171l-95 -410q-30 -128 -106 -194t-210 -66zM469 938q61 0 97 -32t36 -82q0 -60 -40.5 -99t-103.5 -39q-60 0 -97 31.5t-37 81.5q0 60 41 99.5
t104 39.5zM466 864q-22 0 -38.5 -15.5t-16.5 -42.5q0 -20 14 -33t36 -13q23 0 39 15.5t16 42.5q0 21 -13.5 33.5t-36.5 12.5z" />
    <glyph glyph-name="uring" unicode="&#x16f;" horiz-adv-x="610" 
d="M183 -9q-53 0 -90 23t-52.5 65.5t-2.5 101.5l75 319h170l-68 -294q-10 -41 7.5 -63t52.5 -22q27 0 47 12.5t33.5 37t21.5 59.5l63 270h170l-116 -500h-151l25 159l9 -15q-21 -74 -72.5 -113.5t-121.5 -39.5zM388 799q61 0 97 -32t36 -82q0 -60 -40.5 -99t-103.5 -39
q-60 0 -97 31.5t-37 81.5q0 60 41 99.5t104 39.5zM385 725q-22 0 -38.5 -15.5t-16.5 -42.5q0 -20 14 -33t36 -13q23 0 39 15.5t16 42.5q0 21 -13.5 33.5t-36.5 12.5z" />
    <glyph glyph-name="Uhungarumlaut" unicode="&#x170;" horiz-adv-x="704" 
d="M329 -10q-99 0 -165 36t-92 104t-4 163l86 367h172l-89 -391q-10 -47 0.5 -79t38 -48.5t68.5 -16.5q55 0 86 33t45 97l94 405h171l-95 -410q-30 -128 -106 -194t-210 -66zM491 715l101 163h150l-133 -163h-118zM285 715l101 163h149l-133 -163h-117z" />
    <glyph glyph-name="uhungarumlaut" unicode="&#x171;" horiz-adv-x="610" 
d="M183 -9q-53 0 -90 23t-52.5 65.5t-2.5 101.5l75 319h170l-68 -294q-10 -41 7.5 -63t52.5 -22q27 0 47 12.5t33.5 37t21.5 59.5l63 270h170l-116 -500h-151l25 159l9 -15q-21 -74 -72.5 -113.5t-121.5 -39.5zM408 561l116 173h151l-147 -173h-120zM195 561l116 173h151
l-147 -173h-120z" />
    <glyph glyph-name="Uogonek" unicode="&#x172;" horiz-adv-x="704" 
d="M329 -10q-99 0 -165 36t-92 104t-4 163l86 367h172l-89 -391q-10 -47 0.5 -79t38 -48.5t68.5 -16.5q55 0 86 33t45 97l94 405h171l-95 -410q-30 -128 -106 -194t-210 -66zM318 -225q-35 0 -66 12t-50 36.5t-19 62.5q0 41 22 69.5t63.5 46.5t98.5 26l59 -26
q-34 -12 -62.5 -24t-45.5 -27.5t-17 -39.5q0 -23 17 -32.5t37 -9.5q10 0 18 2l16 4l-6 -87q-16 -7 -32.5 -10t-32.5 -3z" />
    <glyph glyph-name="uogonek" unicode="&#x173;" horiz-adv-x="610" 
d="M387 -219q-36 0 -67 10.5t-50.5 33.5t-19.5 61q0 39 23 68.5t64 50.5t96 32l61 -37q-57 -20 -89.5 -39t-32.5 -50q0 -22 15.5 -30t35.5 -8q11 0 19 2t15 5l-6 -86q-15 -7 -32 -10t-32 -3zM183 -9q-53 0 -90 23t-52.5 65.5t-2.5 101.5l75 319h170l-68 -294
q-10 -41 7.5 -63t52.5 -22q27 0 47 12.5t33.5 37t21.5 59.5l63 270h170l-116 -500h-151l25 159l9 -15q-21 -74 -72.5 -113.5t-121.5 -39.5z" />
    <glyph glyph-name="Wcircumflex" unicode="&#x174;" horiz-adv-x="988" 
d="M139 0l-36 660h169l1 -515l224 515h159l8 -517l222 517h188l-342 -660h-191l-5 320l9 166h-3l-68 -166l-144 -320h-191zM714 886l62 -163h-112l-45 91l-85 -91h-124l138 163h166z" />
    <glyph glyph-name="wcircumflex" unicode="&#x175;" horiz-adv-x="880" 
d="M87 0l-27 500h166l3 -361l173 361h168l20 -363l163 363h180l-259 -500h-202l-22 308l-156 -308h-207zM302 559l149 173h165l69 -173h-118l-48 88l-88 -88h-129z" />
    <glyph glyph-name="Ycircumflex" unicode="&#x176;" horiz-adv-x="653" 
d="M182 0l57 245l-133 415h166l54 -182l25 -110l71 112l130 180h184l-328 -427l-54 -233h-172zM538 878l62 -163h-112l-45 91l-85 -91h-124l138 163h166z" />
    <glyph glyph-name="ycircumflex" unicode="&#x177;" horiz-adv-x="558" 
d="M44 -215q-43 0 -79 9.5t-57 25.5l47 119q35 -29 86 -29q28 0 49.5 11t36.5 35l20 33l-88 511h172l15 -269l4 -122l57 119l132 272h181l-322 -542q-36 -62 -74 -100.5t-81.5 -55.5t-98.5 -17zM166 555l149 173h165l69 -173h-118l-48 88l-88 -88h-129z" />
    <glyph glyph-name="Ydieresis" unicode="&#x178;" horiz-adv-x="653" 
d="M182 0l57 245l-133 415h166l54 -182l25 -110l71 112l130 180h184l-328 -427l-54 -233h-172zM532 707q-36 0 -57.5 15.5t-21.5 47.5q0 47 26 69t69 22q36 0 57 -15.5t21 -47.5q0 -48 -26 -69.5t-68 -21.5zM309 707q-35 0 -56.5 15.5t-21.5 47.5q0 47 26 69t69 22
q35 0 56.5 -15.5t21.5 -47.5q0 -48 -26 -69.5t-69 -21.5z" />
    <glyph glyph-name="Zacute" unicode="&#x179;" horiz-adv-x="623" 
d="M-17 0l30 131l437 399h-352l31 130h544l-30 -130l-437 -400h365l-30 -130h-558zM427 886h157l-126 -163h-127z" />
    <glyph glyph-name="zacute" unicode="&#x17a;" horiz-adv-x="512" 
d="M-18 0l25 105l241 231l57 48l-79 -3h-159l27 119h433l-25 -107l-229 -218l-67 -59l92 3h157l-27 -119h-446zM346 738h164l-148 -173h-126z" />
    <glyph glyph-name="Zdotaccent" unicode="&#x17b;" horiz-adv-x="623" 
d="M-17 0l30 131l437 399h-352l31 130h544l-30 -130l-437 -400h365l-30 -130h-558zM406 721q-38 0 -61 16t-23 49q0 50 27.5 73t72.5 23q41 0 63.5 -16.5t22.5 -48.5q0 -50 -27.5 -73t-74.5 -23z" />
    <glyph glyph-name="zdotaccent" unicode="&#x17c;" horiz-adv-x="512" 
d="M-18 0l25 105l241 231l57 48l-79 -3h-159l27 119h433l-25 -107l-229 -218l-67 -59l92 3h157l-27 -119h-446zM322 561q-38 0 -61 16t-23 49q0 50 27.5 73t72.5 23q41 0 63.5 -16.5t22.5 -48.5q0 -50 -27.5 -73t-74.5 -23z" />
    <glyph glyph-name="Zcaron" unicode="&#x17d;" horiz-adv-x="623" 
d="M-17 0l30 131l437 399h-352l31 130h544l-30 -130l-437 -400h365l-30 -130h-558zM313 723l-63 163h113l45 -91l85 91h124l-138 -163h-166z" />
    <glyph glyph-name="zcaron" unicode="&#x17e;" horiz-adv-x="512" 
d="M-18 0l25 105l241 231l57 48l-79 -3h-159l27 119h433l-25 -107l-229 -218l-67 -59l92 3h157l-27 -119h-446zM222 565l-69 173h114l50 -90l90 90h129l-149 -173h-165z" />
    <glyph glyph-name="longs" unicode="&#x17f;" horiz-adv-x="323" 
d="M-1 0l126 546q14 63 48.5 102.5t82 58.5t101.5 19q34 0 55.5 -6t35.5 -19l-35 -106q-14 12 -39 12q-31 0 -54.5 -17.5t-32.5 -56.5l-123 -533h-165z" />
    <glyph glyph-name="uni018E" unicode="&#x18e;" horiz-adv-x="631" 
d="M500 0h-528l32 133h355l31 135h-271l28 125h272l31 134h-343l32 133h514z" />
    <glyph glyph-name="uni018F" unicode="&#x18f;" horiz-adv-x="717" 
d="M345 -10q-87 0 -150.5 35t-98 98t-34.5 148q0 25 2 45.5t7 40.5h450q1 7 1 14v14q0 49 -16.5 82.5t-45.5 50.5t-69 17q-50 0 -85.5 -23.5t-57.5 -71.5l-153 55q39 86 116 130.5t189 44.5q83 0 149 -33.5t105 -97.5t39 -156q1 -82 -21.5 -154t-67.5 -125.5t-109.5 -83.5
t-149.5 -30zM350 127q42 0 72.5 17t50.5 46.5t31 65.5h-276q0 -40 13 -69t40.5 -44.5t68.5 -15.5z" />
    <glyph glyph-name="florin" unicode="&#x192;" horiz-adv-x="516" 
d="M522 727q27 0 54.5 -5.5t48.5 -21.5l-46 -107q-10 8 -22 12t-29 4q-33 0 -60 -19.5t-42 -57.5l-188 -485q-33 -85 -96.5 -130t-142.5 -45q-37 0 -61 6t-45 21l46 107q22 -16 55 -16t58 20t39 56l190 486q33 85 96 130t145 45zM516 417l-28 -118h-438l27 118h439z" />
    <glyph glyph-name="Ohorn" unicode="&#x1a0;" horiz-adv-x="732" 
d="M545 581l-44 79q39 -7 66.5 -1.5t44.5 20.5t25.5 37t10.5 50h122q-7 -66 -35 -110t-76 -63.5t-114 -11.5zM354 -10q-82 0 -149 34t-106 99.5t-39 157.5q0 82 23.5 153t69 124t112 82.5t151.5 29.5q83 0 149 -34.5t105 -99t39 -157.5q0 -82 -23.5 -152.5t-69 -124
t-111.5 -83t-151 -29.5zM360 125q45 0 77.5 24t54.5 63.5t33 86.5t11 92q0 46 -15 78t-43 49t-69 17q-44 0 -77 -24t-55 -63.5t-33 -86t-11 -92.5t15 -78t43.5 -49t68.5 -17z" />
    <glyph glyph-name="ohorn" unicode="&#x1a1;" horiz-adv-x="600" 
d="M424 422l-25 78q35 -9 58 3t37 40t20 67h116q-11 -74 -38.5 -118t-69.5 -60.5t-98 -9.5zM281 -10q-76 0 -131.5 30t-85.5 81.5t-30 115.5q0 81 33.5 147.5t97 106t154.5 39.5q77 0 132 -30t85 -81t30 -116q0 -80 -33.5 -147t-97 -106.5t-154.5 -39.5zM283 110
q26 0 47.5 16.5t37 44.5t23.5 60.5t8 65.5q0 29 -9.5 49.5t-28 32t-45.5 11.5q-25 0 -46.5 -16.5t-37 -44t-24 -60.5t-8.5 -66q0 -28 9.5 -49t28.5 -32.5t45 -11.5z" />
    <glyph glyph-name="Uhorn" unicode="&#x1af;" horiz-adv-x="704" 
d="M329 -10q-99 0 -165 36t-92 104t-4 163l86 367h172l-89 -391q-10 -47 0.5 -79t38 -48.5t68.5 -16.5q55 0 86 33t45 97l94 405h171l-95 -410q-30 -128 -106 -194t-210 -66zM630 575l21 85q28 0 49.5 24.5t29.5 81.5h122q-9 -70 -38 -114.5t-75.5 -63.5t-108.5 -13z" />
    <glyph glyph-name="uhorn" unicode="&#x1b0;" horiz-adv-x="622" 
d="M183 -9q-53 0 -90 23t-52.5 65.5t-2.5 101.5l75 319h170l-68 -294q-10 -41 7.5 -63t52.5 -22q27 0 47 12.5t33.5 37t21.5 59.5l63 270h170l-116 -500h-151l25 159l9 -15q-21 -74 -72.5 -113.5t-121.5 -39.5zM559 420l-27 80q27 0 48 24t33 86h115q-10 -72 -35.5 -113.5
t-60 -58.5t-73.5 -18z" />
    <glyph glyph-name="uni01C4" unicode="&#x1c4;" horiz-adv-x="1325" 
d="M14 0l153 660h233q94 0 157.5 -34t96.5 -95t33 -141q0 -87 -25 -158.5t-73 -123t-116.5 -80t-154.5 -28.5h-304zM216 130h96q50 0 88 22t63 59.5t37.5 83.5t12.5 94q0 43 -14.5 74.5t-43.5 49t-74 17.5h-72zM686 0l30 131l437 399h-352l31 130h544l-30 -130l-437 -400
h365l-30 -130h-558zM1016 723l-63 163h113l45 -91l85 91h124l-138 -163h-166z" />
    <glyph glyph-name="uni01C5" unicode="&#x1c5;" horiz-adv-x="1217" 
d="M14 0l153 660h233q94 0 157.5 -34t96.5 -95t33 -141q0 -87 -25 -158.5t-73 -123t-116.5 -80t-154.5 -28.5h-304zM216 130h96q50 0 88 22t63 59.5t37.5 83.5t12.5 94q0 43 -14.5 74.5t-43.5 49t-74 17.5h-72zM687 0l25 105l241 231l57 48l-79 -3h-159l27 119h433l-25 -107
l-229 -218l-67 -59l92 3h157l-27 -119h-446zM928 565l-69 173h114l50 -90l90 90h129l-149 -173h-165z" />
    <glyph glyph-name="uni01C6" unicode="&#x1c6;" horiz-adv-x="1130" 
d="M205 -9q-50 0 -89.5 23.5t-62 68t-22.5 109.5q0 60 17 117t49.5 102.5t78 72t102.5 26.5q33 0 63.5 -12t52 -37t29.5 -66l73 317h170l-165 -712h-154l17 94q-24 -48 -66 -75.5t-93 -27.5zM279 115q25 0 46 16t36.5 42.5t24 58t8.5 62.5q0 28 -9.5 48.5t-26.5 31.5t-41 11
q-28 0 -50 -16.5t-37 -42.5t-23 -56.5t-8 -58.5q0 -30 9 -51.5t26.5 -33t44.5 -11.5zM600 0l25 105l241 231l57 48l-79 -3h-159l27 119h433l-25 -107l-229 -218l-67 -59l92 3h157l-27 -119h-446zM840 565l-69 173h114l50 -90l90 90h129l-149 -173h-165z" />
    <glyph glyph-name="uni01C7" unicode="&#x1c7;" horiz-adv-x="1212" 
d="M217 133h333l-31 -133h-505l153 660h172zM865 -9q-74 0 -126 23.5t-80.5 64t-32.5 93t18 110.5l171 7q-21 -55 -19 -91.5t23 -54.5t58 -18q47 0 69 32t39 107l91 396h172l-98 -426q-16 -72 -49 -127t-90 -85.5t-146 -30.5z" />
    <glyph glyph-name="uni01C8" unicode="&#x1c8;" horiz-adv-x="891" 
d="M217 133h333l-31 -133h-505l153 660h172zM828 558q-44 0 -68.5 18t-19.5 58q5 46 31 66.5t73 20.5q45 0 69.5 -19t19.5 -56q-5 -49 -31.5 -68.5t-73.5 -19.5zM572 -215q-37 0 -73.5 8t-61.5 26l39 110q12 -8 26.5 -13.5t28.5 -5.5q30 0 44.5 15.5t23.5 57.5l121 517h170
l-125 -539q-21 -92 -68.5 -134t-124.5 -42z" />
    <glyph glyph-name="uni01C9" unicode="&#x1c9;" horiz-adv-x="616" 
d="M182 -9q-90 0 -126.5 49.5t-16.5 132.5l125 539h170l-124 -537q-9 -33 3 -49.5t44 -16.5q12 0 21 1t15 3l-30 -110q-16 -7 -35 -9.5t-46 -2.5zM553 558q-44 0 -68.5 18t-19.5 58q5 46 31 66.5t73 20.5q45 0 69.5 -19t19.5 -56q-5 -49 -31.5 -68.5t-73.5 -19.5zM297 -215
q-37 0 -73.5 8t-61.5 26l39 110q12 -8 26.5 -13.5t28.5 -5.5q30 0 44.5 15.5t23.5 57.5l121 517h170l-125 -539q-21 -92 -68.5 -134t-124.5 -42z" />
    <glyph glyph-name="uni01CA" unicode="&#x1ca;" horiz-adv-x="1344" 
d="M14 0l153 660h184l119 -363l31 -108h1l27 138l78 333h151l-153 -660h-181l-123 357l-31 108h-2l-25 -132l-77 -333h-152zM997 -9q-74 0 -126 23.5t-80.5 64t-32.5 93t18 110.5l171 7q-21 -55 -19 -91.5t23 -54.5t58 -18q47 0 69 32t39 107l91 396h172l-98 -426
q-16 -72 -49 -127t-90 -85.5t-146 -30.5z" />
    <glyph glyph-name="uni01CB" unicode="&#x1cb;" horiz-adv-x="1023" 
d="M14 0l153 660h184l119 -363l31 -108h1l27 138l78 333h151l-153 -660h-181l-123 357l-31 108h-2l-25 -132l-77 -333h-152zM960 558q-44 0 -68.5 18t-19.5 58q5 46 31 66.5t73 20.5q45 0 69.5 -19t19.5 -56q-5 -49 -31.5 -68.5t-73.5 -19.5zM704 -215q-37 0 -73.5 8
t-61.5 26l39 110q12 -8 26.5 -13.5t28.5 -5.5q30 0 44.5 15.5t23.5 57.5l121 517h170l-125 -539q-21 -92 -68.5 -134t-124.5 -42z" />
    <glyph glyph-name="uni01CC" unicode="&#x1cc;" horiz-adv-x="899" 
d="M0 0l116 500h151l-25 -159l-9 14q21 75 74 115t123 40q54 0 90.5 -23.5t51 -66.5t0.5 -104l-74 -316h-170l69 295q9 40 -7 62.5t-52 22.5q-27 0 -47.5 -12.5t-35 -37t-22.5 -60.5l-63 -270h-170zM836 558q-44 0 -68.5 18t-19.5 58q5 46 31 66.5t73 20.5q45 0 69.5 -19
t19.5 -56q-5 -49 -31.5 -68.5t-73.5 -19.5zM580 -215q-37 0 -73.5 8t-61.5 26l39 110q12 -8 26.5 -13.5t28.5 -5.5q30 0 44.5 15.5t23.5 57.5l121 517h170l-125 -539q-21 -92 -68.5 -134t-124.5 -42z" />
    <glyph glyph-name="uni01DD" unicode="&#x1dd;" horiz-adv-x="582" 
d="M307 509q73 0 127 -28t83.5 -79t29.5 -120q0 -84 -34 -150t-97.5 -104t-151.5 -38q-68 0 -119 28.5t-78.5 79t-27.5 115.5q0 17 1.5 35t4.5 36h392l1 -79h-283l47 24q-4 -13 -5 -23.5t-1 -19.5q0 -25 9 -42.5t25.5 -26t37.5 -8.5q36 0 59.5 16.5t37 44t19 60t5.5 62.5
q0 32 -10 54.5t-30 33.5t-48 11q-35 0 -59 -17.5t-36 -43.5l-140 54q31 56 94.5 90.5t146.5 34.5z" />
    <glyph glyph-name="Gcaron" unicode="&#x1e6;" horiz-adv-x="715" 
d="M322 -9q-74 0 -133.5 34.5t-94.5 98.5t-35 153q0 80 24 150.5t70 125.5t113.5 86t155.5 31q73 0 131.5 -23.5t97 -69.5t48.5 -113l-162 -31q-7 50 -37 76t-82 26q-42 0 -76.5 -19t-59 -53t-37.5 -78.5t-13 -94.5q0 -52 16 -90t48 -58.5t80 -20.5q38 0 66 12t46 33.5
t27 49.5l8 22h-158l26 114h294l-88 -352h-114l33 155l15 -16q-18 -48 -46 -81t-68 -50t-95 -17zM365 723l-63 163h113l45 -91l85 91h124l-138 -163h-166z" />
    <glyph glyph-name="gcaron" unicode="&#x1e7;" horiz-adv-x="616" 
d="M210 -215q-45 0 -86.5 11t-73.5 34t-51 57.5t-20 80.5l171 18q2 -42 18.5 -66.5t61.5 -24.5q25 0 45.5 11t36 36t24.5 68l37 160h9q-16 -76 -61 -116.5t-112 -40.5q-50 0 -90 23.5t-63 68t-23 105.5q0 60 17.5 113.5t49.5 96t77 66.5t101 24q39 0 72.5 -17t55 -52.5
t20.5 -90.5l-20 -25l40 175h170l-110 -476q-21 -89 -60.5 -141t-98.5 -75t-137 -23zM284 136q33 0 57.5 23t38 59.5t13.5 77.5q0 27 -9.5 47t-27 31t-41.5 11q-36 0 -61.5 -23.5t-39 -59t-13.5 -72.5q0 -42 21 -68t62 -26zM269 565l-69 173h114l50 -90l90 90h129l-149 -173
h-165z" />
    <glyph glyph-name="uni01EA" unicode="&#x1ea;" horiz-adv-x="732" 
d="M354 -10q-82 0 -149 34t-106 99.5t-39 157.5q0 82 23.5 153t69 124t112 82.5t151.5 29.5q83 0 149 -34.5t105 -99t39 -157.5q0 -82 -23.5 -152.5t-69 -124t-111.5 -83t-151 -29.5zM360 125q45 0 77.5 24t54.5 63.5t33 86.5t11 92q0 46 -15 78t-43 49t-69 17
q-44 0 -77 -24t-55 -63.5t-33 -86t-11 -92.5t15 -78t43.5 -49t68.5 -17zM343 -224q-35 0 -66 12t-50 36.5t-19 62.5q0 41 22 69.5t63.5 46.5t98.5 26l59 -26q-34 -12 -62.5 -24t-45.5 -27.5t-17 -39.5q0 -23 17 -32.5t37 -9.5q10 0 18 2l16 4l-6 -87q-16 -7 -32.5 -10
t-32.5 -3z" />
    <glyph glyph-name="uni01EB" unicode="&#x1eb;" horiz-adv-x="600" 
d="M281 -10q-76 0 -131.5 30t-85.5 81.5t-30 115.5q0 81 33.5 147.5t97 106t154.5 39.5q77 0 132 -30t85 -81t30 -116q0 -80 -33.5 -147t-97 -106.5t-154.5 -39.5zM283 110q26 0 47.5 16.5t37 44.5t23.5 60.5t8 65.5q0 29 -9.5 49.5t-28 32t-45.5 11.5q-25 0 -46.5 -16.5
t-37 -44t-24 -60.5t-8.5 -66q0 -28 9.5 -49t28.5 -32.5t45 -11.5zM266 -223q-35 0 -66 12t-50 36.5t-19 62.5q0 41 22 69.5t63.5 46.5t98.5 26l59 -26q-34 -12 -62.5 -24t-45.5 -27.5t-17 -39.5q0 -23 17 -32.5t37 -9.5q10 0 18 2l16 4l-6 -87q-16 -7 -32.5 -10t-32.5 -3z
" />
    <glyph glyph-name="uni01F1" unicode="&#x1f1;" horiz-adv-x="1325" 
d="M14 0l153 660h233q94 0 157.5 -34t96.5 -95t33 -141q0 -87 -25 -158.5t-73 -123t-116.5 -80t-154.5 -28.5h-304zM216 130h96q50 0 88 22t63 59.5t37.5 83.5t12.5 94q0 43 -14.5 74.5t-43.5 49t-74 17.5h-72zM686 0l30 131l437 399h-352l31 130h544l-30 -130l-437 -400
h365l-30 -130h-558z" />
    <glyph glyph-name="uni01F2" unicode="&#x1f2;" horiz-adv-x="1217" 
d="M14 0l153 660h233q94 0 157.5 -34t96.5 -95t33 -141q0 -87 -25 -158.5t-73 -123t-116.5 -80t-154.5 -28.5h-304zM216 130h96q50 0 88 22t63 59.5t37.5 83.5t12.5 94q0 43 -14.5 74.5t-43.5 49t-74 17.5h-72zM687 0l25 105l241 231l57 48l-79 -3h-159l27 119h433l-25 -107
l-229 -218l-67 -59l92 3h157l-27 -119h-446z" />
    <glyph glyph-name="uni01F3" unicode="&#x1f3;" horiz-adv-x="1130" 
d="M205 -9q-50 0 -89.5 23.5t-62 68t-22.5 109.5q0 60 17 117t49.5 102.5t78 72t102.5 26.5q33 0 63.5 -12t52 -37t29.5 -66l73 317h170l-165 -712h-154l17 94q-24 -48 -66 -75.5t-93 -27.5zM279 115q25 0 46 16t36.5 42.5t24 58t8.5 62.5q0 28 -9.5 48.5t-26.5 31.5t-41 11
q-28 0 -50 -16.5t-37 -42.5t-23 -56.5t-8 -58.5q0 -30 9 -51.5t26.5 -33t44.5 -11.5zM600 0l25 105l241 231l57 48l-79 -3h-159l27 119h433l-25 -107l-229 -218l-67 -59l92 3h157l-27 -119h-446z" />
    <glyph glyph-name="Aringacute" unicode="&#x1fa;" horiz-adv-x="671" 
d="M-55 0l382 660h208l74 -660h-163l-13 155h-225l-84 -155h-179zM270 272h157l-20 256zM444 842q61 0 97 -32t36 -82q0 -60 -40.5 -99t-103.5 -39q-60 0 -97 31.5t-37 81.5q0 60 41 99.5t104 39.5zM441 768q-22 0 -38.5 -15.5t-16.5 -42.5q0 -20 14 -33t36 -13
q23 0 39 15.5t16 42.5q0 21 -13.5 33.5t-36.5 12.5zM484 1044h157l-126 -163h-127z" />
    <glyph glyph-name="aringacute" unicode="&#x1fb;" horiz-adv-x="618" 
d="M205 -9q-50 0 -89.5 23.5t-62 68t-22.5 109.5q0 60 17 117t49.5 102.5t78 72t102.5 26.5q33 0 63.5 -12t52 -37t29.5 -66l24 105h170l-116 -500h-154l17 94q-24 -48 -66 -75.5t-93 -27.5zM279 115q25 0 46 16t36.5 42.5t24 58t8.5 62.5q0 28 -9.5 48.5t-26.5 31.5t-41 11
q-28 0 -50 -16.5t-37 -42.5t-23 -56.5t-8 -58.5q0 -30 9 -51.5t26.5 -33t44.5 -11.5zM378 803q61 0 97 -32t36 -82q0 -60 -40.5 -99t-103.5 -39q-60 0 -97 31.5t-37 81.5q0 60 41 99.5t104 39.5zM375 729q-22 0 -38.5 -15.5t-16.5 -42.5q0 -20 14 -33t36 -13q23 0 39 15.5
t16 42.5q0 21 -13.5 33.5t-36.5 12.5zM335 837l91 152h154l-120 -152h-125z" />
    <glyph glyph-name="AEacute" unicode="&#x1fc;" horiz-adv-x="916" 
d="M-62 0l425 660h605l-30 -127h-295l-33 -142h226l-28 -120h-225l-34 -144h309l-30 -127h-469l46 196h-165l-118 -196h-184zM302 308h129l53 230h-37zM632 886h157l-126 -163h-127z" />
    <glyph glyph-name="aeacute" unicode="&#x1fd;" horiz-adv-x="884" 
d="M186 -10q-79 0 -123.5 38t-44.5 101q0 47 23.5 78.5t62.5 49.5t84 23l180 22l-13 -88l-102 -14q-37 -5 -59 -15t-22 -39q0 -23 15 -35t44 -12q37 0 59.5 18t30.5 54l29 128q2 8 2.5 15.5t0.5 13.5q0 31 -18 48.5t-53 17.5q-36 0 -57.5 -19t-34.5 -56l-138 34
q19 71 77 114t158 43q51 0 88 -15t58.5 -41t24.5 -61l-31 11q23 32 52.5 55.5t68.5 37t90 13.5q65 0 112.5 -27t73.5 -74.5t26 -109.5q0 -22 -2.5 -46t-9.5 -47h-355l10 93h194q1 5 1 10v9q0 24 -9 40.5t-24 24.5t-34 8q-35 0 -59 -17t-38 -45t-20 -60.5t-6 -62.5
q0 -31 12 -53t33.5 -33t48.5 -11q35 0 57 16t34 41l140 -54q-18 -38 -52.5 -65t-80 -41.5t-97.5 -14.5q-58 0 -104.5 21t-75 57.5t-35.5 83.5l36 -3q-8 -41 -36 -78t-76 -59.5t-116 -22.5zM510 738h164l-148 -173h-126z" />
    <glyph glyph-name="Oslashacute" unicode="&#x1fe;" horiz-adv-x="732" 
d="M244 126l-40 51l322 367l36 -54zM27 -17l135 152l43 -47l-97 -105h-81zM581 507l-21 69l92 102h82zM354 -10q-82 0 -149 34t-106 99.5t-39 157.5q0 82 23.5 153t69 124t112 82.5t151.5 29.5q83 0 149 -34.5t105 -99t39 -157.5q0 -82 -23.5 -152.5t-69 -124t-111.5 -83
t-151 -29.5zM360 125q45 0 77.5 24t54.5 63.5t33 86.5t11 92q0 46 -15 78t-43 49t-69 17q-44 0 -77 -24t-55 -63.5t-33 -86t-11 -92.5t15 -78t43.5 -49t68.5 -17zM476 886h157l-126 -163h-127z" />
    <glyph glyph-name="oslashacute" unicode="&#x1ff;" horiz-adv-x="600" 
d="M281 -10q-76 0 -131.5 30t-85.5 81.5t-30 115.5q0 81 33.5 147.5t97 106t154.5 39.5q77 0 132 -30t85 -81t30 -116q0 -80 -33.5 -147t-97 -106.5t-154.5 -39.5zM283 110q26 0 47.5 16.5t37 44.5t23.5 60.5t8 65.5q0 29 -9.5 49.5t-28 32t-45.5 11.5q-25 0 -46.5 -16.5
t-37 -44t-24 -60.5t-8.5 -66q0 -28 9.5 -49t28.5 -32.5t45 -11.5zM-8 -23l540 546h75l-541 -546h-74zM384 738h164l-148 -173h-126z" />
    <glyph glyph-name="uni0200" unicode="&#x200;" horiz-adv-x="671" 
d="M-55 0l382 660h208l74 -660h-163l-13 155h-225l-84 -155h-179zM270 272h157l-20 256zM371 886l31 -163h-111l-68 163h148zM570 886l31 -163h-111l-68 163h148z" />
    <glyph glyph-name="uni0201" unicode="&#x201;" horiz-adv-x="618" 
d="M205 -9q-50 0 -89.5 23.5t-62 68t-22.5 109.5q0 60 17 117t49.5 102.5t78 72t102.5 26.5q33 0 63.5 -12t52 -37t29.5 -66l24 105h170l-116 -500h-154l17 94q-24 -48 -66 -75.5t-93 -27.5zM279 115q25 0 46 16t36.5 42.5t24 58t8.5 62.5q0 28 -9.5 48.5t-26.5 31.5t-41 11
q-28 0 -50 -16.5t-37 -42.5t-23 -56.5t-8 -58.5q0 -30 9 -51.5t26.5 -33t44.5 -11.5zM285 738l43 -173h-114l-69 173h140zM483 738l42 -173h-114l-68 173h140z" />
    <glyph glyph-name="uni0202" unicode="&#x202;" horiz-adv-x="671" 
d="M-55 0l382 660h208l74 -660h-163l-13 155h-225l-84 -155h-179zM270 272h157l-20 256zM267 715q12 74 59.5 118.5t130.5 44.5q73 0 112.5 -35t39.5 -91q0 -9 -1 -18t-3 -19h-108q2 5 2.5 10.5t0.5 9.5q0 24 -15.5 36t-37.5 12q-31 0 -49 -18t-22 -50h-109z" />
    <glyph glyph-name="uni0203" unicode="&#x203;" horiz-adv-x="618" 
d="M205 -9q-50 0 -89.5 23.5t-62 68t-22.5 109.5q0 60 17 117t49.5 102.5t78 72t102.5 26.5q33 0 63.5 -12t52 -37t29.5 -66l24 105h170l-116 -500h-154l17 94q-24 -48 -66 -75.5t-93 -27.5zM279 115q25 0 46 16t36.5 42.5t24 58t8.5 62.5q0 28 -9.5 48.5t-26.5 31.5t-41 11
q-28 0 -50 -16.5t-37 -42.5t-23 -56.5t-8 -58.5q0 -30 9 -51.5t26.5 -33t44.5 -11.5zM183 555q12 74 59.5 118.5t130.5 44.5q73 0 112.5 -35t39.5 -91q0 -9 -1 -18t-3 -19h-108q2 5 2.5 10.5t0.5 9.5q0 24 -15.5 36t-37.5 12q-31 0 -49 -18t-22 -50h-109z" />
    <glyph glyph-name="uni0204" unicode="&#x204;" 
d="M14 0l153 660h514l-32 -133h-341l-31 -134h269l-29 -125h-269l-31 -135h352l-31 -133h-524zM362 886l31 -163h-111l-68 163h148zM561 886l31 -163h-111l-68 163h148z" />
    <glyph glyph-name="uni0205" unicode="&#x205;" horiz-adv-x="582" 
d="M282 -9q-74 0 -130 28.5t-87 79.5t-31 119q0 84 34.5 149.5t98 103.5t151.5 38q73 0 124.5 -27.5t78.5 -77.5t27 -118q0 -19 -2 -40t-8 -41h-394v92h283l-47 -26q4 14 5 24t1 19q0 26 -9 43t-25 25.5t-38 8.5q-36 0 -59.5 -17t-37.5 -44.5t-19.5 -59.5t-5.5 -62
q0 -32 12.5 -54t34 -33.5t50.5 -11.5q36 0 58 16.5t34 41.5l140 -55q-17 -38 -52.5 -65t-83 -41.5t-103.5 -14.5zM272 738l43 -173h-114l-69 173h140zM470 738l42 -173h-114l-68 173h140z" />
    <glyph glyph-name="uni0206" unicode="&#x206;" 
d="M14 0l153 660h514l-32 -133h-341l-31 -134h269l-29 -125h-269l-31 -135h352l-31 -133h-524zM258 715q12 74 59.5 118.5t130.5 44.5q73 0 112.5 -35t39.5 -91q0 -9 -1 -18t-3 -19h-108q2 5 2.5 10.5t0.5 9.5q0 24 -15.5 36t-37.5 12q-31 0 -49 -18t-22 -50h-109z" />
    <glyph glyph-name="uni0207" unicode="&#x207;" horiz-adv-x="582" 
d="M282 -9q-74 0 -130 28.5t-87 79.5t-31 119q0 84 34.5 149.5t98 103.5t151.5 38q73 0 124.5 -27.5t78.5 -77.5t27 -118q0 -19 -2 -40t-8 -41h-394v92h283l-47 -26q4 14 5 24t1 19q0 26 -9 43t-25 25.5t-38 8.5q-36 0 -59.5 -17t-37.5 -44.5t-19.5 -59.5t-5.5 -62
q0 -32 12.5 -54t34 -33.5t50.5 -11.5q36 0 58 16.5t34 41.5l140 -55q-17 -38 -52.5 -65t-83 -41.5t-103.5 -14.5zM170 555q12 74 59.5 118.5t130.5 44.5q73 0 112.5 -35t39.5 -91q0 -9 -1 -18t-3 -19h-108q2 5 2.5 10.5t0.5 9.5q0 24 -15.5 36t-37.5 12q-31 0 -49 -18
t-22 -50h-109z" />
    <glyph glyph-name="uni0208" unicode="&#x208;" horiz-adv-x="316" 
d="M339 660l-153 -660h-172l153 660h172zM196 886l31 -163h-111l-68 163h148zM395 886l31 -163h-111l-68 163h148z" />
    <glyph glyph-name="uni0209" unicode="&#x209;" horiz-adv-x="288" 
d="M287 500l-116 -500h-170l116 500h170zM143 738l43 -173h-114l-69 173h140zM341 738l42 -173h-114l-68 173h140z" />
    <glyph glyph-name="uni020A" unicode="&#x20a;" horiz-adv-x="316" 
d="M339 660l-153 -660h-172l153 660h172zM92 715q12 74 59.5 118.5t130.5 44.5q73 0 112.5 -35t39.5 -91q0 -9 -1 -18t-3 -19h-108q2 5 2.5 10.5t0.5 9.5q0 24 -15.5 36t-37.5 12q-31 0 -49 -18t-22 -50h-109z" />
    <glyph glyph-name="uni020B" unicode="&#x20b;" horiz-adv-x="288" 
d="M287 500l-116 -500h-170l116 500h170zM41 555q12 74 59.5 118.5t130.5 44.5q73 0 112.5 -35t39.5 -91q0 -9 -1 -18t-3 -19h-108q2 5 2.5 10.5t0.5 9.5q0 24 -15.5 36t-37.5 12q-31 0 -49 -18t-22 -50h-109z" />
    <glyph glyph-name="uni020C" unicode="&#x20c;" horiz-adv-x="732" 
d="M354 -10q-82 0 -149 34t-106 99.5t-39 157.5q0 82 23.5 153t69 124t112 82.5t151.5 29.5q83 0 149 -34.5t105 -99t39 -157.5q0 -82 -23.5 -152.5t-69 -124t-111.5 -83t-151 -29.5zM360 125q45 0 77.5 24t54.5 63.5t33 86.5t11 92q0 46 -15 78t-43 49t-69 17
q-44 0 -77 -24t-55 -63.5t-33 -86t-11 -92.5t15 -78t43.5 -49t68.5 -17zM380 886l31 -163h-111l-68 163h148zM579 886l31 -163h-111l-68 163h148z" />
    <glyph glyph-name="uni020D" unicode="&#x20d;" horiz-adv-x="600" 
d="M281 -10q-76 0 -131.5 30t-85.5 81.5t-30 115.5q0 81 33.5 147.5t97 106t154.5 39.5q77 0 132 -30t85 -81t30 -116q0 -80 -33.5 -147t-97 -106.5t-154.5 -39.5zM283 110q26 0 47.5 16.5t37 44.5t23.5 60.5t8 65.5q0 29 -9.5 49.5t-28 32t-45.5 11.5q-25 0 -46.5 -16.5
t-37 -44t-24 -60.5t-8.5 -66q0 -28 9.5 -49t28.5 -32.5t45 -11.5zM283 738l43 -173h-114l-69 173h140zM481 738l42 -173h-114l-68 173h140z" />
    <glyph glyph-name="uni020E" unicode="&#x20e;" horiz-adv-x="732" 
d="M354 -10q-82 0 -149 34t-106 99.5t-39 157.5q0 82 23.5 153t69 124t112 82.5t151.5 29.5q83 0 149 -34.5t105 -99t39 -157.5q0 -82 -23.5 -152.5t-69 -124t-111.5 -83t-151 -29.5zM360 125q45 0 77.5 24t54.5 63.5t33 86.5t11 92q0 46 -15 78t-43 49t-69 17
q-44 0 -77 -24t-55 -63.5t-33 -86t-11 -92.5t15 -78t43.5 -49t68.5 -17zM276 715q12 74 59.5 118.5t130.5 44.5q73 0 112.5 -35t39.5 -91q0 -9 -1 -18t-3 -19h-108q2 5 2.5 10.5t0.5 9.5q0 24 -15.5 36t-37.5 12q-31 0 -49 -18t-22 -50h-109z" />
    <glyph glyph-name="uni020F" unicode="&#x20f;" horiz-adv-x="600" 
d="M281 -10q-76 0 -131.5 30t-85.5 81.5t-30 115.5q0 81 33.5 147.5t97 106t154.5 39.5q77 0 132 -30t85 -81t30 -116q0 -80 -33.5 -147t-97 -106.5t-154.5 -39.5zM283 110q26 0 47.5 16.5t37 44.5t23.5 60.5t8 65.5q0 29 -9.5 49.5t-28 32t-45.5 11.5q-25 0 -46.5 -16.5
t-37 -44t-24 -60.5t-8.5 -66q0 -28 9.5 -49t28.5 -32.5t45 -11.5zM181 555q12 74 59.5 118.5t130.5 44.5q73 0 112.5 -35t39.5 -91q0 -9 -1 -18t-3 -19h-108q2 5 2.5 10.5t0.5 9.5q0 24 -15.5 36t-37.5 12q-31 0 -49 -18t-22 -50h-109z" />
    <glyph glyph-name="uni0210" unicode="&#x210;" horiz-adv-x="677" 
d="M14 0l153 660h283q102 0 161.5 -49.5t59.5 -138.5q0 -72 -33.5 -122t-90.5 -77.5t-129 -30.5l-38 -9h-158l28 122h131q39 0 65.5 13t40.5 36.5t14 51.5q0 39 -26 56.5t-67 17.5h-102l-123 -530h-169zM441 0l-108 286l156 24l126 -310h-174zM362 886l31 -163h-111l-68 163
h148zM561 886l31 -163h-111l-68 163h148z" />
    <glyph glyph-name="uni0211" unicode="&#x211;" horiz-adv-x="423" 
d="M0 0l116 500h151l-31 -182l-7 17q16 53 42 92t64 61t86 22q17 0 28.5 -2.5t19.5 -6.5l-41 -143q-10 5 -23.5 7.5t-34.5 2.5q-31 0 -60.5 -13.5t-51.5 -43.5t-34 -80l-54 -231h-170zM235 738l43 -173h-114l-69 173h140zM433 738l42 -173h-114l-68 173h140z" />
    <glyph glyph-name="uni0212" unicode="&#x212;" horiz-adv-x="677" 
d="M14 0l153 660h283q102 0 161.5 -49.5t59.5 -138.5q0 -72 -33.5 -122t-90.5 -77.5t-129 -30.5l-38 -9h-158l28 122h131q39 0 65.5 13t40.5 36.5t14 51.5q0 39 -26 56.5t-67 17.5h-102l-123 -530h-169zM441 0l-108 286l156 24l126 -310h-174zM258 715q12 74 59.5 118.5
t130.5 44.5q73 0 112.5 -35t39.5 -91q0 -9 -1 -18t-3 -19h-108q2 5 2.5 10.5t0.5 9.5q0 24 -15.5 36t-37.5 12q-31 0 -49 -18t-22 -50h-109z" />
    <glyph glyph-name="uni0213" unicode="&#x213;" horiz-adv-x="423" 
d="M0 0l116 500h151l-31 -182l-7 17q16 53 42 92t64 61t86 22q17 0 28.5 -2.5t19.5 -6.5l-41 -143q-10 5 -23.5 7.5t-34.5 2.5q-31 0 -60.5 -13.5t-51.5 -43.5t-34 -80l-54 -231h-170zM133 555q12 74 59.5 118.5t130.5 44.5q73 0 112.5 -35t39.5 -91q0 -9 -1 -18t-3 -19
h-108q2 5 2.5 10.5t0.5 9.5q0 24 -15.5 36t-37.5 12q-31 0 -49 -18t-22 -50h-109z" />
    <glyph glyph-name="uni0214" unicode="&#x214;" horiz-adv-x="704" 
d="M329 -10q-99 0 -165 36t-92 104t-4 163l86 367h172l-89 -391q-10 -47 0.5 -79t38 -48.5t68.5 -16.5q55 0 86 33t45 97l94 405h171l-95 -410q-30 -128 -106 -194t-210 -66zM386 878l31 -163h-111l-68 163h148zM585 878l31 -163h-111l-68 163h148z" />
    <glyph glyph-name="uni0215" unicode="&#x215;" horiz-adv-x="610" 
d="M183 -9q-53 0 -90 23t-52.5 65.5t-2.5 101.5l75 319h170l-68 -294q-10 -41 7.5 -63t52.5 -22q27 0 47 12.5t33.5 37t21.5 59.5l63 270h170l-116 -500h-151l25 159l9 -15q-21 -74 -72.5 -113.5t-121.5 -39.5zM295 734l43 -173h-114l-69 173h140zM493 734l42 -173h-114
l-68 173h140z" />
    <glyph glyph-name="uni0216" unicode="&#x216;" horiz-adv-x="704" 
d="M329 -10q-99 0 -165 36t-92 104t-4 163l86 367h172l-89 -391q-10 -47 0.5 -79t38 -48.5t68.5 -16.5q55 0 86 33t45 97l94 405h171l-95 -410q-30 -128 -106 -194t-210 -66zM282 707q12 74 59.5 118.5t130.5 44.5q73 0 112.5 -35t39.5 -91q0 -9 -1 -18t-3 -19h-108
q2 5 2.5 10.5t0.5 9.5q0 24 -15.5 36t-37.5 12q-31 0 -49 -18t-22 -50h-109z" />
    <glyph glyph-name="uni0217" unicode="&#x217;" horiz-adv-x="610" 
d="M183 -9q-53 0 -90 23t-52.5 65.5t-2.5 101.5l75 319h170l-68 -294q-10 -41 7.5 -63t52.5 -22q27 0 47 12.5t33.5 37t21.5 59.5l63 270h170l-116 -500h-151l25 159l9 -15q-21 -74 -72.5 -113.5t-121.5 -39.5zM193 551q12 74 59.5 118.5t130.5 44.5q73 0 112.5 -35
t39.5 -91q0 -9 -1 -18t-3 -19h-108q2 5 2.5 10.5t0.5 9.5q0 24 -15.5 36t-37.5 12q-31 0 -49 -18t-22 -50h-109z" />
    <glyph glyph-name="uni0218" unicode="&#x218;" horiz-adv-x="640" 
d="M332 -11q-70 0 -132 18.5t-111.5 54.5t-84.5 91l101 99q24 -42 60.5 -71.5t79.5 -44t86 -14.5q31 0 50.5 9t29.5 24t10 32q0 22 -16 34.5t-48 22.5l-99 32q-45 15 -81.5 39.5t-57.5 60.5t-21 83q0 67 34.5 114t95 72t138.5 25q103 0 174 -36.5t117 -102.5l-105 -96
q-21 35 -50.5 57.5t-64.5 33.5t-71 11q-30 0 -50 -8t-29.5 -21.5t-9.5 -31.5q0 -20 19.5 -36.5t51.5 -26.5l99 -32q75 -24 114 -65.5t39 -108.5q0 -68 -35.5 -117t-96.5 -75t-136 -26zM356 -60l-113 -181h-115l73 181h155z" />
    <glyph glyph-name="uni0219" unicode="&#x219;" horiz-adv-x="521" 
d="M254 -11q-53 0 -104 15t-91.5 43.5t-66.5 67.5l89 81q26 -41 68 -66.5t89 -25.5q31 0 48 9t17 28q0 14 -10.5 24t-31.5 16l-60 18q-75 24 -107.5 59.5t-32.5 87.5q0 51 27 87.5t76 56.5t113 20q79 0 139 -27t95 -76l-85 -84q-13 21 -35.5 37.5t-49.5 26t-57 9.5
q-31 0 -47 -9.5t-16 -26.5q0 -15 14 -23.5t32 -14.5l95 -29q53 -17 81.5 -50.5t28.5 -80.5q0 -53 -26 -92t-75 -60t-117 -21zM297 -60l-113 -181h-115l73 181h155z" />
    <glyph glyph-name="uni021A" unicode="&#x21a;" horiz-adv-x="648" 
d="M719 660l-31 -133h-213l-122 -527h-172l122 527h-215l31 133h600zM334 -60l-113 -181h-115l73 181h155z" />
    <glyph glyph-name="uni021B" unicode="&#x21b;" horiz-adv-x="436" 
d="M256 -9q-62 0 -105 21.5t-60 64.5t-3 106l97 425l182 48l-109 -469q-10 -39 9.5 -58.5t57.5 -19.5q23 0 37.5 4t25.5 10l-10 -109q-27 -13 -58 -18t-64 -5zM40 379l28 121h399l-28 -121h-399zM295 -60l-113 -181h-115l73 181h155z" />
    <glyph glyph-name="uni022A" unicode="&#x22a;" horiz-adv-x="732" 
d="M354 -10q-82 0 -149 34t-106 99.5t-39 157.5q0 82 23.5 153t69 124t112 82.5t151.5 29.5q83 0 149 -34.5t105 -99t39 -157.5q0 -82 -23.5 -152.5t-69 -124t-111.5 -83t-151 -29.5zM360 125q45 0 77.5 24t54.5 63.5t33 86.5t11 92q0 46 -15 78t-43 49t-69 17
q-44 0 -77 -24t-55 -63.5t-33 -86t-11 -92.5t15 -78t43.5 -49t68.5 -17zM566 715q-36 0 -57.5 15.5t-21.5 47.5q0 47 26 69t69 22q36 0 57 -15.5t21 -47.5q0 -48 -26 -69.5t-68 -21.5zM343 715q-35 0 -56.5 15.5t-21.5 47.5q0 47 26 69t69 22q35 0 56.5 -15.5t21.5 -47.5
q0 -48 -26 -69.5t-69 -21.5zM697 1024l-24 -105h-359l25 105h358z" />
    <glyph glyph-name="uni022B" unicode="&#x22b;" horiz-adv-x="600" 
d="M281 -10q-76 0 -131.5 30t-85.5 81.5t-30 115.5q0 81 33.5 147.5t97 106t154.5 39.5q77 0 132 -30t85 -81t30 -116q0 -80 -33.5 -147t-97 -106.5t-154.5 -39.5zM283 110q26 0 47.5 16.5t37 44.5t23.5 60.5t8 65.5q0 29 -9.5 49.5t-28 32t-45.5 11.5q-25 0 -46.5 -16.5
t-37 -44t-24 -60.5t-8.5 -66q0 -28 9.5 -49t28.5 -32.5t45 -11.5zM471 555q-36 0 -57.5 15.5t-21.5 47.5q0 47 26 69t69 22q36 0 57 -15.5t21 -47.5q0 -48 -26 -69.5t-68 -21.5zM248 555q-35 0 -56.5 15.5t-21.5 47.5q0 47 26 69t69 22q35 0 56.5 -15.5t21.5 -47.5
q0 -48 -26 -69.5t-69 -21.5zM602 864l-24 -105h-359l25 105h358z" />
    <glyph glyph-name="uni022C" unicode="&#x22c;" horiz-adv-x="732" 
d="M354 -10q-82 0 -149 34t-106 99.5t-39 157.5q0 82 23.5 153t69 124t112 82.5t151.5 29.5q83 0 149 -34.5t105 -99t39 -157.5q0 -82 -23.5 -152.5t-69 -124t-111.5 -83t-151 -29.5zM360 125q45 0 77.5 24t54.5 63.5t33 86.5t11 92q0 46 -15 78t-43 49t-69 17
q-44 0 -77 -24t-55 -63.5t-33 -86t-11 -92.5t15 -78t43.5 -49t68.5 -17zM668 878q-12 -80 -52 -119.5t-90 -39.5q-27 0 -45 9t-31.5 20.5t-26 20.5t-26.5 9q-16 0 -27 -16t-18 -42h-94q12 80 50 119.5t90 39.5q23 0 41 -9t32.5 -20.5t28 -20.5t28.5 -9t26.5 15t18.5 43h95z
M698 1040l-24 -105h-359l25 105h358z" />
    <glyph glyph-name="uni022D" unicode="&#x22d;" horiz-adv-x="600" 
d="M281 -10q-76 0 -131.5 30t-85.5 81.5t-30 115.5q0 81 33.5 147.5t97 106t154.5 39.5q77 0 132 -30t85 -81t30 -116q0 -80 -33.5 -147t-97 -106.5t-154.5 -39.5zM283 110q26 0 47.5 16.5t37 44.5t23.5 60.5t8 65.5q0 29 -9.5 49.5t-28 32t-45.5 11.5q-25 0 -46.5 -16.5
t-37 -44t-24 -60.5t-8.5 -66q0 -28 9.5 -49t28.5 -32.5t45 -11.5zM573 718q-12 -80 -52 -119.5t-90 -39.5q-27 0 -45 9t-31.5 20.5t-26 20.5t-26.5 9q-16 0 -27 -16t-18 -42h-94q12 80 50 119.5t90 39.5q23 0 41 -9t32.5 -20.5t28 -20.5t28.5 -9t26.5 15t18.5 43h95z
M603 880l-24 -105h-359l25 105h358z" />
    <glyph glyph-name="uni0230" unicode="&#x230;" horiz-adv-x="732" 
d="M354 -10q-82 0 -149 34t-106 99.5t-39 157.5q0 82 23.5 153t69 124t112 82.5t151.5 29.5q83 0 149 -34.5t105 -99t39 -157.5q0 -82 -23.5 -152.5t-69 -124t-111.5 -83t-151 -29.5zM360 125q45 0 77.5 24t54.5 63.5t33 86.5t11 92q0 46 -15 78t-43 49t-69 17
q-44 0 -77 -24t-55 -63.5t-33 -86t-11 -92.5t15 -78t43.5 -49t68.5 -17zM455 721q-38 0 -61 16t-23 49q0 50 27.5 73t72.5 23q41 0 63.5 -16.5t22.5 -48.5q0 -50 -27.5 -73t-74.5 -23zM695 1032l-24 -105h-359l25 105h358z" />
    <glyph glyph-name="uni0231" unicode="&#x231;" horiz-adv-x="600" 
d="M281 -10q-76 0 -131.5 30t-85.5 81.5t-30 115.5q0 81 33.5 147.5t97 106t154.5 39.5q77 0 132 -30t85 -81t30 -116q0 -80 -33.5 -147t-97 -106.5t-154.5 -39.5zM283 110q26 0 47.5 16.5t37 44.5t23.5 60.5t8 65.5q0 29 -9.5 49.5t-28 32t-45.5 11.5q-25 0 -46.5 -16.5
t-37 -44t-24 -60.5t-8.5 -66q0 -28 9.5 -49t28.5 -32.5t45 -11.5zM360 561q-38 0 -61 16t-23 49q0 50 27.5 73t72.5 23q41 0 63.5 -16.5t22.5 -48.5q0 -50 -27.5 -73t-74.5 -23zM600 872l-24 -105h-359l25 105h358z" />
    <glyph glyph-name="uni0232" unicode="&#x232;" horiz-adv-x="653" 
d="M182 0l57 245l-133 415h166l54 -182l25 -110l71 112l130 180h184l-328 -427l-54 -233h-172zM622 826l-24 -105h-359l25 105h358z" />
    <glyph glyph-name="uni0233" unicode="&#x233;" horiz-adv-x="558" 
d="M44 -215q-43 0 -79 9.5t-57 25.5l47 119q35 -29 86 -29q28 0 49.5 11t36.5 35l20 33l-88 511h172l15 -269l4 -122l57 119l132 272h181l-322 -542q-36 -62 -74 -100.5t-81.5 -55.5t-98.5 -17zM568 670l-24 -105h-359l25 105h358z" />
    <glyph glyph-name="uni0237" unicode="&#x237;" horiz-adv-x="288" 
d="M-31 -215q-37 0 -73.5 8t-61.5 26l39 110q12 -8 26.5 -13.5t28.5 -5.5q30 0 44.5 15.5t23.5 57.5l121 517h170l-125 -539q-21 -92 -68.5 -134t-124.5 -42z" />
    <glyph glyph-name="uni0241" unicode="&#x241;" horiz-adv-x="605" 
d="M375 670q75 0 132 -25.5t89.5 -73t32.5 -113.5q0 -73 -30.5 -129.5t-87.5 -91t-139 -43.5l-44 -194h-166l67 286q77 8 124.5 29.5t70 55.5t22.5 79q0 26 -10 44.5t-29.5 28t-46.5 9.5q-48 0 -82 -28.5t-55 -89.5l-152 55q31 100 109.5 150.5t194.5 50.5z" />
    <glyph glyph-name="uni0242" unicode="&#x242;" horiz-adv-x="562" 
d="M131 0l48 208q59 1 104.5 10t71.5 32t26 63q0 31 -22 46.5t-58 15.5q-42 0 -69 -23t-41 -67l-155 61q15 45 50.5 82.5t93 60t139.5 22.5q72 0 126 -21t84.5 -60.5t30.5 -94.5q0 -63 -27 -106.5t-78 -68.5t-123 -32l-30 -128h-171z" />
    <glyph glyph-name="uni0259" unicode="&#x259;" horiz-adv-x="581" 
d="M267 -10q-74 0 -126 27.5t-79.5 74t-27.5 102.5q0 20 2.5 41.5t10.5 45.5h390l1 -77h-283l47 25q-4 -13 -5 -23.5t-1 -19.5q0 -24 9.5 -41.5t26.5 -26.5t40 -9q35 0 57.5 16.5t36 44t19.5 60t6 62.5q0 32 -11.5 54t-31.5 33.5t-47 11.5q-39 0 -63 -20.5t-36 -45.5
l-141 49q32 58 93.5 96.5t155.5 38.5q70 0 123.5 -28t83.5 -79t30 -120q0 -84 -35 -150t-97.5 -104t-147.5 -38z" />
    <glyph glyph-name="uni02B9" unicode="&#x2b9;" horiz-adv-x="560" 
d="M389 678l-147 -277h-120l115 277h152z" />
    <glyph glyph-name="uni02BA" unicode="&#x2ba;" horiz-adv-x="465" 
d="M544 678l-147 -277h-120l115 277h152zM336 678l-147 -277h-120l115 277h152z" />
    <glyph glyph-name="uni02BB" unicode="&#x2bb;" horiz-adv-x="558" 
d="M289 772l-83 -209h-148l120 209h111z" />
    <glyph glyph-name="uni02BC" unicode="&#x2bc;" horiz-adv-x="600" 
d="M228 690q52 0 75.5 -28.5t23.5 -72.5q0 -49 -26 -96.5t-73 -83.5t-111 -50l-39 65q38 9 68 23.5t50.5 33.5t31.5 39l-2 2q-6 -3 -12.5 -4.5t-17.5 -1.5q-29 0 -50 22.5t-21 53.5q0 45 28.5 71.5t74.5 26.5z" />
    <glyph glyph-name="uni02BE" unicode="&#x2be;" horiz-adv-x="369" 
d="M223 712q43 0 73 -17.5t45.5 -46.5t15.5 -62q0 -69 -46 -109.5t-118 -40.5h-56l19 79h47q32 0 50 17t18 46q0 27 -18 41t-43 14h-28l18 79h23z" />
    <glyph glyph-name="uni02BF" unicode="&#x2bf;" horiz-adv-x="368" 
d="M295 436q-43 0 -73 17.5t-46 46.5t-16 62q0 68 46 109t119 41h56l-19 -79h-48q-31 0 -49 -17t-18 -47q0 -27 18 -40.5t43 -13.5h28l-18 -79h-23z" />
    <glyph glyph-name="circumflex" unicode="&#x2c6;" horiz-adv-x="540" 
d="M150 559l149 173h165l69 -173h-118l-48 88l-88 -88h-129z" />
    <glyph glyph-name="caron" unicode="&#x2c7;" horiz-adv-x="500" 
d="M240 565l-69 173h114l50 -90l90 90h129l-149 -173h-165z" />
    <glyph glyph-name="uni02C8" unicode="&#x2c8;" horiz-adv-x="247" 
d="M172 712h117l-61 -266h-117z" />
    <glyph glyph-name="uni02C9" unicode="&#x2c9;" horiz-adv-x="500" 
d="M527 674l-24 -105h-359l25 105h358z" />
    <glyph glyph-name="uni02CA" unicode="&#x2ca;" horiz-adv-x="557" 
d="M338 738h164l-148 -173h-126z" />
    <glyph glyph-name="uni02CB" unicode="&#x2cb;" horiz-adv-x="559" 
d="M423 738l30 -173h-117l-69 173h156z" />
    <glyph glyph-name="uni02CC" unicode="&#x2cc;" horiz-adv-x="247" 
d="M21 60h117l-61 -266h-117z" />
    <glyph glyph-name="breve" unicode="&#x2d8;" horiz-adv-x="500" 
d="M527 718q-12 -74 -64.5 -118.5t-131.5 -44.5q-69 0 -108 34.5t-39 89.5q0 9 1.5 19t3.5 20h107q-1 -5 -1.5 -10.5t-0.5 -10.5q0 -22 14 -34.5t39 -12.5q27 0 46 17.5t25 50.5h109z" />
    <glyph glyph-name="dotaccent" unicode="&#x2d9;" horiz-adv-x="500" 
d="M332 561q-38 0 -61 16t-23 49q0 50 27.5 73t72.5 23q41 0 63.5 -16.5t22.5 -48.5q0 -50 -27.5 -73t-74.5 -23z" />
    <glyph glyph-name="ring" unicode="&#x2da;" horiz-adv-x="500" 
d="M354 803q61 0 97 -32t36 -82q0 -60 -40.5 -99t-103.5 -39q-60 0 -97 31.5t-37 81.5q0 60 41 99.5t104 39.5zM351 729q-22 0 -38.5 -15.5t-16.5 -42.5q0 -20 14 -33t36 -13q23 0 39 15.5t16 42.5q0 21 -13.5 33.5t-36.5 12.5z" />
    <glyph glyph-name="ogonek" unicode="&#x2db;" horiz-adv-x="530" 
d="M208 -219q-35 0 -66 12t-50 36.5t-19 62.5q0 41 22 69.5t63.5 46.5t98.5 26l59 -26q-34 -12 -62.5 -24t-45.5 -27.5t-17 -39.5q0 -23 17 -32.5t37 -9.5q10 0 18 2l16 4l-6 -87q-16 -7 -32.5 -10t-32.5 -3z" />
    <glyph glyph-name="tilde" unicode="&#x2dc;" horiz-adv-x="500" 
d="M545 718q-12 -80 -52 -119.5t-90 -39.5q-27 0 -45 9t-31.5 20.5t-26 20.5t-26.5 9q-16 0 -27 -16t-18 -42h-94q12 80 50 119.5t90 39.5q23 0 41 -9t32.5 -20.5t28 -20.5t28.5 -9t26.5 15t18.5 43h95z" />
    <glyph glyph-name="hungarumlaut" unicode="&#x2dd;" horiz-adv-x="500" 
d="M316 565l116 173h151l-147 -173h-120zM103 565l116 173h151l-147 -173h-120z" />
    <glyph glyph-name="gravecomb" unicode="&#x300;" horiz-adv-x="0" 
d="M103 738l30 -173h-117l-69 173h156z" />
    <glyph glyph-name="acutecomb" unicode="&#x301;" horiz-adv-x="0" 
d="M100 738h164l-148 -173h-126z" />
    <glyph glyph-name="uni0302" unicode="&#x302;" horiz-adv-x="0" 
d="M-125 559l149 173h165l69 -173h-118l-48 88l-88 -88h-129z" />
    <glyph glyph-name="tildecomb" unicode="&#x303;" horiz-adv-x="0" 
d="M289 718q-12 -80 -52 -119.5t-90 -39.5q-27 0 -45 9t-31.5 20.5t-26 20.5t-26.5 9q-16 0 -27 -16t-18 -42h-94q12 80 50 119.5t90 39.5q23 0 41 -9t32.5 -20.5t28 -20.5t28.5 -9t26.5 15t18.5 43h95z" />
    <glyph glyph-name="uni0304" unicode="&#x304;" horiz-adv-x="0" 
d="M277 674l-24 -105h-359l25 105h358z" />
    <glyph glyph-name="uni0306" unicode="&#x306;" horiz-adv-x="0" 
d="M272 718q-12 -74 -64.5 -118.5t-131.5 -44.5q-69 0 -108 34.5t-39 89.5q0 9 1.5 19t3.5 20h107q-1 -5 -1.5 -10.5t-0.5 -10.5q0 -22 14 -34.5t39 -12.5q27 0 46 17.5t25 50.5h109z" />
    <glyph glyph-name="uni0307" unicode="&#x307;" horiz-adv-x="0" 
d="M76 561q-38 0 -61 16t-23 49q0 50 27.5 73t72.5 23q41 0 63.5 -16.5t22.5 -48.5q0 -50 -27.5 -73t-74.5 -23z" />
    <glyph glyph-name="uni0308" unicode="&#x308;" horiz-adv-x="0" 
d="M187 555q-36 0 -57.5 15.5t-21.5 47.5q0 47 26 69t69 22q36 0 57 -15.5t21 -47.5q0 -48 -26 -69.5t-68 -21.5zM-36 555q-35 0 -56.5 15.5t-21.5 47.5q0 47 26 69t69 22q35 0 56.5 -15.5t21.5 -47.5q0 -48 -26 -69.5t-69 -21.5z" />
    <glyph glyph-name="hookabovecomb" unicode="&#x309;" horiz-adv-x="0" 
d="M341 546l-20 55q37 7 51 23t14 30t-9 21.5t-22 7.5t-23.5 -6.5t-19.5 -16.5l-61 54q16 26 47.5 43.5t74.5 17.5q47 0 79 -26t32 -73q0 -39 -18.5 -66.5t-51 -43t-73.5 -20.5z" />
    <glyph glyph-name="uni030A" unicode="&#x30a;" horiz-adv-x="0" 
d="M92 803q61 0 97 -32t36 -82q0 -60 -40.5 -99t-103.5 -39q-60 0 -97 31.5t-37 81.5q0 60 41 99.5t104 39.5zM89 729q-22 0 -38.5 -15.5t-16.5 -42.5q0 -20 14 -33t36 -13q23 0 39 15.5t16 42.5q0 21 -13.5 33.5t-36.5 12.5z" />
    <glyph glyph-name="uni030B" unicode="&#x30b;" horiz-adv-x="0" 
d="M112 565l116 173h151l-147 -173h-120zM-101 565l116 173h151l-147 -173h-120z" />
    <glyph glyph-name="uni030C" unicode="&#x30c;" horiz-adv-x="0" 
d="M-24 565l-69 173h114l50 -90l90 90h129l-149 -173h-165z" />
    <glyph glyph-name="uni030F" unicode="&#x30f;" horiz-adv-x="0" 
d="M-1 738l43 -173h-114l-69 173h140zM197 738l42 -173h-114l-68 173h140z" />
    <glyph glyph-name="uni0311" unicode="&#x311;" horiz-adv-x="0" 
d="M-103 555q12 74 59.5 118.5t130.5 44.5q73 0 112.5 -35t39.5 -91q0 -9 -1 -18t-3 -19h-108q2 5 2.5 10.5t0.5 9.5q0 24 -15.5 36t-37.5 12q-31 0 -49 -18t-22 -50h-109z" />
    <glyph glyph-name="uni0312" unicode="&#x312;" horiz-adv-x="0" 
d="M491 772l-83 -209h-148l120 209h111z" />
    <glyph glyph-name="uni031B" unicode="&#x31b;" horiz-adv-x="0" 
d="M350 420l-27 80q27 0 48 24t33 86h115q-10 -72 -35.5 -113.5t-60 -58.5t-73.5 -18z" />
    <glyph glyph-name="dotbelowcomb" unicode="&#x323;" horiz-adv-x="0" 
d="M-97 -222q-38 0 -61 16t-23 49q0 50 27.5 73t73.5 23q40 0 62.5 -16.5t22.5 -48.5q0 -51 -27.5 -73.5t-74.5 -22.5z" />
    <glyph glyph-name="uni0324" unicode="&#x324;" horiz-adv-x="0" 
d="M11 -211q-36 0 -57.5 15.5t-21.5 47.5q0 47 26 69t69 22q36 0 57 -15.5t21 -47.5q0 -48 -26 -69.5t-68 -21.5zM-212 -211q-35 0 -56.5 15.5t-21.5 47.5q0 47 26 69t69 22q35 0 56.5 -15.5t21.5 -47.5q0 -48 -26 -69.5t-69 -21.5z" />
    <glyph glyph-name="uni0326" unicode="&#x326;" horiz-adv-x="0" 
d="M19 -60l-113 -181h-115l73 181h155z" />
    <glyph glyph-name="uni0327" unicode="&#x327;" horiz-adv-x="0" 
d="M-116 6l46 23q56 -11 86 -40t30 -74q0 -41 -19 -70.5t-50.5 -45.5t-72.5 -16q-38 0 -66.5 11.5t-47.5 30.5l44 73q12 -12 30 -17.5t33 -5.5q25 0 41.5 17t16.5 40q0 24 -17.5 42t-53.5 32z" />
    <glyph glyph-name="uni0328" unicode="&#x328;" horiz-adv-x="0" 
d="M-166 -219q-35 0 -66 12t-50 36.5t-19 62.5q0 41 22 69.5t63.5 46.5t98.5 26l59 -26q-34 -12 -62.5 -24t-45.5 -27.5t-17 -39.5q0 -23 17 -32.5t37 -9.5q10 0 18 2l16 4l-6 -87q-16 -7 -32.5 -10t-32.5 -3z" />
    <glyph glyph-name="uni032E" unicode="&#x32e;" horiz-adv-x="0" 
d="M99 -55q-12 -74 -64.5 -118.5t-131.5 -44.5q-69 0 -108 34.5t-39 89.5q0 9 1.5 19t3.5 20h107q-1 -5 -1.5 -10.5t-0.5 -10.5q0 -22 14 -34.5t39 -12.5q27 0 46 17.5t25 50.5h109z" />
    <glyph glyph-name="uni0331" unicode="&#x331;" horiz-adv-x="0" 
d="M106 -69l-24 -105h-359l25 105h358z" />
    <glyph glyph-name="uni0335" unicode="&#x335;" horiz-adv-x="0" 
d="M265 379l-23 -97h-469l22 97h470z" />
    <glyph glyph-name="uni0338" unicode="&#x338;" horiz-adv-x="0" 
d="M-8 -23l540 546h75l-541 -546h-74z" />
    <glyph glyph-name="uni03A9" unicode="&#x3a9;" horiz-adv-x="758" 
d="M11 0l29 128h211l-23 -21q-50 19 -83 54.5t-49 81t-16 93.5q0 72 25 133t71 106t110.5 69.5t143.5 24.5q81 0 148.5 -30t108 -88t40.5 -143q0 -75 -31 -137.5t-86 -103.5t-130 -53l-10 14h218l-30 -128h-284l29 129q35 4 62.5 30t46.5 65t29 84t10 86q0 44 -16 76.5
t-45 49.5t-69 17q-48 0 -82 -22t-56.5 -59.5t-33 -84t-10.5 -96.5q0 -33 9.5 -63.5t28.5 -52t48 -28.5l-30 -131h-284z" />
    <glyph glyph-name="uni03BC" unicode="&#x3bc;" horiz-adv-x="614" 
d="M-47 -210l163 710h170l-67 -294q-10 -40 6 -62.5t54 -22.5q27 0 46.5 12.5t33.5 37t22 59.5l62 270h170l-116 -500h-151l16 96q-27 -50 -70.5 -77.5t-99.5 -27.5q-26 0 -54 8t-52 26l105 53l-68 -288h-170z" />
    <glyph glyph-name="pi" unicode="&#x3c0;" horiz-adv-x="783" 
d="M86 0l88 382h-123l27 118h732l-28 -118h-125l-47 -202q-5 -22 -1.5 -38.5t22.5 -24.5t59 -5l-43 -115q-91 -10 -142.5 6.5t-67 57.5t-1.5 103l50 218h-142l-88 -382h-170z" />
    <glyph glyph-name="uni1E08" unicode="&#x1e08;" horiz-adv-x="688" 
d="M356 -10q-85 0 -152 34t-106 98t-39 153q0 84 24 155.5t70 125.5t112.5 84t152.5 30q74 0 132 -25t95 -72.5t49 -117.5l-165 -37q-6 60 -34 88.5t-82 28.5q-46 0 -80 -24.5t-57 -63.5t-33.5 -85t-10.5 -90q0 -46 16 -78.5t46.5 -50.5t72.5 -18q51 0 80 26.5t49 69.5
l154 -60q-43 -79 -114 -125t-180 -46zM261 6l46 23q56 -11 86 -40t30 -74q0 -41 -19 -70.5t-50.5 -45.5t-72.5 -16q-38 0 -66.5 11.5t-47.5 30.5l44 73q12 -12 30 -17.5t33 -5.5q25 0 41.5 17t16.5 40q0 24 -17.5 42t-53.5 32zM475 886h157l-126 -163h-127z" />
    <glyph glyph-name="uni1E09" unicode="&#x1e09;" horiz-adv-x="563" 
d="M286 -10q-79 0 -135.5 29.5t-86.5 81t-30 117.5q0 81 33.5 147t98 105.5t155.5 39.5q69 0 120.5 -23t81 -64t31.5 -96l-163 -26q3 39 -13.5 63t-57.5 24q-28 0 -50 -16.5t-37.5 -43.5t-24 -59.5t-8.5 -65.5q0 -28 10.5 -49t30 -32.5t46.5 -11.5t50.5 18.5t32.5 49.5
l152 -49q-28 -65 -89.5 -102t-146.5 -37zM197 8l46 23q56 -11 86 -40t30 -74q0 -41 -19 -70.5t-50.5 -45.5t-72.5 -16q-38 0 -66.5 11.5t-47.5 30.5l44 73q12 -12 30 -17.5t33 -5.5q25 0 41.5 17t16.5 40q0 24 -17.5 42t-53.5 32zM385 738h164l-148 -173h-126z" />
    <glyph glyph-name="uni1E0C" unicode="&#x1e0c;" horiz-adv-x="708" 
d="M14 0l153 660h233q94 0 157.5 -34t96.5 -95t33 -141q0 -87 -25 -158.5t-73 -123t-116.5 -80t-154.5 -28.5h-304zM216 130h96q50 0 88 22t63 59.5t37.5 83.5t12.5 94q0 43 -14.5 74.5t-43.5 49t-74 17.5h-72zM241 -222q-38 0 -61 16t-23 49q0 50 27.5 73t73.5 23
q40 0 62.5 -16.5t22.5 -48.5q0 -51 -27.5 -73.5t-74.5 -22.5z" />
    <glyph glyph-name="uni1E0D" unicode="&#x1e0d;" horiz-adv-x="618" 
d="M205 -9q-50 0 -89.5 23.5t-62 68t-22.5 109.5q0 60 17 117t49.5 102.5t78 72t102.5 26.5q33 0 63.5 -12t52 -37t29.5 -66l73 317h170l-165 -712h-154l17 94q-24 -48 -66 -75.5t-93 -27.5zM279 115q25 0 46 16t36.5 42.5t24 58t8.5 62.5q0 28 -9.5 48.5t-26.5 31.5t-41 11
q-28 0 -50 -16.5t-37 -42.5t-23 -56.5t-8 -58.5q0 -30 9 -51.5t26.5 -33t44.5 -11.5zM216 -222q-38 0 -61 16t-23 49q0 50 27.5 73t73.5 23q40 0 62.5 -16.5t22.5 -48.5q0 -51 -27.5 -73.5t-74.5 -22.5z" />
    <glyph glyph-name="uni1E0E" unicode="&#x1e0e;" horiz-adv-x="708" 
d="M14 0l153 660h233q94 0 157.5 -34t96.5 -95t33 -141q0 -87 -25 -158.5t-73 -123t-116.5 -80t-154.5 -28.5h-304zM216 130h96q50 0 88 22t63 59.5t37.5 83.5t12.5 94q0 43 -14.5 74.5t-43.5 49t-74 17.5h-72zM444 -69l-24 -105h-359l25 105h358z" />
    <glyph glyph-name="uni1E0F" unicode="&#x1e0f;" horiz-adv-x="618" 
d="M205 -9q-50 0 -89.5 23.5t-62 68t-22.5 109.5q0 60 17 117t49.5 102.5t78 72t102.5 26.5q33 0 63.5 -12t52 -37t29.5 -66l73 317h170l-165 -712h-154l17 94q-24 -48 -66 -75.5t-93 -27.5zM279 115q25 0 46 16t36.5 42.5t24 58t8.5 62.5q0 28 -9.5 48.5t-26.5 31.5t-41 11
q-28 0 -50 -16.5t-37 -42.5t-23 -56.5t-8 -58.5q0 -30 9 -51.5t26.5 -33t44.5 -11.5zM419 -69l-24 -105h-359l25 105h358z" />
    <glyph glyph-name="uni1E14" unicode="&#x1e14;" 
d="M14 0l153 660h514l-32 -133h-341l-31 -134h269l-29 -125h-269l-31 -135h352l-31 -133h-524zM638 834l-24 -105h-359l25 105h358zM503 1058l31 -163h-111l-68 163h148z" />
    <glyph glyph-name="uni1E15" unicode="&#x1e15;" horiz-adv-x="582" 
d="M282 -9q-74 0 -130 28.5t-87 79.5t-31 119q0 84 34.5 149.5t98 103.5t151.5 38q73 0 124.5 -27.5t78.5 -77.5t27 -118q0 -19 -2 -40t-8 -41h-394v92h283l-47 -26q4 14 5 24t1 19q0 26 -9 43t-25 25.5t-38 8.5q-36 0 -59.5 -17t-37.5 -44.5t-19.5 -59.5t-5.5 -62
q0 -32 12.5 -54t34 -33.5t50.5 -11.5q36 0 58 16.5t34 41.5l140 -55q-17 -38 -52.5 -65t-83 -41.5t-103.5 -14.5zM550 674l-24 -105h-359l25 105h358zM414 898l31 -163h-111l-68 163h148z" />
    <glyph glyph-name="uni1E16" unicode="&#x1e16;" 
d="M14 0l153 660h514l-32 -133h-341l-31 -134h269l-29 -125h-269l-31 -135h352l-31 -133h-524zM638 834l-24 -105h-359l25 105h358zM499 1058h157l-126 -163h-127z" />
    <glyph glyph-name="uni1E17" unicode="&#x1e17;" horiz-adv-x="582" 
d="M282 -9q-74 0 -130 28.5t-87 79.5t-31 119q0 84 34.5 149.5t98 103.5t151.5 38q73 0 124.5 -27.5t78.5 -77.5t27 -118q0 -19 -2 -40t-8 -41h-394v92h283l-47 -26q4 14 5 24t1 19q0 26 -9 43t-25 25.5t-38 8.5q-36 0 -59.5 -17t-37.5 -44.5t-19.5 -59.5t-5.5 -62
q0 -32 12.5 -54t34 -33.5t50.5 -11.5q36 0 58 16.5t34 41.5l140 -55q-17 -38 -52.5 -65t-83 -41.5t-103.5 -14.5zM550 674l-24 -105h-359l25 105h358zM410 898h157l-126 -163h-127z" />
    <glyph glyph-name="uni1E1C" unicode="&#x1e1c;" 
d="M14 0l153 660h514l-32 -133h-341l-31 -134h269l-29 -125h-269l-31 -135h352l-31 -133h-524zM233 6l46 23q56 -11 86 -40t30 -74q0 -41 -19 -70.5t-50.5 -45.5t-72.5 -16q-38 0 -66.5 11.5t-47.5 30.5l44 73q12 -12 30 -17.5t33 -5.5q25 0 41.5 17t16.5 40q0 24 -17.5 42
t-53.5 32zM628 878q-12 -74 -64.5 -118.5t-131.5 -44.5q-69 0 -108 34.5t-39 89.5q0 9 1.5 19t3.5 20h107q-1 -5 -1.5 -10.5t-0.5 -10.5q0 -22 14 -34.5t39 -12.5q27 0 46 17.5t25 50.5h109z" />
    <glyph glyph-name="uni1E1D" unicode="&#x1e1d;" horiz-adv-x="582" 
d="M282 -9q-74 0 -130 28.5t-87 79.5t-31 119q0 84 34.5 149.5t98 103.5t151.5 38q73 0 124.5 -27.5t78.5 -77.5t27 -118q0 -19 -2 -40t-8 -41h-394v92h283l-47 -26q4 14 5 24t1 19q0 26 -9 43t-25 25.5t-38 8.5q-36 0 -59.5 -17t-37.5 -44.5t-19.5 -59.5t-5.5 -62
q0 -32 12.5 -54t34 -33.5t50.5 -11.5q36 0 58 16.5t34 41.5l140 -55q-17 -38 -52.5 -65t-83 -41.5t-103.5 -14.5zM215 6l46 23q56 -11 86 -40t30 -74q0 -41 -19 -70.5t-50.5 -45.5t-72.5 -16q-38 0 -66.5 11.5t-47.5 30.5l44 73q12 -12 30 -17.5t33 -5.5q25 0 41.5 17
t16.5 40q0 24 -17.5 42t-53.5 32zM542 718q-12 -74 -64.5 -118.5t-131.5 -44.5q-69 0 -108 34.5t-39 89.5q0 9 1.5 19t3.5 20h107q-1 -5 -1.5 -10.5t-0.5 -10.5q0 -22 14 -34.5t39 -12.5q27 0 46 17.5t25 50.5h109z" />
    <glyph glyph-name="uni1E20" unicode="&#x1e20;" horiz-adv-x="715" 
d="M322 -9q-74 0 -133.5 34.5t-94.5 98.5t-35 153q0 80 24 150.5t70 125.5t113.5 86t155.5 31q73 0 131.5 -23.5t97 -69.5t48.5 -113l-162 -31q-7 50 -37 76t-82 26q-42 0 -76.5 -19t-59 -53t-37.5 -78.5t-13 -94.5q0 -52 16 -90t48 -58.5t80 -20.5q38 0 66 12t46 33.5
t27 49.5l8 22h-158l26 114h294l-88 -352h-114l33 155l15 -16q-18 -48 -46 -81t-68 -50t-95 -17zM659 834l-24 -105h-359l25 105h358z" />
    <glyph glyph-name="uni1E21" unicode="&#x1e21;" horiz-adv-x="613" 
d="M210 -215q-45 0 -86.5 11t-73.5 34t-51 57.5t-20 80.5l171 18q2 -42 18.5 -66.5t61.5 -24.5q25 0 45.5 11t36 36t24.5 68l37 160h9q-16 -76 -61 -116.5t-112 -40.5q-50 0 -90 23.5t-63 68t-23 105.5q0 60 17.5 113.5t49.5 96t77 66.5t101 24q39 0 72.5 -17t55 -52.5
t20.5 -90.5l-20 -25l40 175h170l-110 -476q-21 -89 -60.5 -141t-98.5 -75t-137 -23zM284 136q33 0 57.5 23t38 59.5t13.5 77.5q0 27 -9.5 47t-27 31t-41.5 11q-36 0 -61.5 -23.5t-39 -59t-13.5 -72.5q0 -42 21 -68t62 -26zM545 674l-24 -105h-359l25 105h358z" />
    <glyph glyph-name="uni1E24" unicode="&#x1e24;" horiz-adv-x="736" 
d="M759 660l-153 -660h-172l153 660h172zM339 660l-153 -660h-172l153 660h172zM619 399l-31 -133h-428l31 133h428zM274 -222q-38 0 -61 16t-23 49q0 50 27.5 73t73.5 23q40 0 62.5 -16.5t22.5 -48.5q0 -51 -27.5 -73.5t-74.5 -22.5z" />
    <glyph glyph-name="uni1E25" unicode="&#x1e25;" horiz-adv-x="611" 
d="M0 0l165 712h170l-75 -326l-17 -24q13 42 39 75t65 53t89 20t85.5 -23t50 -65t1.5 -100l-75 -322h-170l69 295q9 40 -7 62.5t-52 22.5q-27 0 -47.5 -12.5t-35 -37t-22.5 -60.5l-63 -270h-170zM212 -222q-38 0 -61 16t-23 49q0 50 27.5 73t73.5 23q40 0 62.5 -16.5
t22.5 -48.5q0 -51 -27.5 -73.5t-74.5 -22.5z" />
    <glyph glyph-name="uni1E2A" unicode="&#x1e2a;" horiz-adv-x="736" 
d="M759 660l-153 -660h-172l153 660h172zM339 660l-153 -660h-172l153 660h172zM619 399l-31 -133h-428l31 133h428zM470 -55q-12 -74 -64.5 -118.5t-131.5 -44.5q-69 0 -108 34.5t-39 89.5q0 9 1.5 19t3.5 20h107q-1 -5 -1.5 -10.5t-0.5 -10.5q0 -22 14 -34.5t39 -12.5
q27 0 46 17.5t25 50.5h109z" />
    <glyph glyph-name="uni1E2B" unicode="&#x1e2b;" horiz-adv-x="611" 
d="M0 0l165 712h170l-75 -326l-17 -24q13 42 39 75t65 53t89 20t85.5 -23t50 -65t1.5 -100l-75 -322h-170l69 295q9 40 -7 62.5t-52 22.5q-27 0 -47.5 -12.5t-35 -37t-22.5 -60.5l-63 -270h-170zM407 -55q-12 -74 -64.5 -118.5t-131.5 -44.5q-69 0 -108 34.5t-39 89.5
q0 9 1.5 19t3.5 20h107q-1 -5 -1.5 -10.5t-0.5 -10.5q0 -22 14 -34.5t39 -12.5q27 0 46 17.5t25 50.5h109z" />
    <glyph glyph-name="uni1E2E" unicode="&#x1e2e;" horiz-adv-x="316" 
d="M339 660l-153 -660h-172l153 660h172zM382 715q-36 0 -57.5 15.5t-21.5 47.5q0 47 26 69t69 22q36 0 57 -15.5t21 -47.5q0 -48 -26 -69.5t-68 -21.5zM159 715q-35 0 -56.5 15.5t-21.5 47.5q0 47 26 69t69 22q35 0 56.5 -15.5t21.5 -47.5q0 -48 -26 -69.5t-69 -21.5z
M333 1076h157l-126 -163h-127z" />
    <glyph glyph-name="uni1E2F" unicode="&#x1e2f;" horiz-adv-x="288" 
d="M287 500l-116 -500h-170l116 500h170zM331 555q-36 0 -57.5 15.5t-21.5 47.5q0 47 26 69t69 22q36 0 57 -15.5t21 -47.5q0 -48 -26 -69.5t-68 -21.5zM108 555q-35 0 -56.5 15.5t-21.5 47.5q0 47 26 69t69 22q35 0 56.5 -15.5t21.5 -47.5q0 -48 -26 -69.5t-69 -21.5z
M282 916h157l-126 -163h-127z" />
    <glyph glyph-name="uni1E36" unicode="&#x1e36;" horiz-adv-x="603" 
d="M217 133h333l-31 -133h-505l153 660h172zM241 -222q-38 0 -61 16t-23 49q0 50 27.5 73t73.5 23q40 0 62.5 -16.5t22.5 -48.5q0 -51 -27.5 -73.5t-74.5 -22.5z" />
    <glyph glyph-name="uni1E37" unicode="&#x1e37;" horiz-adv-x="328" 
d="M182 -9q-90 0 -126.5 49.5t-16.5 132.5l125 539h170l-124 -537q-9 -33 3 -49.5t44 -16.5q12 0 21 1t15 3l-30 -110q-16 -7 -35 -9.5t-46 -2.5zM98 -222q-38 0 -61 16t-23 49q0 50 27.5 73t73.5 23q40 0 62.5 -16.5t22.5 -48.5q0 -51 -27.5 -73.5t-74.5 -22.5z" />
    <glyph glyph-name="uni1E3A" unicode="&#x1e3a;" horiz-adv-x="603" 
d="M217 133h333l-31 -133h-505l153 660h172zM444 -69l-24 -105h-359l25 105h358z" />
    <glyph glyph-name="uni1E3B" unicode="&#x1e3b;" horiz-adv-x="328" 
d="M-40 -174l24 105h270l-24 -105h-270zM182 -9q-90 0 -126.5 49.5t-16.5 132.5l125 539h170l-124 -537q-9 -33 3 -49.5t44 -16.5q12 0 21 1t15 3l-30 -110q-16 -7 -35 -9.5t-46 -2.5z" />
    <glyph glyph-name="uni1E42" unicode="&#x1e42;" horiz-adv-x="904" 
d="M14 0l153 660h217l32 -320l9 -163h1l80 163l175 320h246l-153 -660h-152l70 303l47 195h-2l-277 -498h-132l-54 494h-2l-36 -191l-70 -303h-152zM359 -222q-38 0 -61 16t-23 49q0 50 27.5 73t73.5 23q40 0 62.5 -16.5t22.5 -48.5q0 -51 -27.5 -73.5t-74.5 -22.5z" />
    <glyph glyph-name="uni1E43" unicode="&#x1e43;" horiz-adv-x="933" 
d="M0 0l116 500h151l-25 -159l-9 14q21 75 73.5 115t122.5 40q53 0 88.5 -23.5t50 -67t-0.5 -104.5l-73 -315h-170l69 294q9 40 -6.5 63t-49.5 23q-26 0 -47 -12.5t-35 -37t-22 -60.5l-63 -270h-170zM648 0l69 294q9 40 -6.5 63t-49.5 23q-26 0 -47 -12.5t-35 -37t-22 -60.5
l-10 75q24 80 78 122.5t125 42.5q54 0 90.5 -23.5t51 -67t-0.5 -104.5l-73 -315h-170zM370 -222q-38 0 -61 16t-23 49q0 50 27.5 73t73.5 23q40 0 62.5 -16.5t22.5 -48.5q0 -51 -27.5 -73.5t-74.5 -22.5z" />
    <glyph glyph-name="uni1E44" unicode="&#x1e44;" horiz-adv-x="735" 
d="M14 0l153 660h184l119 -363l31 -108h1l27 138l78 333h151l-153 -660h-181l-123 357l-31 108h-2l-25 -132l-77 -333h-152zM478 721q-38 0 -61 16t-23 49q0 50 27.5 73t72.5 23q41 0 63.5 -16.5t22.5 -48.5q0 -50 -27.5 -73t-74.5 -23z" />
    <glyph glyph-name="uni1E45" unicode="&#x1e45;" horiz-adv-x="611" 
d="M0 0l116 500h151l-25 -159l-9 14q21 75 74 115t123 40q54 0 90.5 -23.5t51 -66.5t0.5 -104l-74 -316h-170l69 295q9 40 -7 62.5t-52 22.5q-27 0 -47.5 -12.5t-35 -37t-22.5 -60.5l-63 -270h-170zM382 561q-38 0 -61 16t-23 49q0 50 27.5 73t72.5 23q41 0 63.5 -16.5
t22.5 -48.5q0 -50 -27.5 -73t-74.5 -23z" />
    <glyph glyph-name="uni1E46" unicode="&#x1e46;" horiz-adv-x="735" 
d="M14 0l153 660h184l119 -363l31 -108h1l27 138l78 333h151l-153 -660h-181l-123 357l-31 108h-2l-25 -132l-77 -333h-152zM288 -222q-38 0 -61 16t-23 49q0 50 27.5 73t73.5 23q40 0 62.5 -16.5t22.5 -48.5q0 -51 -27.5 -73.5t-74.5 -22.5z" />
    <glyph glyph-name="uni1E47" unicode="&#x1e47;" horiz-adv-x="611" 
d="M0 0l116 500h151l-25 -159l-9 14q21 75 74 115t123 40q54 0 90.5 -23.5t51 -66.5t0.5 -104l-74 -316h-170l69 295q9 40 -7 62.5t-52 22.5q-27 0 -47.5 -12.5t-35 -37t-22.5 -60.5l-63 -270h-170zM217 -222q-38 0 -61 16t-23 49q0 50 27.5 73t73.5 23q40 0 62.5 -16.5
t22.5 -48.5q0 -51 -27.5 -73.5t-74.5 -22.5z" />
    <glyph glyph-name="uni1E48" unicode="&#x1e48;" horiz-adv-x="735" 
d="M14 0l153 660h184l119 -363l31 -108h1l27 138l78 333h151l-153 -660h-181l-123 357l-31 108h-2l-25 -132l-77 -333h-152zM491 -69l-24 -105h-359l25 105h358z" />
    <glyph glyph-name="uni1E49" unicode="&#x1e49;" horiz-adv-x="611" 
d="M0 0l116 500h151l-25 -159l-9 14q21 75 74 115t123 40q54 0 90.5 -23.5t51 -66.5t0.5 -104l-74 -316h-170l69 295q9 40 -7 62.5t-52 22.5q-27 0 -47.5 -12.5t-35 -37t-22.5 -60.5l-63 -270h-170zM420 -69l-24 -105h-359l25 105h358z" />
    <glyph glyph-name="uni1E4C" unicode="&#x1e4c;" horiz-adv-x="732" 
d="M354 -10q-82 0 -149 34t-106 99.5t-39 157.5q0 82 23.5 153t69 124t112 82.5t151.5 29.5q83 0 149 -34.5t105 -99t39 -157.5q0 -82 -23.5 -152.5t-69 -124t-111.5 -83t-151 -29.5zM360 125q45 0 77.5 24t54.5 63.5t33 86.5t11 92q0 46 -15 78t-43 49t-69 17
q-44 0 -77 -24t-55 -63.5t-33 -86t-11 -92.5t15 -78t43.5 -49t68.5 -17zM668 878q-12 -80 -52 -119.5t-90 -39.5q-27 0 -45 9t-31.5 20.5t-26 20.5t-26.5 9q-16 0 -27 -16t-18 -42h-94q12 80 50 119.5t90 39.5q23 0 41 -9t32.5 -20.5t28 -20.5t28.5 -9t26.5 15t18.5 43h95z
M518 1092h157l-126 -163h-127z" />
    <glyph glyph-name="uni1E4D" unicode="&#x1e4d;" horiz-adv-x="600" 
d="M281 -10q-76 0 -131.5 30t-85.5 81.5t-30 115.5q0 81 33.5 147.5t97 106t154.5 39.5q77 0 132 -30t85 -81t30 -116q0 -80 -33.5 -147t-97 -106.5t-154.5 -39.5zM283 110q26 0 47.5 16.5t37 44.5t23.5 60.5t8 65.5q0 29 -9.5 49.5t-28 32t-45.5 11.5q-25 0 -46.5 -16.5
t-37 -44t-24 -60.5t-8.5 -66q0 -28 9.5 -49t28.5 -32.5t45 -11.5zM573 718q-12 -80 -52 -119.5t-90 -39.5q-27 0 -45 9t-31.5 20.5t-26 20.5t-26.5 9q-16 0 -27 -16t-18 -42h-94q12 80 50 119.5t90 39.5q23 0 41 -9t32.5 -20.5t28 -20.5t28.5 -9t26.5 15t18.5 43h95z
M423 932h157l-126 -163h-127z" />
    <glyph glyph-name="uni1E4E" unicode="&#x1e4e;" horiz-adv-x="732" 
d="M354 -10q-82 0 -149 34t-106 99.5t-39 157.5q0 82 23.5 153t69 124t112 82.5t151.5 29.5q83 0 149 -34.5t105 -99t39 -157.5q0 -82 -23.5 -152.5t-69 -124t-111.5 -83t-151 -29.5zM360 125q45 0 77.5 24t54.5 63.5t33 86.5t11 92q0 46 -15 78t-43 49t-69 17
q-44 0 -77 -24t-55 -63.5t-33 -86t-11 -92.5t15 -78t43.5 -49t68.5 -17zM668 878q-12 -80 -52 -119.5t-90 -39.5q-27 0 -45 9t-31.5 20.5t-26 20.5t-26.5 9q-16 0 -27 -16t-18 -42h-94q12 80 50 119.5t90 39.5q23 0 41 -9t32.5 -20.5t28 -20.5t28.5 -9t26.5 15t18.5 43h95z
M608 921q-36 0 -57.5 15.5t-21.5 47.5q0 47 26 69t69 22q36 0 57 -15.5t21 -47.5q0 -48 -26 -69.5t-68 -21.5zM385 921q-35 0 -56.5 15.5t-21.5 47.5q0 47 26 69t69 22q35 0 56.5 -15.5t21.5 -47.5q0 -48 -26 -69.5t-69 -21.5z" />
    <glyph glyph-name="uni1E4F" unicode="&#x1e4f;" horiz-adv-x="600" 
d="M281 -10q-76 0 -131.5 30t-85.5 81.5t-30 115.5q0 81 33.5 147.5t97 106t154.5 39.5q77 0 132 -30t85 -81t30 -116q0 -80 -33.5 -147t-97 -106.5t-154.5 -39.5zM283 110q26 0 47.5 16.5t37 44.5t23.5 60.5t8 65.5q0 29 -9.5 49.5t-28 32t-45.5 11.5q-25 0 -46.5 -16.5
t-37 -44t-24 -60.5t-8.5 -66q0 -28 9.5 -49t28.5 -32.5t45 -11.5zM573 718q-12 -80 -52 -119.5t-90 -39.5q-27 0 -45 9t-31.5 20.5t-26 20.5t-26.5 9q-16 0 -27 -16t-18 -42h-94q12 80 50 119.5t90 39.5q23 0 41 -9t32.5 -20.5t28 -20.5t28.5 -9t26.5 15t18.5 43h95z
M513 761q-36 0 -57.5 15.5t-21.5 47.5q0 47 26 69t69 22q36 0 57 -15.5t21 -47.5q0 -48 -26 -69.5t-68 -21.5zM290 761q-35 0 -56.5 15.5t-21.5 47.5q0 47 26 69t69 22q35 0 56.5 -15.5t21.5 -47.5q0 -48 -26 -69.5t-69 -21.5z" />
    <glyph glyph-name="uni1E50" unicode="&#x1e50;" horiz-adv-x="732" 
d="M354 -10q-82 0 -149 34t-106 99.5t-39 157.5q0 82 23.5 153t69 124t112 82.5t151.5 29.5q83 0 149 -34.5t105 -99t39 -157.5q0 -82 -23.5 -152.5t-69 -124t-111.5 -83t-151 -29.5zM360 125q45 0 77.5 24t54.5 63.5t33 86.5t11 92q0 46 -15 78t-43 49t-69 17
q-44 0 -77 -24t-55 -63.5t-33 -86t-11 -92.5t15 -78t43.5 -49t68.5 -17zM656 834l-24 -105h-359l25 105h358zM520 1058l31 -163h-111l-68 163h148z" />
    <glyph glyph-name="uni1E51" unicode="&#x1e51;" horiz-adv-x="600" 
d="M281 -10q-76 0 -131.5 30t-85.5 81.5t-30 115.5q0 81 33.5 147.5t97 106t154.5 39.5q77 0 132 -30t85 -81t30 -116q0 -80 -33.5 -147t-97 -106.5t-154.5 -39.5zM283 110q26 0 47.5 16.5t37 44.5t23.5 60.5t8 65.5q0 29 -9.5 49.5t-28 32t-45.5 11.5q-25 0 -46.5 -16.5
t-37 -44t-24 -60.5t-8.5 -66q0 -28 9.5 -49t28.5 -32.5t45 -11.5zM561 674l-24 -105h-359l25 105h358zM426 898l31 -163h-111l-68 163h148z" />
    <glyph glyph-name="uni1E52" unicode="&#x1e52;" horiz-adv-x="732" 
d="M354 -10q-82 0 -149 34t-106 99.5t-39 157.5q0 82 23.5 153t69 124t112 82.5t151.5 29.5q83 0 149 -34.5t105 -99t39 -157.5q0 -82 -23.5 -152.5t-69 -124t-111.5 -83t-151 -29.5zM360 125q45 0 77.5 24t54.5 63.5t33 86.5t11 92q0 46 -15 78t-43 49t-69 17
q-44 0 -77 -24t-55 -63.5t-33 -86t-11 -92.5t15 -78t43.5 -49t68.5 -17zM656 834l-24 -105h-359l25 105h358zM516 1058h157l-126 -163h-127z" />
    <glyph glyph-name="uni1E53" unicode="&#x1e53;" horiz-adv-x="600" 
d="M281 -10q-76 0 -131.5 30t-85.5 81.5t-30 115.5q0 81 33.5 147.5t97 106t154.5 39.5q77 0 132 -30t85 -81t30 -116q0 -80 -33.5 -147t-97 -106.5t-154.5 -39.5zM283 110q26 0 47.5 16.5t37 44.5t23.5 60.5t8 65.5q0 29 -9.5 49.5t-28 32t-45.5 11.5q-25 0 -46.5 -16.5
t-37 -44t-24 -60.5t-8.5 -66q0 -28 9.5 -49t28.5 -32.5t45 -11.5zM561 674l-24 -105h-359l25 105h358zM422 898h157l-126 -163h-127z" />
    <glyph glyph-name="uni1E5A" unicode="&#x1e5a;" horiz-adv-x="677" 
d="M14 0l153 660h283q102 0 161.5 -49.5t59.5 -138.5q0 -72 -33.5 -122t-90.5 -77.5t-129 -30.5l-38 -9h-158l28 122h131q39 0 65.5 13t40.5 36.5t14 51.5q0 39 -26 56.5t-67 17.5h-102l-123 -530h-169zM441 0l-108 286l156 24l126 -310h-174zM275 -222q-38 0 -61 16t-23 49
q0 50 27.5 73t73.5 23q40 0 62.5 -16.5t22.5 -48.5q0 -51 -27.5 -73.5t-74.5 -22.5z" />
    <glyph glyph-name="uni1E5B" unicode="&#x1e5b;" horiz-adv-x="423" 
d="M0 0l116 500h151l-31 -182l-7 17q16 53 42 92t64 61t86 22q17 0 28.5 -2.5t19.5 -6.5l-41 -143q-10 5 -23.5 7.5t-34.5 2.5q-31 0 -60.5 -13.5t-51.5 -43.5t-34 -80l-54 -231h-170zM49 -222q-38 0 -61 16t-23 49q0 50 27.5 73t73.5 23q40 0 62.5 -16.5t22.5 -48.5
q0 -51 -27.5 -73.5t-74.5 -22.5z" />
    <glyph glyph-name="uni1E5E" unicode="&#x1e5e;" horiz-adv-x="677" 
d="M14 0l153 660h283q102 0 161.5 -49.5t59.5 -138.5q0 -72 -33.5 -122t-90.5 -77.5t-129 -30.5l-38 -9h-158l28 122h131q39 0 65.5 13t40.5 36.5t14 51.5q0 39 -26 56.5t-67 17.5h-102l-123 -530h-169zM441 0l-108 286l156 24l126 -310h-174zM478 -69l-24 -105h-359l25 105
h358z" />
    <glyph glyph-name="uni1E5F" unicode="&#x1e5f;" horiz-adv-x="423" 
d="M-83 -174l25 105h275l-25 -105h-275zM0 0l116 500h151l-31 -182l-7 17q16 53 42 92t64 61t86 22q17 0 28.5 -2.5t19.5 -6.5l-41 -143q-10 5 -23.5 7.5t-34.5 2.5q-31 0 -60.5 -13.5t-51.5 -43.5t-34 -80l-54 -231h-170z" />
    <glyph glyph-name="uni1E60" unicode="&#x1e60;" horiz-adv-x="640" 
d="M332 -11q-70 0 -132 18.5t-111.5 54.5t-84.5 91l101 99q24 -42 60.5 -71.5t79.5 -44t86 -14.5q31 0 50.5 9t29.5 24t10 32q0 22 -16 34.5t-48 22.5l-99 32q-45 15 -81.5 39.5t-57.5 60.5t-21 83q0 67 34.5 114t95 72t138.5 25q103 0 174 -36.5t117 -102.5l-105 -96
q-21 35 -50.5 57.5t-64.5 33.5t-71 11q-30 0 -50 -8t-29.5 -21.5t-9.5 -31.5q0 -20 19.5 -36.5t51.5 -26.5l99 -32q75 -24 114 -65.5t39 -108.5q0 -68 -35.5 -117t-96.5 -75t-136 -26zM416 721q-38 0 -61 16t-23 49q0 50 27.5 73t72.5 23q41 0 63.5 -16.5t22.5 -48.5
q0 -50 -27.5 -73t-74.5 -23z" />
    <glyph glyph-name="uni1E61" unicode="&#x1e61;" horiz-adv-x="521" 
d="M254 -11q-53 0 -104 15t-91.5 43.5t-66.5 67.5l89 81q26 -41 68 -66.5t89 -25.5q31 0 48 9t17 28q0 14 -10.5 24t-31.5 16l-60 18q-75 24 -107.5 59.5t-32.5 87.5q0 51 27 87.5t76 56.5t113 20q79 0 139 -27t95 -76l-85 -84q-13 21 -35.5 37.5t-49.5 26t-57 9.5
q-31 0 -47 -9.5t-16 -26.5q0 -15 14 -23.5t32 -14.5l95 -29q53 -17 81.5 -50.5t28.5 -80.5q0 -53 -26 -92t-75 -60t-117 -21zM330 561q-38 0 -61 16t-23 49q0 50 27.5 73t72.5 23q41 0 63.5 -16.5t22.5 -48.5q0 -50 -27.5 -73t-74.5 -23z" />
    <glyph glyph-name="uni1E62" unicode="&#x1e62;" horiz-adv-x="640" 
d="M332 -11q-70 0 -132 18.5t-111.5 54.5t-84.5 91l101 99q24 -42 60.5 -71.5t79.5 -44t86 -14.5q31 0 50.5 9t29.5 24t10 32q0 22 -16 34.5t-48 22.5l-99 32q-45 15 -81.5 39.5t-57.5 60.5t-21 83q0 67 34.5 114t95 72t138.5 25q103 0 174 -36.5t117 -102.5l-105 -96
q-21 35 -50.5 57.5t-64.5 33.5t-71 11q-30 0 -50 -8t-29.5 -21.5t-9.5 -31.5q0 -20 19.5 -36.5t51.5 -26.5l99 -32q75 -24 114 -65.5t39 -108.5q0 -68 -35.5 -117t-96.5 -75t-136 -26zM240 -222q-38 0 -61 16t-23 49q0 50 27.5 73t73.5 23q40 0 62.5 -16.5t22.5 -48.5
q0 -51 -27.5 -73.5t-74.5 -22.5z" />
    <glyph glyph-name="uni1E63" unicode="&#x1e63;" horiz-adv-x="521" 
d="M254 -11q-53 0 -104 15t-91.5 43.5t-66.5 67.5l89 81q26 -41 68 -66.5t89 -25.5q31 0 48 9t17 28q0 14 -10.5 24t-31.5 16l-60 18q-75 24 -107.5 59.5t-32.5 87.5q0 51 27 87.5t76 56.5t113 20q79 0 139 -27t95 -76l-85 -84q-13 21 -35.5 37.5t-49.5 26t-57 9.5
q-31 0 -47 -9.5t-16 -26.5q0 -15 14 -23.5t32 -14.5l95 -29q53 -17 81.5 -50.5t28.5 -80.5q0 -53 -26 -92t-75 -60t-117 -21zM181 -222q-38 0 -61 16t-23 49q0 50 27.5 73t73.5 23q40 0 62.5 -16.5t22.5 -48.5q0 -51 -27.5 -73.5t-74.5 -22.5z" />
    <glyph glyph-name="uni1E64" unicode="&#x1e64;" horiz-adv-x="640" 
d="M332 -11q-70 0 -132 18.5t-111.5 54.5t-84.5 91l101 99q24 -42 60.5 -71.5t79.5 -44t86 -14.5q31 0 50.5 9t29.5 24t10 32q0 22 -16 34.5t-48 22.5l-99 32q-45 15 -81.5 39.5t-57.5 60.5t-21 83q0 67 34.5 114t95 72t138.5 25q103 0 174 -36.5t117 -102.5l-105 -96
q-21 35 -50.5 57.5t-64.5 33.5t-71 11q-30 0 -50 -8t-29.5 -21.5t-9.5 -31.5q0 -20 19.5 -36.5t51.5 -26.5l99 -32q75 -24 114 -65.5t39 -108.5q0 -68 -35.5 -117t-96.5 -75t-136 -26zM437 886h157l-126 -163h-127zM471 937q-38 0 -61 16t-23 49q0 50 27.5 73t72.5 23
q41 0 63.5 -16.5t22.5 -48.5q0 -50 -27.5 -73t-74.5 -23z" />
    <glyph glyph-name="uni1E65" unicode="&#x1e65;" horiz-adv-x="521" 
d="M254 -11q-53 0 -104 15t-91.5 43.5t-66.5 67.5l89 81q26 -41 68 -66.5t89 -25.5q31 0 48 9t17 28q0 14 -10.5 24t-31.5 16l-60 18q-75 24 -107.5 59.5t-32.5 87.5q0 51 27 87.5t76 56.5t113 20q79 0 139 -27t95 -76l-85 -84q-13 21 -35.5 37.5t-49.5 26t-57 9.5
q-31 0 -47 -9.5t-16 -26.5q0 -15 14 -23.5t32 -14.5l95 -29q53 -17 81.5 -50.5t28.5 -80.5q0 -53 -26 -92t-75 -60t-117 -21zM354 738h164l-148 -173h-126zM394 784q-38 0 -61 16t-23 49q0 50 27.5 73t72.5 23q41 0 63.5 -16.5t22.5 -48.5q0 -50 -27.5 -73t-74.5 -23z" />
    <glyph glyph-name="uni1E66" unicode="&#x1e66;" horiz-adv-x="640" 
d="M332 -11q-70 0 -132 18.5t-111.5 54.5t-84.5 91l101 99q24 -42 60.5 -71.5t79.5 -44t86 -14.5q31 0 50.5 9t29.5 24t10 32q0 22 -16 34.5t-48 22.5l-99 32q-45 15 -81.5 39.5t-57.5 60.5t-21 83q0 67 34.5 114t95 72t138.5 25q103 0 174 -36.5t117 -102.5l-105 -96
q-21 35 -50.5 57.5t-64.5 33.5t-71 11q-30 0 -50 -8t-29.5 -21.5t-9.5 -31.5q0 -20 19.5 -36.5t51.5 -26.5l99 -32q75 -24 114 -65.5t39 -108.5q0 -68 -35.5 -117t-96.5 -75t-136 -26zM323 723l-63 163h113l45 -91l85 91h124l-138 -163h-166zM454 929q-38 0 -61 16t-23 49
q0 50 27.5 73t72.5 23q41 0 63.5 -16.5t22.5 -48.5q0 -50 -27.5 -73t-74.5 -23z" />
    <glyph glyph-name="uni1E67" unicode="&#x1e67;" horiz-adv-x="521" 
d="M254 -11q-53 0 -104 15t-91.5 43.5t-66.5 67.5l89 81q26 -41 68 -66.5t89 -25.5q31 0 48 9t17 28q0 14 -10.5 24t-31.5 16l-60 18q-75 24 -107.5 59.5t-32.5 87.5q0 51 27 87.5t76 56.5t113 20q79 0 139 -27t95 -76l-85 -84q-13 21 -35.5 37.5t-49.5 26t-57 9.5
q-31 0 -47 -9.5t-16 -26.5q0 -15 14 -23.5t32 -14.5l95 -29q53 -17 81.5 -50.5t28.5 -80.5q0 -53 -26 -92t-75 -60t-117 -21zM230 565l-69 173h114l50 -90l90 90h129l-149 -173h-165zM355 772q-38 0 -61 16t-23 49q0 50 27.5 73t72.5 23q41 0 63.5 -16.5t22.5 -48.5
q0 -50 -27.5 -73t-74.5 -23z" />
    <glyph glyph-name="uni1E68" unicode="&#x1e68;" horiz-adv-x="640" 
d="M332 -11q-70 0 -132 18.5t-111.5 54.5t-84.5 91l101 99q24 -42 60.5 -71.5t79.5 -44t86 -14.5q31 0 50.5 9t29.5 24t10 32q0 22 -16 34.5t-48 22.5l-99 32q-45 15 -81.5 39.5t-57.5 60.5t-21 83q0 67 34.5 114t95 72t138.5 25q103 0 174 -36.5t117 -102.5l-105 -96
q-21 35 -50.5 57.5t-64.5 33.5t-71 11q-30 0 -50 -8t-29.5 -21.5t-9.5 -31.5q0 -20 19.5 -36.5t51.5 -26.5l99 -32q75 -24 114 -65.5t39 -108.5q0 -68 -35.5 -117t-96.5 -75t-136 -26zM416 721q-38 0 -61 16t-23 49q0 50 27.5 73t72.5 23q41 0 63.5 -16.5t22.5 -48.5
q0 -50 -27.5 -73t-74.5 -23zM240 -222q-38 0 -61 16t-23 49q0 50 27.5 73t73.5 23q40 0 62.5 -16.5t22.5 -48.5q0 -51 -27.5 -73.5t-74.5 -22.5z" />
    <glyph glyph-name="uni1E69" unicode="&#x1e69;" horiz-adv-x="521" 
d="M254 -11q-53 0 -104 15t-91.5 43.5t-66.5 67.5l89 81q26 -41 68 -66.5t89 -25.5q31 0 48 9t17 28q0 14 -10.5 24t-31.5 16l-60 18q-75 24 -107.5 59.5t-32.5 87.5q0 51 27 87.5t76 56.5t113 20q79 0 139 -27t95 -76l-85 -84q-13 21 -35.5 37.5t-49.5 26t-57 9.5
q-31 0 -47 -9.5t-16 -26.5q0 -15 14 -23.5t32 -14.5l95 -29q53 -17 81.5 -50.5t28.5 -80.5q0 -53 -26 -92t-75 -60t-117 -21zM330 561q-38 0 -61 16t-23 49q0 50 27.5 73t72.5 23q41 0 63.5 -16.5t22.5 -48.5q0 -50 -27.5 -73t-74.5 -23zM181 -222q-38 0 -61 16t-23 49
q0 50 27.5 73t73.5 23q40 0 62.5 -16.5t22.5 -48.5q0 -51 -27.5 -73.5t-74.5 -22.5z" />
    <glyph glyph-name="uni1E6C" unicode="&#x1e6c;" horiz-adv-x="648" 
d="M719 660l-31 -133h-213l-122 -527h-172l122 527h-215l31 133h600zM228 -222q-38 0 -61 16t-23 49q0 50 27.5 73t73.5 23q40 0 62.5 -16.5t22.5 -48.5q0 -51 -27.5 -73.5t-74.5 -22.5z" />
    <glyph glyph-name="uni1E6D" unicode="&#x1e6d;" horiz-adv-x="436" 
d="M256 -9q-62 0 -105 21.5t-60 64.5t-3 106l97 425l182 48l-109 -469q-10 -39 9.5 -58.5t57.5 -19.5q23 0 37.5 4t25.5 10l-10 -109q-27 -13 -58 -18t-64 -5zM40 379l28 121h399l-28 -121h-399zM179 -222q-38 0 -61 16t-23 49q0 50 27.5 73t73.5 23q40 0 62.5 -16.5
t22.5 -48.5q0 -51 -27.5 -73.5t-74.5 -22.5z" />
    <glyph glyph-name="uni1E6E" unicode="&#x1e6e;" horiz-adv-x="648" 
d="M719 660l-31 -133h-213l-122 -527h-172l122 527h-215l31 133h600zM435 -69l-24 -105h-359l25 105h358z" />
    <glyph glyph-name="uni1E6F" unicode="&#x1e6f;" horiz-adv-x="436" 
d="M256 -9q-62 0 -105 21.5t-60 64.5t-3 106l97 425l182 48l-109 -469q-10 -39 9.5 -58.5t57.5 -19.5q23 0 37.5 4t25.5 10l-10 -109q-27 -13 -58 -18t-64 -5zM40 379l28 121h399l-28 -121h-399zM382 -69l-24 -105h-359l25 105h358z" />
    <glyph glyph-name="uni1E78" unicode="&#x1e78;" horiz-adv-x="704" 
d="M329 -10q-99 0 -165 36t-92 104t-4 163l86 367h172l-89 -391q-10 -47 0.5 -79t38 -48.5t68.5 -16.5q55 0 86 33t45 97l94 405h171l-95 -410q-30 -128 -106 -194t-210 -66zM674 870q-12 -80 -52 -119.5t-90 -39.5q-27 0 -45 9t-31.5 20.5t-26 20.5t-26.5 9q-16 0 -27 -16
t-18 -42h-94q12 80 50 119.5t90 39.5q23 0 41 -9t32.5 -20.5t28 -20.5t28.5 -9t26.5 15t18.5 43h95zM523 1084h157l-126 -163h-127z" />
    <glyph glyph-name="uni1E79" unicode="&#x1e79;" horiz-adv-x="610" 
d="M183 -9q-53 0 -90 23t-52.5 65.5t-2.5 101.5l75 319h170l-68 -294q-10 -41 7.5 -63t52.5 -22q27 0 47 12.5t33.5 37t21.5 59.5l63 270h170l-116 -500h-151l25 159l9 -15q-21 -74 -72.5 -113.5t-121.5 -39.5zM585 714q-12 -80 -52 -119.5t-90 -39.5q-27 0 -45 9
t-31.5 20.5t-26 20.5t-26.5 9q-16 0 -27 -16t-18 -42h-94q12 80 50 119.5t90 39.5q23 0 41 -9t32.5 -20.5t28 -20.5t28.5 -9t26.5 15t18.5 43h95zM435 928h157l-126 -163h-127z" />
    <glyph glyph-name="uni1E7A" unicode="&#x1e7a;" horiz-adv-x="704" 
d="M329 -10q-99 0 -165 36t-92 104t-4 163l86 367h172l-89 -391q-10 -47 0.5 -79t38 -48.5t68.5 -16.5q55 0 86 33t45 97l94 405h171l-95 -410q-30 -128 -106 -194t-210 -66zM662 826l-24 -105h-359l25 105h358zM612 879q-36 0 -57.5 15.5t-21.5 47.5q0 47 26 69t69 22
q36 0 57 -15.5t21 -47.5q0 -48 -26 -69.5t-68 -21.5zM389 879q-35 0 -56.5 15.5t-21.5 47.5q0 47 26 69t69 22q35 0 56.5 -15.5t21.5 -47.5q0 -48 -26 -69.5t-69 -21.5z" />
    <glyph glyph-name="uni1E7B" unicode="&#x1e7b;" horiz-adv-x="610" 
d="M183 -9q-53 0 -90 23t-52.5 65.5t-2.5 101.5l75 319h170l-68 -294q-10 -41 7.5 -63t52.5 -22q27 0 47 12.5t33.5 37t21.5 59.5l63 270h170l-116 -500h-151l25 159l9 -15q-21 -74 -72.5 -113.5t-121.5 -39.5zM573 670l-24 -105h-359l25 105h358zM523 723q-36 0 -57.5 15.5
t-21.5 47.5q0 47 26 69t69 22q36 0 57 -15.5t21 -47.5q0 -48 -26 -69.5t-68 -21.5zM300 723q-35 0 -56.5 15.5t-21.5 47.5q0 47 26 69t69 22q35 0 56.5 -15.5t21.5 -47.5q0 -48 -26 -69.5t-69 -21.5z" />
    <glyph glyph-name="Wgrave" unicode="&#x1e80;" horiz-adv-x="988" 
d="M139 0l-36 660h169l1 -515l224 515h159l8 -517l222 517h188l-342 -660h-191l-5 320l9 166h-3l-68 -166l-144 -320h-191zM623 886l31 -163h-111l-68 163h148z" />
    <glyph glyph-name="wgrave" unicode="&#x1e81;" horiz-adv-x="880" 
d="M87 0l-27 500h166l3 -361l173 361h168l20 -363l163 363h180l-259 -500h-202l-22 308l-156 -308h-207zM530 738l30 -173h-117l-69 173h156z" />
    <glyph glyph-name="Wacute" unicode="&#x1e82;" horiz-adv-x="988" 
d="M139 0l-36 660h169l1 -515l224 515h159l8 -517l222 517h188l-342 -660h-191l-5 320l9 166h-3l-68 -166l-144 -320h-191zM619 886h157l-126 -163h-127z" />
    <glyph glyph-name="wacute" unicode="&#x1e83;" horiz-adv-x="880" 
d="M87 0l-27 500h166l3 -361l173 361h168l20 -363l163 363h180l-259 -500h-202l-22 308l-156 -308h-207zM527 738h164l-148 -173h-126z" />
    <glyph glyph-name="Wdieresis" unicode="&#x1e84;" horiz-adv-x="988" 
d="M139 0l-36 660h169l1 -515l224 515h159l8 -517l222 517h188l-342 -660h-191l-5 320l9 166h-3l-68 -166l-144 -320h-191zM709 715q-36 0 -57.5 15.5t-21.5 47.5q0 47 26 69t69 22q36 0 57 -15.5t21 -47.5q0 -48 -26 -69.5t-68 -21.5zM486 715q-35 0 -56.5 15.5t-21.5 47.5
q0 47 26 69t69 22q35 0 56.5 -15.5t21.5 -47.5q0 -48 -26 -69.5t-69 -21.5z" />
    <glyph glyph-name="wdieresis" unicode="&#x1e85;" horiz-adv-x="880" 
d="M87 0l-27 500h166l3 -361l173 361h168l20 -363l163 363h180l-259 -500h-202l-22 308l-156 -308h-207zM614 555q-36 0 -57.5 15.5t-21.5 47.5q0 47 26 69t69 22q36 0 57 -15.5t21 -47.5q0 -48 -26 -69.5t-68 -21.5zM391 555q-35 0 -56.5 15.5t-21.5 47.5q0 47 26 69t69 22
q35 0 56.5 -15.5t21.5 -47.5q0 -48 -26 -69.5t-69 -21.5z" />
    <glyph glyph-name="uni1E8E" unicode="&#x1e8e;" horiz-adv-x="653" 
d="M182 0l57 245l-133 415h166l54 -182l25 -110l71 112l130 180h184l-328 -427l-54 -233h-172zM421 713q-38 0 -61 16t-23 49q0 50 27.5 73t72.5 23q41 0 63.5 -16.5t22.5 -48.5q0 -50 -27.5 -73t-74.5 -23z" />
    <glyph glyph-name="uni1E8F" unicode="&#x1e8f;" horiz-adv-x="558" 
d="M44 -215q-43 0 -79 9.5t-57 25.5l47 119q35 -29 86 -29q28 0 49.5 11t36.5 35l20 33l-88 511h172l15 -269l4 -122l57 119l132 272h181l-322 -542q-36 -62 -74 -100.5t-81.5 -55.5t-98.5 -17zM367 557q-38 0 -61 16t-23 49q0 50 27.5 73t72.5 23q41 0 63.5 -16.5
t22.5 -48.5q0 -50 -27.5 -73t-74.5 -23z" />
    <glyph glyph-name="uni1E92" unicode="&#x1e92;" horiz-adv-x="623" 
d="M-17 0l30 131l437 399h-352l31 130h544l-30 -130l-437 -400h365l-30 -130h-558zM246 -222q-38 0 -61 16t-23 49q0 50 27.5 73t73.5 23q40 0 62.5 -16.5t22.5 -48.5q0 -51 -27.5 -73.5t-74.5 -22.5z" />
    <glyph glyph-name="uni1E93" unicode="&#x1e93;" horiz-adv-x="512" 
d="M-18 0l25 105l241 231l57 48l-79 -3h-159l27 119h433l-25 -107l-229 -218l-67 -59l92 3h157l-27 -119h-446zM173 -222q-38 0 -61 16t-23 49q0 50 27.5 73t73.5 23q40 0 62.5 -16.5t22.5 -48.5q0 -51 -27.5 -73.5t-74.5 -22.5z" />
    <glyph glyph-name="uni1E97" unicode="&#x1e97;" horiz-adv-x="436" 
d="M256 -9q-62 0 -105 21.5t-60 64.5t-3 106l97 425l182 48l-109 -469q-10 -39 9.5 -58.5t57.5 -19.5q23 0 37.5 4t25.5 10l-10 -109q-27 -13 -58 -18t-64 -5zM40 379l28 121h399l-28 -121h-399zM418 707q-36 0 -57.5 15.5t-21.5 47.5q0 47 26 69t69 22q36 0 57 -15.5
t21 -47.5q0 -48 -26 -69.5t-68 -21.5zM195 707q-35 0 -56.5 15.5t-21.5 47.5q0 47 26 69t69 22q35 0 56.5 -15.5t21.5 -47.5q0 -48 -26 -69.5t-69 -21.5z" />
    <glyph glyph-name="uni1E9E" unicode="&#x1e9e;" horiz-adv-x="701" 
d="M440 -5q-60 0 -105.5 15.5t-81.5 42.5l59 101q19 -17 47.5 -27t55.5 -10q24 0 44.5 9.5t33 28t12.5 46.5q0 34 -21 49.5t-66 15.5h-83l22 97l191 167h-140q-38 0 -66.5 -14t-47 -42t-28.5 -67l-93 -407h-172l98 422q17 75 59 128t104.5 81.5t139.5 28.5h353l-28 -118
l-212 -185h7q39 0 72 -18.5t53 -52.5t20 -83q0 -66 -29.5 -112.5t-80.5 -71t-117 -24.5z" />
    <glyph glyph-name="uni1EA0" unicode="&#x1ea0;" horiz-adv-x="671" 
d="M-55 0l382 660h208l74 -660h-163l-13 155h-225l-84 -155h-179zM270 272h157l-20 256zM259 -222q-38 0 -61 16t-23 49q0 50 27.5 73t73.5 23q40 0 62.5 -16.5t22.5 -48.5q0 -51 -27.5 -73.5t-74.5 -22.5z" />
    <glyph glyph-name="uni1EA1" unicode="&#x1ea1;" horiz-adv-x="618" 
d="M205 -9q-50 0 -89.5 23.5t-62 68t-22.5 109.5q0 60 17 117t49.5 102.5t78 72t102.5 26.5q33 0 63.5 -12t52 -37t29.5 -66l24 105h170l-116 -500h-154l17 94q-24 -48 -66 -75.5t-93 -27.5zM279 115q25 0 46 16t36.5 42.5t24 58t8.5 62.5q0 28 -9.5 48.5t-26.5 31.5t-41 11
q-28 0 -50 -16.5t-37 -42.5t-23 -56.5t-8 -58.5q0 -30 9 -51.5t26.5 -33t44.5 -11.5zM219 -222q-38 0 -61 16t-23 49q0 50 27.5 73t73.5 23q40 0 62.5 -16.5t22.5 -48.5q0 -51 -27.5 -73.5t-74.5 -22.5z" />
    <glyph glyph-name="uni1EA2" unicode="&#x1ea2;" horiz-adv-x="671" 
d="M-55 0l382 660h208l74 -660h-163l-13 155h-225l-84 -155h-179zM270 272h157l-20 256zM424 698l-19 54q35 7 47.5 22.5t12.5 31.5q0 14 -9 20.5t-23 6.5q-12 0 -22 -5.5t-18 -16.5l-63 54q15 27 47 44t74 17q46 0 78.5 -25.5t32.5 -73.5q0 -38 -18 -65t-49 -43t-71 -21z
" />
    <glyph glyph-name="uni1EA3" unicode="&#x1ea3;" horiz-adv-x="618" 
d="M205 -9q-50 0 -89.5 23.5t-62 68t-22.5 109.5q0 60 17 117t49.5 102.5t78 72t102.5 26.5q33 0 63.5 -12t52 -37t29.5 -66l24 105h170l-116 -500h-154l17 94q-24 -48 -66 -75.5t-93 -27.5zM279 115q25 0 46 16t36.5 42.5t24 58t8.5 62.5q0 28 -9.5 48.5t-26.5 31.5t-41 11
q-28 0 -50 -16.5t-37 -42.5t-23 -56.5t-8 -58.5q0 -30 9 -51.5t26.5 -33t44.5 -11.5zM342 546l-20 55q37 7 51 23t14 30t-9 21.5t-22 7.5t-23.5 -6.5t-19.5 -16.5l-61 54q16 26 47.5 43.5t74.5 17.5q47 0 79 -26t32 -73q0 -39 -18.5 -66.5t-51 -43t-73.5 -20.5z" />
    <glyph glyph-name="uni1EA4" unicode="&#x1ea4;" horiz-adv-x="671" 
d="M255 719l140 162h152l65 -162h-109l-45 84l-84 -84h-119zM688 970h142l-114 -148h-115zM-55 0l382 660h208l74 -660h-163l-13 155h-225l-84 -155h-179zM270 272h157l-20 256z" />
    <glyph glyph-name="uni1EA5" unicode="&#x1ea5;" horiz-adv-x="618" 
d="M175 559l140 162h152l65 -162h-109l-45 84l-84 -84h-119zM608 810h141l-113 -148h-115zM205 -9q-50 0 -89.5 23.5t-62 68t-22.5 109.5q0 60 17 117t49.5 102.5t78 72t102.5 26.5q33 0 63.5 -12t52 -37t29.5 -66l24 105h170l-116 -500h-154l17 94q-24 -48 -66 -75.5
t-93 -27.5zM279 115q25 0 46 16t36.5 42.5t24 58t8.5 62.5q0 28 -9.5 48.5t-26.5 31.5t-41 11q-28 0 -50 -16.5t-37 -42.5t-23 -56.5t-8 -58.5q0 -30 9 -51.5t26.5 -33t44.5 -11.5z" />
    <glyph glyph-name="uni1EA6" unicode="&#x1ea6;" horiz-adv-x="671" 
d="M255 719l140 162h152l65 -162h-109l-45 84l-84 -84h-119zM695 970l28 -148h-100l-61 148h133zM-55 0l382 660h208l74 -660h-163l-13 155h-225l-84 -155h-179zM270 272h157l-20 256z" />
    <glyph glyph-name="uni1EA7" unicode="&#x1ea7;" horiz-adv-x="618" 
d="M175 559l140 162h152l65 -162h-109l-45 84l-84 -84h-119zM614 810l29 -148h-100l-61 148h132zM205 -9q-50 0 -89.5 23.5t-62 68t-22.5 109.5q0 60 17 117t49.5 102.5t78 72t102.5 26.5q33 0 63.5 -12t52 -37t29.5 -66l24 105h170l-116 -500h-154l17 94q-24 -48 -66 -75.5
t-93 -27.5zM279 115q25 0 46 16t36.5 42.5t24 58t8.5 62.5q0 28 -9.5 48.5t-26.5 31.5t-41 11q-28 0 -50 -16.5t-37 -42.5t-23 -56.5t-8 -58.5q0 -30 9 -51.5t26.5 -33t44.5 -11.5z" />
    <glyph glyph-name="uni1EA8" unicode="&#x1ea8;" horiz-adv-x="671" 
d="M255 719l140 162h152l65 -162h-109l-45 84l-84 -84h-119zM624 804l-20 54q35 7 47.5 22.5t12.5 31.5q0 14 -9 20.5t-22 6.5t-23 -5.5t-18 -16.5l-63 54q16 27 47.5 44t74.5 17q45 0 78 -25.5t33 -73.5q0 -38 -18.5 -65t-49 -43t-70.5 -21zM-55 0l382 660h208l74 -660
h-163l-13 155h-225l-84 -155h-179zM270 272h157l-20 256z" />
    <glyph glyph-name="uni1EA9" unicode="&#x1ea9;" horiz-adv-x="618" 
d="M175 559l140 162h152l65 -162h-109l-45 84l-84 -84h-119zM544 644l-20 54q35 7 47.5 22.5t12.5 31.5q0 14 -9 20.5t-22 6.5t-23 -5.5t-18 -16.5l-63 54q16 27 47.5 44t74.5 17q45 0 78 -25.5t33 -73.5q0 -38 -18.5 -65t-49.5 -43t-70 -21zM205 -9q-50 0 -89.5 23.5
t-62 68t-22.5 109.5q0 60 17 117t49.5 102.5t78 72t102.5 26.5q33 0 63.5 -12t52 -37t29.5 -66l24 105h170l-116 -500h-154l17 94q-24 -48 -66 -75.5t-93 -27.5zM279 115q25 0 46 16t36.5 42.5t24 58t8.5 62.5q0 28 -9.5 48.5t-26.5 31.5t-41 11q-28 0 -50 -16.5t-37 -42.5
t-23 -56.5t-8 -58.5q0 -30 9 -51.5t26.5 -33t44.5 -11.5z" />
    <glyph glyph-name="uni1EAA" unicode="&#x1eaa;" horiz-adv-x="671" 
d="M255 719l140 162h152l65 -162h-109l-45 84l-84 -84h-119zM674 1050q-10 -73 -46.5 -109t-82.5 -36q-25 0 -42 8t-29.5 19t-24 19t-26.5 8t-24.5 -14t-14.5 -38h-88q11 73 45.5 109t83.5 36q21 0 37.5 -8t30 -18.5t26.5 -18.5t28 -8t24.5 13.5t15.5 37.5h87zM-55 0
l382 660h208l74 -660h-163l-13 155h-225l-84 -155h-179zM270 272h157l-20 256z" />
    <glyph glyph-name="uni1EAB" unicode="&#x1eab;" horiz-adv-x="618" 
d="M175 559l140 162h152l65 -162h-109l-45 84l-84 -84h-119zM594 890q-10 -73 -46.5 -109t-82.5 -36q-25 0 -42 8t-29.5 19t-24 19t-26.5 8t-24.5 -14t-14.5 -38h-88q11 73 45.5 109t83.5 36q21 0 37.5 -8t30 -18.5t26.5 -18.5t27 -8q15 0 25 13.5t16 37.5h87zM205 -9
q-50 0 -89.5 23.5t-62 68t-22.5 109.5q0 60 17 117t49.5 102.5t78 72t102.5 26.5q33 0 63.5 -12t52 -37t29.5 -66l24 105h170l-116 -500h-154l17 94q-24 -48 -66 -75.5t-93 -27.5zM279 115q25 0 46 16t36.5 42.5t24 58t8.5 62.5q0 28 -9.5 48.5t-26.5 31.5t-41 11
q-28 0 -50 -16.5t-37 -42.5t-23 -56.5t-8 -58.5q0 -30 9 -51.5t26.5 -33t44.5 -11.5z" />
    <glyph glyph-name="uni1EAC" unicode="&#x1eac;" horiz-adv-x="671" 
d="M-55 0l382 660h208l74 -660h-163l-13 155h-225l-84 -155h-179zM270 272h157l-20 256zM259 -222q-38 0 -61 16t-23 49q0 50 27.5 73t73.5 23q40 0 62.5 -16.5t22.5 -48.5q0 -51 -27.5 -73.5t-74.5 -22.5zM562 886l62 -163h-112l-45 91l-85 -91h-124l138 163h166z" />
    <glyph glyph-name="uni1EAD" unicode="&#x1ead;" horiz-adv-x="618" 
d="M205 -9q-50 0 -89.5 23.5t-62 68t-22.5 109.5q0 60 17 117t49.5 102.5t78 72t102.5 26.5q33 0 63.5 -12t52 -37t29.5 -66l24 105h170l-116 -500h-154l17 94q-24 -48 -66 -75.5t-93 -27.5zM279 115q25 0 46 16t36.5 42.5t24 58t8.5 62.5q0 28 -9.5 48.5t-26.5 31.5t-41 11
q-28 0 -50 -16.5t-37 -42.5t-23 -56.5t-8 -58.5q0 -30 9 -51.5t26.5 -33t44.5 -11.5zM219 -222q-38 0 -61 16t-23 49q0 50 27.5 73t73.5 23q40 0 62.5 -16.5t22.5 -48.5q0 -51 -27.5 -73.5t-74.5 -22.5zM161 559l149 173h165l69 -173h-118l-48 88l-88 -88h-129z" />
    <glyph glyph-name="uni1EAE" unicode="&#x1eae;" horiz-adv-x="671" 
d="M618 868q-12 -70 -61 -111.5t-123 -41.5q-65 0 -101 32t-36 84q0 17 5 37h99q-2 -6 -2.5 -10.5t-0.5 -9.5q0 -21 13.5 -33.5t37.5 -12.5q26 0 44 17t24 49h101zM400 889l85 143h141l-111 -143h-115zM-55 0l382 660h208l74 -660h-163l-13 155h-225l-84 -155h-179zM270 272
h157l-20 256z" />
    <glyph glyph-name="uni1EAF" unicode="&#x1eaf;" horiz-adv-x="618" 
d="M545 708q-12 -70 -60.5 -111.5t-122.5 -41.5q-65 0 -101 32t-36 84q0 17 4 37h99q-1 -6 -1.5 -10.5t-0.5 -9.5q0 -21 13.5 -33.5t36.5 -12.5q26 0 44.5 17t24.5 49h100zM327 729l86 143h141l-111 -143h-116zM205 -9q-50 0 -89.5 23.5t-62 68t-22.5 109.5q0 60 17 117
t49.5 102.5t78 72t102.5 26.5q33 0 63.5 -12t52 -37t29.5 -66l24 105h170l-116 -500h-154l17 94q-24 -48 -66 -75.5t-93 -27.5zM279 115q25 0 46 16t36.5 42.5t24 58t8.5 62.5q0 28 -9.5 48.5t-26.5 31.5t-41 11q-28 0 -50 -16.5t-37 -42.5t-23 -56.5t-8 -58.5
q0 -30 9 -51.5t26.5 -33t44.5 -11.5z" />
    <glyph glyph-name="uni1EB0" unicode="&#x1eb0;" horiz-adv-x="671" 
d="M621 868q-12 -70 -61 -111.5t-123 -41.5q-65 0 -101 32t-36 84q0 17 5 37h99q-2 -6 -2.5 -10.5t-0.5 -9.5q0 -21 13.5 -33.5t37.5 -12.5q26 0 44 17t24 49h101zM422 889l-62 143h136l30 -143h-104zM-55 0l382 660h208l74 -660h-163l-13 155h-225l-84 -155h-179zM270 272
h157l-20 256z" />
    <glyph glyph-name="uni1EB1" unicode="&#x1eb1;" horiz-adv-x="618" 
d="M545 708q-12 -70 -60.5 -111.5t-122.5 -41.5q-65 0 -101 32t-36 84q0 17 4 37h99q-1 -6 -1.5 -10.5t-0.5 -9.5q0 -21 13.5 -33.5t36.5 -12.5q26 0 44.5 17t24.5 49h100zM347 729l-62 143h135l30 -143h-103zM205 -9q-50 0 -89.5 23.5t-62 68t-22.5 109.5q0 60 17 117
t49.5 102.5t78 72t102.5 26.5q33 0 63.5 -12t52 -37t29.5 -66l24 105h170l-116 -500h-154l17 94q-24 -48 -66 -75.5t-93 -27.5zM279 115q25 0 46 16t36.5 42.5t24 58t8.5 62.5q0 28 -9.5 48.5t-26.5 31.5t-41 11q-28 0 -50 -16.5t-37 -42.5t-23 -56.5t-8 -58.5
q0 -30 9 -51.5t26.5 -33t44.5 -11.5z" />
    <glyph glyph-name="uni1EB2" unicode="&#x1eb2;" horiz-adv-x="671" 
d="M621 868q-12 -70 -60.5 -111.5t-122.5 -41.5q-65 0 -101 32.5t-36 84.5q0 16 4 36h99q-1 -5 -1.5 -9.5t-0.5 -9.5q0 -22 13.5 -34t36.5 -12q26 0 44.5 16.5t24.5 48.5h100zM455 872l-18 51q32 7 44.5 21.5t12.5 29.5q0 13 -9 20t-22 7q-11 0 -20.5 -6t-17.5 -16l-59 51
q15 25 44.5 41t69.5 16q43 0 74 -24.5t31 -68.5q0 -36 -17 -61.5t-46.5 -40.5t-66.5 -20zM-55 0l382 660h208l74 -660h-163l-13 155h-225l-84 -155h-179zM270 272h157l-20 256z" />
    <glyph glyph-name="uni1EB3" unicode="&#x1eb3;" horiz-adv-x="618" 
d="M546 708q-12 -70 -60.5 -111.5t-122.5 -41.5q-65 0 -101.5 32.5t-36.5 84.5q0 16 5 36h99q-2 -5 -2.5 -9.5t-0.5 -9.5q0 -22 14 -34t37 -12q26 0 44 16.5t24 48.5h101zM380 712l-19 51q33 7 45 21.5t12 29.5q0 13 -8.5 20t-21.5 7q-12 0 -21.5 -6t-17.5 -16l-58 51
q15 25 44.5 41t69.5 16q43 0 73.5 -24.5t30.5 -68.5q0 -36 -17 -61.5t-46 -40.5t-66 -20zM205 -9q-50 0 -89.5 23.5t-62 68t-22.5 109.5q0 60 17 117t49.5 102.5t78 72t102.5 26.5q33 0 63.5 -12t52 -37t29.5 -66l24 105h170l-116 -500h-154l17 94q-24 -48 -66 -75.5
t-93 -27.5zM279 115q25 0 46 16t36.5 42.5t24 58t8.5 62.5q0 28 -9.5 48.5t-26.5 31.5t-41 11q-28 0 -50 -16.5t-37 -42.5t-23 -56.5t-8 -58.5q0 -30 9 -51.5t26.5 -33t44.5 -11.5z" />
    <glyph glyph-name="uni1EB4" unicode="&#x1eb4;" horiz-adv-x="671" 
d="M623 868q-12 -70 -60.5 -111.5t-122.5 -41.5q-65 0 -101.5 32t-36.5 84q0 17 5 37h99q-2 -6 -2.5 -10.5t-0.5 -9.5q0 -21 14 -33.5t37 -12.5q26 0 44 17t24 49h101zM669 1039q-10 -73 -46.5 -108.5t-83.5 -35.5q-24 0 -41 8t-30 18.5t-24.5 18.5t-25.5 8q-15 0 -25 -14
t-15 -37h-87q10 73 45 108.5t83 35.5q22 0 38.5 -8t30 -18.5t26.5 -18.5t27 -8q15 0 25 13.5t15 37.5h88zM-55 0l382 660h208l74 -660h-163l-13 155h-225l-84 -155h-179zM270 272h157l-20 256z" />
    <glyph glyph-name="uni1EB5" unicode="&#x1eb5;" horiz-adv-x="618" 
d="M545 708q-12 -70 -60.5 -111.5t-122.5 -41.5q-65 0 -101 32t-36 84q0 17 4 37h99q-1 -6 -1.5 -10.5t-0.5 -9.5q0 -21 13.5 -33.5t36.5 -12.5q26 0 44.5 17t23.5 49h101zM591 879q-10 -73 -46.5 -108.5t-83.5 -35.5q-24 0 -41 8t-29.5 18.5t-24.5 18.5t-26 8
q-15 0 -24.5 -14t-14.5 -37h-88q10 73 45 108.5t84 35.5q21 0 37.5 -8t30 -18.5t26.5 -18.5t27 -8q15 0 25 13.5t15 37.5h88zM205 -9q-50 0 -89.5 23.5t-62 68t-22.5 109.5q0 60 17 117t49.5 102.5t78 72t102.5 26.5q33 0 63.5 -12t52 -37t29.5 -66l24 105h170l-116 -500
h-154l17 94q-24 -48 -66 -75.5t-93 -27.5zM279 115q25 0 46 16t36.5 42.5t24 58t8.5 62.5q0 28 -9.5 48.5t-26.5 31.5t-41 11q-28 0 -50 -16.5t-37 -42.5t-23 -56.5t-8 -58.5q0 -30 9 -51.5t26.5 -33t44.5 -11.5z" />
    <glyph glyph-name="uni1EB6" unicode="&#x1eb6;" horiz-adv-x="671" 
d="M-55 0l382 660h208l74 -660h-163l-13 155h-225l-84 -155h-179zM270 272h157l-20 256zM259 -222q-38 0 -61 16t-23 49q0 50 27.5 73t73.5 23q40 0 62.5 -16.5t22.5 -48.5q0 -51 -27.5 -73.5t-74.5 -22.5zM637 878q-12 -74 -64.5 -118.5t-131.5 -44.5q-69 0 -108 34.5
t-39 89.5q0 9 1.5 19t3.5 20h107q-1 -5 -1.5 -10.5t-0.5 -10.5q0 -22 14 -34.5t39 -12.5q27 0 46 17.5t25 50.5h109z" />
    <glyph glyph-name="uni1EB7" unicode="&#x1eb7;" horiz-adv-x="618" 
d="M205 -9q-50 0 -89.5 23.5t-62 68t-22.5 109.5q0 60 17 117t49.5 102.5t78 72t102.5 26.5q33 0 63.5 -12t52 -37t29.5 -66l24 105h170l-116 -500h-154l17 94q-24 -48 -66 -75.5t-93 -27.5zM279 115q25 0 46 16t36.5 42.5t24 58t8.5 62.5q0 28 -9.5 48.5t-26.5 31.5t-41 11
q-28 0 -50 -16.5t-37 -42.5t-23 -56.5t-8 -58.5q0 -30 9 -51.5t26.5 -33t44.5 -11.5zM219 -222q-38 0 -61 16t-23 49q0 50 27.5 73t73.5 23q40 0 62.5 -16.5t22.5 -48.5q0 -51 -27.5 -73.5t-74.5 -22.5zM555 718q-12 -74 -64.5 -118.5t-131.5 -44.5q-69 0 -108 34.5
t-39 89.5q0 9 1.5 19t3.5 20h107q-1 -5 -1.5 -10.5t-0.5 -10.5q0 -22 14 -34.5t39 -12.5q27 0 46 17.5t25 50.5h109z" />
    <glyph glyph-name="uni1EB8" unicode="&#x1eb8;" 
d="M14 0l153 660h514l-32 -133h-341l-31 -134h269l-29 -125h-269l-31 -135h352l-31 -133h-524zM248 -222q-38 0 -61 16t-23 49q0 50 27.5 73t73.5 23q40 0 62.5 -16.5t22.5 -48.5q0 -51 -27.5 -73.5t-74.5 -22.5z" />
    <glyph glyph-name="uni1EB9" unicode="&#x1eb9;" horiz-adv-x="582" 
d="M282 -9q-74 0 -130 28.5t-87 79.5t-31 119q0 84 34.5 149.5t98 103.5t151.5 38q73 0 124.5 -27.5t78.5 -77.5t27 -118q0 -19 -2 -40t-8 -41h-394v92h283l-47 -26q4 14 5 24t1 19q0 26 -9 43t-25 25.5t-38 8.5q-36 0 -59.5 -17t-37.5 -44.5t-19.5 -59.5t-5.5 -62
q0 -32 12.5 -54t34 -33.5t50.5 -11.5q36 0 58 16.5t34 41.5l140 -55q-17 -38 -52.5 -65t-83 -41.5t-103.5 -14.5zM230 -222q-38 0 -61 16t-23 49q0 50 27.5 73t73.5 23q40 0 62.5 -16.5t22.5 -48.5q0 -51 -27.5 -73.5t-74.5 -22.5z" />
    <glyph glyph-name="uni1EBA" unicode="&#x1eba;" 
d="M14 0l153 660h514l-32 -133h-341l-31 -134h269l-29 -125h-269l-31 -135h352l-31 -133h-524zM416 698l-19 54q35 7 47.5 22.5t12.5 31.5q0 14 -9 20.5t-23 6.5q-12 0 -22 -5.5t-18 -16.5l-63 54q15 27 47 44t74 17q46 0 78.5 -25.5t32.5 -73.5q0 -38 -18 -65t-49 -43
t-71 -21z" />
    <glyph glyph-name="uni1EBB" unicode="&#x1ebb;" horiz-adv-x="582" 
d="M282 -9q-74 0 -130 28.5t-87 79.5t-31 119q0 84 34.5 149.5t98 103.5t151.5 38q73 0 124.5 -27.5t78.5 -77.5t27 -118q0 -19 -2 -40t-8 -41h-394v92h283l-47 -26q4 14 5 24t1 19q0 26 -9 43t-25 25.5t-38 8.5q-36 0 -59.5 -17t-37.5 -44.5t-19.5 -59.5t-5.5 -62
q0 -32 12.5 -54t34 -33.5t50.5 -11.5q36 0 58 16.5t34 41.5l140 -55q-17 -38 -52.5 -65t-83 -41.5t-103.5 -14.5zM329 546l-20 55q37 7 51 23t14 30t-9 21.5t-22 7.5t-23.5 -6.5t-19.5 -16.5l-61 54q16 26 47.5 43.5t74.5 17.5q47 0 79 -26t32 -73q0 -39 -18.5 -66.5
t-51 -43t-73.5 -20.5z" />
    <glyph glyph-name="uni1EBC" unicode="&#x1ebc;" 
d="M14 0l153 660h514l-32 -133h-341l-31 -134h269l-29 -125h-269l-31 -135h352l-31 -133h-524zM650 878q-12 -80 -52 -119.5t-90 -39.5q-27 0 -45 9t-31.5 20.5t-26 20.5t-26.5 9q-16 0 -27 -16t-18 -42h-94q12 80 50 119.5t90 39.5q23 0 41 -9t32.5 -20.5t28 -20.5t28.5 -9
t26.5 15t18.5 43h95z" />
    <glyph glyph-name="uni1EBD" unicode="&#x1ebd;" horiz-adv-x="582" 
d="M282 -9q-74 0 -130 28.5t-87 79.5t-31 119q0 84 34.5 149.5t98 103.5t151.5 38q73 0 124.5 -27.5t78.5 -77.5t27 -118q0 -19 -2 -40t-8 -41h-394v92h283l-47 -26q4 14 5 24t1 19q0 26 -9 43t-25 25.5t-38 8.5q-36 0 -59.5 -17t-37.5 -44.5t-19.5 -59.5t-5.5 -62
q0 -32 12.5 -54t34 -33.5t50.5 -11.5q36 0 58 16.5t34 41.5l140 -55q-17 -38 -52.5 -65t-83 -41.5t-103.5 -14.5zM562 718q-12 -80 -52 -119.5t-90 -39.5q-27 0 -45 9t-31.5 20.5t-26 20.5t-26.5 9q-16 0 -27 -16t-18 -42h-94q12 80 50 119.5t90 39.5q23 0 41 -9t32.5 -20.5
t28 -20.5t28.5 -9t26.5 15t18.5 43h95z" />
    <glyph glyph-name="uni1EBE" unicode="&#x1ebe;" 
d="M247 719l140 162h151l66 -162h-109l-46 84l-84 -84h-118zM680 970h141l-114 -148h-114zM14 0l153 660h514l-32 -133h-341l-31 -134h269l-29 -125h-269l-31 -135h352l-31 -133h-524z" />
    <glyph glyph-name="uni1EBF" unicode="&#x1ebf;" horiz-adv-x="582" 
d="M595 810h141l-113 -148h-115zM162 559l140 162h152l65 -162h-109l-45 84l-84 -84h-119zM282 -9q-74 0 -130 28t-87 79.5t-31 119.5q0 84 34.5 150t98 104t151.5 38q73 0 124.5 -27.5t78.5 -74.5t27 -109q0 -19 -2.5 -40.5t-9.5 -42.5h-392v79h283l-47 -24q4 13 5 23.5
t1 19.5q0 26 -9 43t-25.5 25.5t-38.5 8.5q-35 0 -58.5 -16.5t-37.5 -44t-19.5 -60t-5.5 -62.5q0 -32 12.5 -54.5t34 -33.5t50.5 -11q36 0 58 16.5t34 40.5l140 -54q-17 -38 -52.5 -65t-83 -41.5t-103.5 -14.5z" />
    <glyph glyph-name="uni1EC0" unicode="&#x1ec0;" 
d="M247 719l140 162h151l66 -162h-109l-46 84l-84 -84h-118zM686 970l29 -148h-100l-61 148h132zM14 0l153 660h514l-32 -133h-341l-31 -134h269l-29 -125h-269l-31 -135h352l-31 -133h-524z" />
    <glyph glyph-name="uni1EC1" unicode="&#x1ec1;" horiz-adv-x="582" 
d="M601 810l29 -148h-100l-61 148h132zM162 559l140 162h152l65 -162h-109l-45 84l-84 -84h-119zM282 -9q-74 0 -130 28t-87 79.5t-31 119.5q0 84 34.5 150t98 104t151.5 38q73 0 124.5 -27.5t78.5 -74.5t27 -109q0 -19 -2.5 -40.5t-9.5 -42.5h-392v79h283l-47 -24
q4 13 5 23.5t1 19.5q0 26 -9 43t-25.5 25.5t-38.5 8.5q-35 0 -58.5 -16.5t-37.5 -44t-19.5 -60t-5.5 -62.5q0 -32 12.5 -54.5t34 -33.5t50.5 -11q36 0 58 16.5t34 40.5l140 -54q-17 -38 -52.5 -65t-83 -41.5t-103.5 -14.5z" />
    <glyph glyph-name="uni1EC2" unicode="&#x1ec2;" 
d="M247 719l140 162h151l66 -162h-109l-46 84l-84 -84h-118zM615 804l-19 54q35 7 47.5 22.5t12.5 31.5q0 14 -9 20.5t-23 6.5q-12 0 -22 -5.5t-18 -16.5l-63 54q16 27 47.5 44t73.5 17q46 0 79 -25.5t33 -73.5q0 -38 -18.5 -65t-49.5 -43t-71 -21zM14 0l153 660h514
l-32 -133h-341l-31 -134h269l-29 -125h-269l-31 -135h352l-31 -133h-524z" />
    <glyph glyph-name="uni1EC3" unicode="&#x1ec3;" horiz-adv-x="582" 
d="M531 644l-20 54q35 7 47.5 22.5t12.5 31.5q0 14 -9 20.5t-22 6.5t-23 -5.5t-18 -16.5l-63 54q16 27 47.5 44t74.5 17q45 0 78 -25.5t33 -73.5q0 -38 -18.5 -65t-49.5 -43t-70 -21zM162 559l140 162h152l65 -162h-109l-45 84l-84 -84h-119zM282 -9q-74 0 -130 28t-87 79.5
t-31 119.5q0 84 34.5 150t98 104t151.5 38q73 0 124.5 -27.5t78.5 -74.5t27 -109q0 -19 -2.5 -40.5t-9.5 -42.5h-392v79h283l-47 -24q4 13 5 23.5t1 19.5q0 26 -9 43t-25.5 25.5t-38.5 8.5q-35 0 -58.5 -16.5t-37.5 -44t-19.5 -60t-5.5 -62.5q0 -32 12.5 -54.5t34 -33.5
t50.5 -11q36 0 58 16.5t34 40.5l140 -54q-17 -38 -52.5 -65t-83 -41.5t-103.5 -14.5z" />
    <glyph glyph-name="uni1EC4" unicode="&#x1ec4;" 
d="M247 719l140 162h151l66 -162h-109l-46 84l-84 -84h-118zM666 1050q-10 -73 -46.5 -109t-83.5 -36q-24 0 -41 8t-29.5 19t-24.5 19t-26 8q-15 0 -24.5 -14t-14.5 -38h-88q10 73 45 109t84 36q21 0 37.5 -8t30 -18.5t26.5 -18.5t27 -8q15 0 25 13.5t15 37.5h88zM14 0
l153 660h514l-32 -133h-341l-31 -134h269l-29 -125h-269l-31 -135h352l-31 -133h-524z" />
    <glyph glyph-name="uni1EC5" unicode="&#x1ec5;" horiz-adv-x="582" 
d="M162 559l140 162h152l65 -162h-109l-45 84l-84 -84h-119zM581 890q-10 -73 -46.5 -109t-82.5 -36q-25 0 -42 8t-29.5 19t-24 19t-26.5 8t-24.5 -14t-14.5 -38h-88q11 73 45.5 109t83.5 36q21 0 37.5 -8t30 -18.5t26.5 -18.5t27 -8q15 0 25 13.5t16 37.5h87zM282 -9
q-74 0 -130 28t-87 79.5t-31 119.5q0 84 34.5 150t98 104t151.5 38q73 0 124.5 -27.5t78.5 -74.5t27 -109q0 -19 -2.5 -40.5t-9.5 -42.5h-392v79h283l-47 -24q4 13 5 23.5t1 19.5q0 26 -9 43t-25.5 25.5t-38.5 8.5q-35 0 -58.5 -16.5t-37.5 -44t-19.5 -60t-5.5 -62.5
q0 -32 12.5 -54.5t34 -33.5t50.5 -11q36 0 58 16.5t34 40.5l140 -54q-17 -38 -52.5 -65t-83 -41.5t-103.5 -14.5z" />
    <glyph glyph-name="uni1EC6" unicode="&#x1ec6;" 
d="M14 0l153 660h514l-32 -133h-341l-31 -134h269l-29 -125h-269l-31 -135h352l-31 -133h-524zM248 -222q-38 0 -61 16t-23 49q0 50 27.5 73t73.5 23q40 0 62.5 -16.5t22.5 -48.5q0 -51 -27.5 -73.5t-74.5 -22.5zM554 886l62 -163h-112l-45 91l-85 -91h-124l138 163h166z
" />
    <glyph glyph-name="uni1EC7" unicode="&#x1ec7;" horiz-adv-x="582" 
d="M282 -9q-74 0 -130 28.5t-87 79.5t-31 119q0 84 34.5 149.5t98 103.5t151.5 38q73 0 124.5 -27.5t78.5 -77.5t27 -118q0 -19 -2 -40t-8 -41h-394v92h283l-47 -26q4 14 5 24t1 19q0 26 -9 43t-25 25.5t-38 8.5q-36 0 -59.5 -17t-37.5 -44.5t-19.5 -59.5t-5.5 -62
q0 -32 12.5 -54t34 -33.5t50.5 -11.5q36 0 58 16.5t34 41.5l140 -55q-17 -38 -52.5 -65t-83 -41.5t-103.5 -14.5zM230 -222q-38 0 -61 16t-23 49q0 50 27.5 73t73.5 23q40 0 62.5 -16.5t22.5 -48.5q0 -51 -27.5 -73.5t-74.5 -22.5zM148 559l149 173h165l69 -173h-118l-48 88
l-88 -88h-129z" />
    <glyph glyph-name="uni1EC8" unicode="&#x1ec8;" horiz-adv-x="316" 
d="M339 660l-153 -660h-172l153 660h172zM249 698l-19 54q35 7 47.5 22.5t12.5 31.5q0 14 -9 20.5t-23 6.5q-12 0 -22 -5.5t-18 -16.5l-63 54q15 27 47 44t74 17q46 0 78.5 -25.5t32.5 -73.5q0 -38 -18 -65t-49 -43t-71 -21z" />
    <glyph glyph-name="uni1EC9" unicode="&#x1ec9;" horiz-adv-x="288" 
d="M287 500l-116 -500h-170l116 500h170zM200 546l-20 55q37 7 51 23t14 30t-9 21.5t-22 7.5t-23.5 -6.5t-19.5 -16.5l-61 54q16 26 47.5 43.5t74.5 17.5q47 0 79 -26t32 -73q0 -39 -18.5 -66.5t-51 -43t-73.5 -20.5z" />
    <glyph glyph-name="uni1ECA" unicode="&#x1eca;" horiz-adv-x="316" 
d="M339 660l-153 -660h-172l153 660h172zM61 -222q-38 0 -61 16t-23 49q0 50 27.5 73t73.5 23q40 0 62.5 -16.5t22.5 -48.5q0 -51 -27.5 -73.5t-74.5 -22.5z" />
    <glyph glyph-name="uni1ECB" unicode="&#x1ecb;" horiz-adv-x="288" 
d="M225 558q-44 0 -68.5 18t-19.5 58q5 46 31 66.5t73 20.5q45 0 69.5 -19t19.5 -56q-5 -49 -31.5 -68.5t-73.5 -19.5zM287 500l-116 -500h-170l116 500h170zM47 -222q-38 0 -61 16t-23 49q0 50 27.5 73t73.5 23q40 0 62.5 -16.5t22.5 -48.5q0 -51 -27.5 -73.5t-74.5 -22.5z
" />
    <glyph glyph-name="uni1ECC" unicode="&#x1ecc;" horiz-adv-x="732" 
d="M354 -10q-82 0 -149 34t-106 99.5t-39 157.5q0 82 23.5 153t69 124t112 82.5t151.5 29.5q83 0 149 -34.5t105 -99t39 -157.5q0 -82 -23.5 -152.5t-69 -124t-111.5 -83t-151 -29.5zM360 125q45 0 77.5 24t54.5 63.5t33 86.5t11 92q0 46 -15 78t-43 49t-69 17
q-44 0 -77 -24t-55 -63.5t-33 -86t-11 -92.5t15 -78t43.5 -49t68.5 -17zM294 -222q-38 0 -61 16t-23 49q0 50 27.5 73t73.5 23q40 0 62.5 -16.5t22.5 -48.5q0 -51 -27.5 -73.5t-74.5 -22.5z" />
    <glyph glyph-name="uni1ECD" unicode="&#x1ecd;" horiz-adv-x="600" 
d="M281 -10q-76 0 -131.5 30t-85.5 81.5t-30 115.5q0 81 33.5 147.5t97 106t154.5 39.5q77 0 132 -30t85 -81t30 -116q0 -80 -33.5 -147t-97 -106.5t-154.5 -39.5zM283 110q26 0 47.5 16.5t37 44.5t23.5 60.5t8 65.5q0 29 -9.5 49.5t-28 32t-45.5 11.5q-25 0 -46.5 -16.5
t-37 -44t-24 -60.5t-8.5 -66q0 -28 9.5 -49t28.5 -32.5t45 -11.5zM212 -222q-38 0 -61 16t-23 49q0 50 27.5 73t73.5 23q40 0 62.5 -16.5t22.5 -48.5q0 -51 -27.5 -73.5t-74.5 -22.5z" />
    <glyph glyph-name="uni1ECE" unicode="&#x1ece;" horiz-adv-x="732" 
d="M354 -10q-82 0 -149 34t-106 99.5t-39 157.5q0 82 23.5 153t69 124t112 82.5t151.5 29.5q83 0 149 -34.5t105 -99t39 -157.5q0 -82 -23.5 -152.5t-69 -124t-111.5 -83t-151 -29.5zM360 125q45 0 77.5 24t54.5 63.5t33 86.5t11 92q0 46 -15 78t-43 49t-69 17
q-44 0 -77 -24t-55 -63.5t-33 -86t-11 -92.5t15 -78t43.5 -49t68.5 -17zM433 698l-19 54q35 7 47.5 22.5t12.5 31.5q0 14 -9 20.5t-23 6.5q-12 0 -22 -5.5t-18 -16.5l-63 54q15 27 47 44t74 17q46 0 78.5 -25.5t32.5 -73.5q0 -38 -18 -65t-49 -43t-71 -21z" />
    <glyph glyph-name="uni1ECF" unicode="&#x1ecf;" horiz-adv-x="600" 
d="M281 -10q-76 0 -131.5 30t-85.5 81.5t-30 115.5q0 81 33.5 147.5t97 106t154.5 39.5q77 0 132 -30t85 -81t30 -116q0 -80 -33.5 -147t-97 -106.5t-154.5 -39.5zM283 110q26 0 47.5 16.5t37 44.5t23.5 60.5t8 65.5q0 29 -9.5 49.5t-28 32t-45.5 11.5q-25 0 -46.5 -16.5
t-37 -44t-24 -60.5t-8.5 -66q0 -28 9.5 -49t28.5 -32.5t45 -11.5zM340 546l-20 55q37 7 51 23t14 30t-9 21.5t-22 7.5t-23.5 -6.5t-19.5 -16.5l-61 54q16 26 47.5 43.5t74.5 17.5q47 0 79 -26t32 -73q0 -39 -18.5 -66.5t-51 -43t-73.5 -20.5z" />
    </font>
</defs>
</svg>
