<?xml version="1.0" standalone="no"?>
<!DOCTYPE svg PUBLIC "-//W3C//DTD SVG 1.1//EN" "http://www.w3.org/Graphics/SVG/1.1/DTD/svg11.dtd" >
<svg xmlns="http://www.w3.org/2000/svg" xmlns:xlink="http://www.w3.org/1999/xlink" version="1.1">
<metadata>
Created by FontForge 20170731 at Wed Aug 11 21:25:12 2021
 By Aleksey,,,
Copyright 2019 The Work Sans Project Authors (https://github.com/weiweihuanghuang/Work-Sans)
</metadata>
<defs>
<font id="WorkSans-BlackItalic" horiz-adv-x="652" >
  <font-face 
    font-family="Work Sans Black"
    font-weight="900"
    font-style="italic"
    font-stretch="normal"
    units-per-em="1000"
    panose-1="0 0 0 0 0 0 0 0 0 0"
    ascent="800"
    descent="-200"
    x-height="500"
    cap-height="660"
    bbox="-327 -322 1474 1105"
    underline-thickness="50"
    underline-position="-175"
    slope="-13"
    unicode-range="U+000D-FB02"
  />
<missing-glyph horiz-adv-x="500" 
d="M130 80h240v500h-240v-500zM50 0v660h400v-660h-400z" />
    <glyph glyph-name="fi" unicode="fi" horiz-adv-x="746" 
d="M24 0l120 520q18 78 56 121.5t91.5 61t118.5 17.5q44 0 78 -7t56 -18l-45 -139q-9 4 -22 7t-36 3q-36 0 -54 -11t-25 -40l-16 -65l5 -29l-97 -421h-230zM24 345l36 155h426l-36 -155h-426zM667 532q-57 0 -87.5 21t-22.5 72q8 56 39.5 77.5t92.5 21.5q59 0 89.5 -21.5
t22.5 -68.5q-8 -61 -40.5 -81.5t-93.5 -20.5zM765 500l-116 -500h-230l116 500h230z" />
    <glyph glyph-name="fl" unicode="fl" horiz-adv-x="793" 
d="M24 0l120 520q18 78 56 121.5t91.5 61t118.5 17.5q44 0 78 -7t56 -18l-45 -139q-9 4 -22 7t-36 3q-36 0 -54 -11t-25 -40l-16 -65l5 -29l-97 -421h-230zM24 345l36 155h426l-36 -155h-426zM639 -10q-103 0 -146 54.5t-21 148.5l118 507h230l-116 -501q-7 -29 2 -44
t36 -15q10 0 17.5 1t11.5 2l-37 -140q-16 -7 -39 -10t-56 -3z" />
    <glyph glyph-name="f_f" unicode="ff" horiz-adv-x="844" 
d="M24 0l120 520q18 78 56 121.5t91.5 61t118.5 17.5q44 0 78 -7t56 -18l-45 -139q-9 4 -22 7t-36 3q-36 0 -54 -11t-25 -40l-16 -65l5 -29l-97 -421h-230zM24 345l36 155h426l-36 -155h-426zM435 0l120 520q18 78 56 121.5t91.5 61t118.5 17.5q44 0 78 -7t56 -18l-45 -139
q-9 4 -22 7t-36 3q-36 0 -54 -11t-25 -40l-16 -65l5 -29l-97 -421h-230zM435 345l36 155h426l-36 -155h-426z" />
    <glyph glyph-name="f_f_i" unicode="ffi" horiz-adv-x="1157" 
d="M24 0l120 520q18 78 56 121.5t91.5 61t118.5 17.5q44 0 78 -7t56 -18l-45 -139q-9 4 -22 7t-36 3q-36 0 -54 -11t-25 -40l-16 -65l5 -29l-97 -421h-230zM24 345l36 155h426l-36 -155h-426zM435 0l120 520q18 78 56 121.5t91.5 61t118.5 17.5q44 0 78 -7t56 -18l-45 -139
q-9 4 -22 7t-36 3q-36 0 -54 -11t-25 -40l-16 -65l5 -29l-97 -421h-230zM435 345l36 155h426l-36 -155h-426zM1078 532q-57 0 -87.5 21t-22.5 72q8 56 39.5 77.5t92.5 21.5q59 0 89.5 -21.5t22.5 -68.5q-8 -61 -40.5 -81.5t-93.5 -20.5zM1176 500l-116 -500h-230l116 500
h230z" />
    <glyph glyph-name="f_f_l" unicode="ffl" horiz-adv-x="1204" 
d="M24 0l120 520q18 78 56 121.5t91.5 61t118.5 17.5q44 0 78 -7t56 -18l-45 -139q-9 4 -22 7t-36 3q-36 0 -54 -11t-25 -40l-16 -65l5 -29l-97 -421h-230zM24 345l36 155h426l-36 -155h-426zM435 0l120 520q18 78 56 121.5t91.5 61t118.5 17.5q44 0 78 -7t56 -18l-45 -139
q-9 4 -22 7t-36 3q-36 0 -54 -11t-25 -40l-16 -65l5 -29l-97 -421h-230zM435 345l36 155h426l-36 -155h-426zM1050 -10q-103 0 -146 54.5t-21 148.5l118 507h230l-116 -501q-7 -29 2 -44t36 -15q10 0 17.5 1t11.5 2l-37 -140q-16 -7 -39 -10t-56 -3z" />
    <glyph glyph-name=".notdef" horiz-adv-x="500" 
d="M130 80h240v500h-240v-500zM50 0v660h400v-660h-400z" />
    <glyph glyph-name=".null" horiz-adv-x="0" 
 />
    <glyph glyph-name="nonmarkingreturn" horiz-adv-x="333" 
 />
    <glyph glyph-name="NULL" horiz-adv-x="0" 
 />
    <glyph glyph-name="NULL" horiz-adv-x="0" 
 />
    <glyph glyph-name="CR" unicode="&#xd;" horiz-adv-x="250" 
 />
    <glyph glyph-name="space" unicode=" " horiz-adv-x="250" 
 />
    <glyph glyph-name="exclam" unicode="!" horiz-adv-x="321" 
d="M57 220l40 276l38 164h240l-38 -164l-88 -276h-192zM121 -7q-52 0 -82 20t-30 61q0 51 32 81.5t91 30.5q51 0 81 -20.5t30 -61.5q0 -51 -31.5 -81t-90.5 -30z" />
    <glyph glyph-name="quotedbl" unicode="&#x22;" horiz-adv-x="486" 
d="M553 670l-101 -297h-153l69 297h185zM332 670l-101 -297h-153l69 297h185z" />
    <glyph glyph-name="numbersign" unicode="#" horiz-adv-x="721" 
d="M326 0l207 660h152l-208 -660h-151zM35 142v129h619v-129h-619zM73 0l207 660h152l-207 -660h-152zM104 389v129h619v-129h-619z" />
    <glyph glyph-name="dollar" unicode="$" horiz-adv-x="643" 
d="M333 -3q-69 0 -135 14.5t-123.5 45.5t-99.5 80l121 135q26 -36 66.5 -62.5t87.5 -41.5t92 -15q23 0 37 4t20.5 12t6.5 19q0 14 -12 23.5t-50 21.5l-104 32q-50 16 -86.5 40.5t-56 59.5t-19.5 82q0 73 38.5 120t105 70t148.5 23q55 0 113.5 -13.5t112 -42.5t92.5 -74
l-115 -125q-33 34 -65 56t-67.5 33.5t-80.5 11.5q-39 0 -59 -10.5t-20 -25.5q0 -8 4 -15t13.5 -12.5t25.5 -10.5l143 -42q65 -19 102 -62.5t37 -103.5q0 -77 -36.5 -127.5t-98.5 -75t-138 -24.5zM185 -80l190 820h130l-190 -820h-130z" />
    <glyph glyph-name="percent" unicode="%" horiz-adv-x="1077" 
d="M147 0l639 661h180l-639 -661h-180zM272 286q-56 0 -99.5 22t-68 63t-24.5 96q0 60 28 105.5t76 71.5t108 26q56 0 99.5 -22t68 -62.5t24.5 -96.5q0 -59 -28 -105t-76 -72t-108 -26zM278 434q13 0 23 6.5t16 17.5t6 26q0 18 -11 28t-26 10q-14 0 -24 -6t-15.5 -17.5
t-5.5 -26.5q0 -18 11 -28t26 -10zM822 -9q-56 0 -99.5 22t-68 63t-24.5 96q0 60 28 105.5t76 71.5t108 26q56 0 99.5 -22t68 -62.5t24.5 -96.5q0 -59 -28 -105t-76 -72t-108 -26zM828 139q13 0 23 6t16 17.5t6 26.5q0 18 -11 28t-26 10q-14 0 -24 -6t-15.5 -17.5t-5.5 -26.5
q0 -18 11 -28t26 -10z" />
    <glyph glyph-name="ampersand" unicode="&#x26;" horiz-adv-x="668" 
d="M228 -11q-68 0 -118.5 23.5t-77.5 65t-27 93.5q0 65 29.5 111.5t82 74t121.5 32.5l54 26q38 3 67 8.5t45.5 20.5t16.5 43q0 18 -11 29t-29 11q-31 0 -42 -18.5t-11 -38.5q0 -12 2.5 -26t12 -34.5t29.5 -53t54 -82.5q32 -46 61 -79.5t63 -49.5t81 -10l-41 -145h-29
q-55 0 -96.5 18t-81.5 57.5t-88 105.5q-57 78 -87 129.5t-41.5 89.5t-11.5 75q0 59 28.5 105.5t81 73t125.5 26.5q92 0 146 -38.5t54 -105.5q0 -60 -33 -103.5t-90 -69t-130 -32.5l-7 -31q-34 -5 -62.5 -16.5t-45.5 -30t-17 -45.5q0 -34 23 -52t63 -18q32 0 56 15t48 39
l25 13q22 16 35.5 44.5t24.5 72.5h147q-21 -73 -54.5 -128.5t-78.5 -85.5l-22 -13q-30 -25 -64 -47t-77.5 -35.5t-102.5 -13.5z" />
    <glyph glyph-name="quotesingle" unicode="'" horiz-adv-x="265" 
d="M332 670l-101 -297h-153l69 297h185z" />
    <glyph glyph-name="parenleft" unicode="(" horiz-adv-x="427" 
d="M224 -193q-73 77 -112 170.5t-39 214.5q0 89 25.5 170t72.5 150.5t112.5 124t144.5 89.5l80 -100q-80 -57 -133.5 -127t-79.5 -155.5t-26 -192.5q0 -76 19 -134t54 -110z" />
    <glyph glyph-name="parenright" unicode=")" horiz-adv-x="427" 
d="M211 726q73 -77 112 -170t39 -215q0 -89 -25.5 -170t-72.5 -150.5t-112 -124t-145 -89.5l-80 100q81 58 134 127.5t79 155.5t26 192q0 77 -19 134.5t-54 109.5z" />
    <glyph glyph-name="asterisk" unicode="*" horiz-adv-x="599" 
d="M381 210l-53 132l-2 12l-10 -15l-108 -113l-107 110l116 105l15 9l-13 3l-131 56l79 141l123 -68l14 -11v20l26 139h159l-42 -155l-8 -16l16 7l148 36l14 -154l-149 -25l-19 1l11 -14l63 -126z" />
    <glyph glyph-name="plus" unicode="+" horiz-adv-x="604" 
d="M472 606l-127 -551h-175l127 551h175zM595 407l-35 -153h-514l35 153h514z" />
    <glyph glyph-name="comma" unicode="," horiz-adv-x="302" 
d="M115 206q67 0 94 -32.5t27 -80.5q0 -57 -30 -110t-83.5 -92.5t-125.5 -56.5l-49 77q37 10 69.5 25.5t56.5 33.5t37 34l-3 4q-7 -3 -13.5 -4.5t-17.5 -1.5q-33 0 -60 25.5t-27 64.5q0 53 34.5 83.5t90.5 30.5z" />
    <glyph glyph-name="hyphen" unicode="-" horiz-adv-x="540" 
d="M490 359l-40 -175h-390l40 175h390z" />
    <glyph glyph-name="period" unicode="." horiz-adv-x="302" 
d="M111 -7q-54 0 -85.5 22.5t-31.5 67.5q0 56 33.5 89.5t94.5 33.5q54 0 85.5 -22.5t31.5 -67.5q0 -56 -33 -89.5t-95 -33.5z" />
    <glyph glyph-name="slash" unicode="/" horiz-adv-x="488" 
d="M592 700l-441 -770h-225l441 770h225z" />
    <glyph glyph-name="zero" unicode="0" horiz-adv-x="651" 
d="M314 -11q-88 0 -147.5 32t-89 91.5t-29.5 140.5q0 24 2.5 50t7.5 53q12 62 34 119t58 101t90.5 69.5t132.5 25.5q89 0 148 -32.5t89 -91.5t30 -141q0 -24 -2.5 -49.5t-7.5 -52.5q-12 -62 -34 -119t-58.5 -101t-91 -69.5t-132.5 -25.5zM313 166q23 0 38 14.5t28 48.5
t28 92q11 38 15.5 66.5t4.5 48.5q0 29 -12.5 44t-41.5 15q-22 0 -37.5 -14.5t-28 -48t-28.5 -92.5q-10 -37 -15 -66t-5 -49q0 -19 5.5 -32.5t17.5 -20t31 -6.5z" />
    <glyph glyph-name="one" unicode="1" horiz-adv-x="453" 
d="M116 0l72 310q7 29 14.5 60.5t17.5 65.5q-25 -19 -53.5 -34.5t-56.5 -26t-54 -14.5l34 192q31 6 71 23t80.5 39.5t69.5 44.5h181l-153 -660h-223z" />
    <glyph glyph-name="two" unicode="2" horiz-adv-x="588" 
d="M-11 0l33 140q57 29 117.5 67t112.5 79.5t84.5 82.5t32.5 76q0 20 -12 35t-37 15q-34 0 -52.5 -28t-22.5 -84l-198 57q13 73 49.5 124.5t98 78.5t149.5 27q91 0 147.5 -30t82.5 -75t26 -90q0 -51 -18.5 -92.5t-50 -74t-72 -58.5t-84.5 -47t-87 -38v-2q24 3 63 4.5t82 1.5
h121l-39 -169h-526z" />
    <glyph glyph-name="three" unicode="3" horiz-adv-x="595" 
d="M295 -10q-133 0 -207 57.5t-79 151.5l210 40q0 -43 16.5 -60.5t51.5 -17.5q15 0 27.5 6.5t20 18.5t7.5 29q0 32 -22 41t-51 9q-6 0 -11 -0.5t-12 -1.5l31 132q6 -2 16.5 -3t21.5 -1q23 0 38 7.5t22 21t7 30.5q0 16 -7 26t-18.5 15.5t-26.5 5.5q-28 0 -45 -14t-23 -48
l-194 61q29 87 98 130.5t175 43.5q85 0 143.5 -22t88.5 -62t30 -95q0 -46 -18.5 -82t-51.5 -58t-79 -25l-1 -4q27 -4 52.5 -19.5t41.5 -43t16 -68.5q0 -65 -36.5 -110t-97.5 -68t-134 -23z" />
    <glyph glyph-name="four" unicode="4" horiz-adv-x="673" 
d="M296 0l29 126h-311l35 151q21 29 45 56.5t49 56.5l237 270h269l-89 -383h109l-35 -151h-109l-29 -126h-200zM220 277h140l56 224l-122 -144q-17 -21 -35.5 -40.5t-38.5 -39.5z" />
    <glyph glyph-name="five" unicode="5" horiz-adv-x="570" 
d="M275 -10q-67 0 -123 19.5t-96 56t-59 86.5l204 77q3 -21 11.5 -37.5t25 -26t42.5 -9.5q25 0 41.5 9.5t25.5 25.5t9 36q0 17 -9.5 29.5t-27 20t-42.5 7.5q-22 0 -38 -5.5t-32 -13.5l-163 34l115 361h455l-40 -171h-284l-39 -112q21 23 52 35.5t74 12.5q56 0 97.5 -23
t64.5 -63t23 -92q0 -81 -38 -138.5t-102.5 -88t-146.5 -30.5z" />
    <glyph glyph-name="six" unicode="6" horiz-adv-x="611" 
d="M336 -12q-83 0 -147.5 32.5t-101 94.5t-36.5 149q0 85 23 157.5t67.5 127t109.5 85t149 30.5q102 0 164.5 -46.5t75.5 -120.5l-190 -77q0 29 -15.5 49t-49.5 20q-27 0 -47.5 -13.5t-35 -36t-23 -49.5t-11.5 -54q22 29 61.5 44.5t82.5 15.5q80 0 131.5 -45.5t51.5 -125.5
q0 -70 -33.5 -123.5t-91.5 -83.5t-134 -30zM327 149q20 0 33.5 8.5t20.5 23t7 32.5q0 26 -17.5 38t-40.5 12q-18 0 -32 -8t-22 -22t-8 -31q0 -12 4.5 -22t12 -16.5t18.5 -10.5t24 -4z" />
    <glyph glyph-name="seven" unicode="7" horiz-adv-x="638" 
d="M130 660h572l-37 -159q-94 -75 -151 -155t-88.5 -166.5t-50.5 -179.5h-226q19 107 64 203.5t123 184t195 165.5l35 -68h-477z" />
    <glyph glyph-name="eight" unicode="8" horiz-adv-x="645" 
d="M334 -13q-60 0 -116.5 12t-101 36.5t-70.5 61.5t-26 87q0 51 20 85t56.5 53.5t84.5 28.5v1q-26 14 -44.5 33t-27.5 43t-9 51q0 64 33.5 105.5t90 62.5t125.5 21q77 0 143 -21t107 -62.5t41 -105.5q0 -67 -37.5 -109t-107.5 -58v-1q31 -14 52.5 -33.5t33.5 -44.5t12 -54
q0 -64 -34.5 -107t-93.5 -64t-131 -21zM314 148q20 0 33.5 8t20.5 21.5t7 29.5q0 17 -9 29t-25 19t-38 7q-19 0 -32.5 -8t-20 -21t-6.5 -29t8 -28.5t24 -20t38 -7.5zM370 396q19 0 31.5 8t19.5 21.5t7 28.5q0 24 -17.5 39t-46.5 15q-20 0 -33.5 -8t-20 -20.5t-6.5 -27.5
q0 -16 8 -28.5t22.5 -20t35.5 -7.5z" />
    <glyph glyph-name="nine" unicode="9" horiz-adv-x="606" 
d="M262 -10q-63 0 -116.5 20t-87.5 58.5t-41 94.5l205 49q1 -17 8 -29t20 -18.5t30 -6.5q22 0 37.5 11t26.5 30t18 43.5t12 51.5q-12 -17 -30 -28.5t-40.5 -16.5t-48.5 -5q-57 0 -102 23.5t-70.5 66.5t-25.5 99q0 72 36.5 125.5t98 82.5t136.5 29q81 0 140 -28.5t91.5 -88
t32.5 -151.5q0 -80 -20 -154t-60.5 -132t-103 -92t-146.5 -34zM321 390q17 0 31.5 6.5t24 20.5t9.5 35q0 16 -8.5 27t-22 17.5t-29.5 6.5q-20 0 -34.5 -8.5t-21.5 -22.5t-7 -31q0 -14 7.5 -26t21 -18.5t29.5 -6.5z" />
    <glyph glyph-name="colon" unicode=":" horiz-adv-x="296" 
d="M128 -7q-54 0 -85.5 22.5t-31.5 67.5q0 56 33.5 89.5t94.5 33.5q54 0 85.5 -22.5t31.5 -67.5q0 -56 -33 -89.5t-95 -33.5zM218 383q-54 0 -85.5 22.5t-31.5 67.5q0 56 33.5 89.5t94.5 33.5q54 0 85.5 -22.5t31.5 -67.5q0 -56 -33 -89.5t-95 -33.5z" />
    <glyph glyph-name="semicolon" unicode=";" horiz-adv-x="302" 
d="M192 510q54 0 85.5 -22.5t31.5 -67.5q0 -56 -33 -89.5t-95 -33.5q-54 0 -85.5 22.5t-31.5 67.5q0 56 33.5 89.5t94.5 33.5zM115 206q67 0 94 -32.5t27 -80.5q0 -57 -30 -110t-83.5 -92.5t-125.5 -56.5l-49 77q37 10 69.5 25.5t56.5 33.5t37 34l-3 4q-7 -3 -13.5 -4.5
t-17.5 -1.5q-33 0 -60 25.5t-27 64.5q0 53 34.5 83.5t90.5 30.5z" />
    <glyph glyph-name="less" unicode="&#x3c;" horiz-adv-x="604" 
d="M638 599l-52 -220l-330 -87l285 -109l-44 -193l-451 213l42 183z" />
    <glyph glyph-name="equal" unicode="=" horiz-adv-x="604" 
d="M599 511l-33 -145h-474l33 145h474zM547 284l-34 -145h-474l34 145h474z" />
    <glyph glyph-name="greater" unicode="&#x3e;" horiz-adv-x="605" 
d="M-13 -10l52 220l330 87l-285 109l44 193l451 -213l-42 -183z" />
    <glyph glyph-name="question" unicode="?" horiz-adv-x="640" 
d="M192 218l34 157q49 1 90 7.5t66.5 24t25.5 49.5q0 18 -12 28t-35 10q-27 0 -43.5 -18t-26.5 -56l-216 70q14 48 50.5 89t101.5 66t163 25q80 0 138.5 -21.5t91 -62t32.5 -96.5q0 -62 -26.5 -106t-81 -69.5t-137.5 -34.5l-21 -62h-194zM262 -6q-51 0 -81 20t-30 61
q0 50 31.5 80t90.5 30q51 0 81 -20t30 -61q0 -50 -31.5 -80t-90.5 -30z" />
    <glyph glyph-name="at" unicode="@" horiz-adv-x="923" 
d="M454 -179q-121 0 -216.5 43.5t-151 129t-55.5 211.5q0 104 34 189t96.5 146.5t147 95t185.5 33.5q85 0 157 -24.5t125 -71.5t82.5 -115.5t29.5 -156.5q0 -91 -22.5 -151t-58.5 -94t-77 -48t-77 -14q-51 0 -87.5 16.5t-56 48t-19.5 74.5q-22 -55 -63 -87t-91 -32
q-38 0 -69 21t-49 62.5t-18 101.5q0 48 13.5 95t40 86.5t65.5 63t89 23.5q23 0 46.5 -8.5t42 -29t24.5 -58.5l20 87h197l-59 -258q-3 -14 -5 -26t-2 -23q0 -26 11.5 -39t35.5 -13q16 0 31 10.5t26.5 33.5t18 60t6.5 90q0 73 -22.5 127.5t-64 91t-97.5 55t-123 18.5
q-82 0 -149 -26.5t-115.5 -76t-75 -119.5t-26.5 -158q0 -77 26.5 -133.5t73.5 -93.5t108 -55t130 -18q43 0 80 8t63 18l23 -77q-21 -9 -48 -16.5t-59 -12t-71 -4.5zM432 155q22 0 36 22t21 51.5t7 51.5q0 15 -3.5 25t-11 15t-19.5 5q-18 0 -30.5 -13.5t-21 -33t-12 -39.5
t-3.5 -34q0 -15 4 -26.5t12 -17.5t21 -6z" />
    <glyph glyph-name="A" unicode="A" horiz-adv-x="689" 
d="M-68 0l369 660h280l60 -660h-219l-3 132h-184l-65 -132h-238zM307 277h108l-3 220z" />
    <glyph glyph-name="B" unicode="B" horiz-adv-x="708" 
d="M-8 0l153 660h354q98 0 155.5 -41.5t57.5 -115.5q0 -53 -23.5 -90t-61.5 -58.5t-84 -28.5v-1q59 -4 96.5 -38t37.5 -90q0 -67 -32.5 -110.5t-91.5 -65t-137 -21.5h-424zM250 152h117q35 0 55.5 12.5t20.5 40.5q0 14 -6.5 23.5t-19 14.5t-31.5 5h-113zM309 404h92
q24 0 40.5 6.5t25 18.5t8.5 28q0 21 -14.5 32t-40.5 11h-89z" />
    <glyph glyph-name="C" unicode="C" horiz-adv-x="698" 
d="M352 -10q-91 0 -160.5 35.5t-109 100t-39.5 150.5q0 91 25.5 163.5t73.5 124t117 79t156 27.5q82 0 145.5 -28t103 -80.5t48.5 -126.5l-220 -43q2 50 -16.5 76.5t-62.5 26.5q-37 0 -63.5 -23t-43.5 -58.5t-24.5 -75.5t-7.5 -75q0 -30 9.5 -52t29.5 -34t53 -12
q41 0 64.5 26t39.5 67l205 -75q-44 -91 -123.5 -142t-199.5 -51z" />
    <glyph glyph-name="D" unicode="D" horiz-adv-x="709" 
d="M-8 0l153 660h261q100 0 166 -33.5t99 -94t33 -142.5q0 -89 -24 -161t-71.5 -123t-115.5 -78.5t-157 -27.5h-344zM264 166h55q41 0 70.5 21t47.5 55t26.5 74.5t8.5 79.5q0 32 -10 54t-30 33t-51 11h-42z" />
    <glyph glyph-name="E" unicode="E" horiz-adv-x="626" 
d="M-8 0l153 660h554l-40 -171h-321l-19 -82h254l-36 -158h-254l-18 -78h327l-40 -171h-560z" />
    <glyph glyph-name="F" unicode="F" horiz-adv-x="609" 
d="M647 489h-309l-21 -92h251l-40 -171h-251l-52 -226h-233l153 660h542z" />
    <glyph glyph-name="G" unicode="G" horiz-adv-x="720" 
d="M308 -10q-76 0 -136 35t-95 99.5t-35 153.5q0 82 25 153t73 125t118 84t160 30q82 0 145 -27.5t101.5 -78.5t44.5 -120l-216 -32q0 35 -18.5 59t-59.5 24q-29 0 -54.5 -14.5t-45 -41t-30.5 -63.5t-11 -82q0 -41 11 -72t36 -48t67 -17q26 0 45 7t32 19.5t20 27.5l8 17
h-126l32 140h306l-94 -368h-148l38 171l19 -20q-17 -52 -44.5 -88t-68.5 -54.5t-99 -18.5z" />
    <glyph glyph-name="H" unicode="H" horiz-adv-x="747" 
d="M792 660l-153 -660h-233l153 660h233zM378 660l-153 -660h-233l153 660h233zM632 417l-40 -171h-431l40 171h431z" />
    <glyph glyph-name="I" unicode="I" horiz-adv-x="333" 
d="M378 660l-153 -660h-233l153 660h233z" />
    <glyph glyph-name="J" unicode="J" horiz-adv-x="649" 
d="M294 -10q-88 0 -148 26.5t-92.5 71.5t-36.5 102.5t21 119.5l234 9q-23 -57 -23 -91t16.5 -48.5t43.5 -14.5q35 0 50.5 29t30.5 95l86 371h233l-94 -408q-18 -79 -55 -138t-101 -91.5t-165 -32.5z" />
    <glyph glyph-name="K" unicode="K" horiz-adv-x="717" 
d="M-8 0l153 660h233l-52 -223l231 223h251l-286 -278l141 -382h-236l-84 236l-81 -75l-37 -161h-233z" />
    <glyph glyph-name="L" unicode="L" horiz-adv-x="615" 
d="M265 171h309l-40 -171h-542l153 660h233z" />
    <glyph glyph-name="M" unicode="M" horiz-adv-x="948" 
d="M-8 0l153 660h285l21 -260l5 -169h1l80 170l132 259h324l-153 -660h-203l53 229l48 208h-2l-231 -437h-175l-42 430h-2l-38 -201l-53 -229h-203z" />
    <glyph glyph-name="N" unicode="N" horiz-adv-x="746" 
d="M-8 0l153 660h242l89 -311l23 -93h2l31 159l57 245h202l-153 -660h-239l-93 300l-25 94h-2l-28 -149l-57 -245h-202z" />
    <glyph glyph-name="O" unicode="O" horiz-adv-x="725" 
d="M351 -10q-88 0 -158 34.5t-110 100t-40 156.5q0 86 25 157.5t72.5 123.5t116 80t154.5 28q89 0 158.5 -34.5t109.5 -99.5t40 -157q0 -86 -25 -157.5t-72.5 -123.5t-116 -80t-154.5 -28zM355 165q34 0 58.5 22.5t41 58.5t24.5 77.5t8 78.5q0 31 -8.5 51.5t-26 31
t-45.5 10.5q-34 0 -58.5 -22.5t-41 -58.5t-24.5 -77.5t-8 -78.5q0 -30 8.5 -51t26.5 -31.5t45 -10.5z" />
    <glyph glyph-name="P" unicode="P" horiz-adv-x="700" 
d="M-8 0l153 660h285q131 0 204.5 -54.5t73.5 -155.5q0 -76 -36 -134.5t-103.5 -91.5t-162.5 -33h-248l37 165h191q30 0 50.5 10.5t31.5 28t11 38.5q0 29 -17 45.5t-60 16.5h-63l-114 -495h-233z" />
    <glyph glyph-name="Q" unicode="Q" horiz-adv-x="725" 
d="M466 -210q-41 0 -82 9t-74.5 28.5t-54 51t-20.5 77.5q0 11 1 25.5t7 35.5h141q-3 -6 -4 -11.5t-1 -10.5q0 -25 30.5 -34t74.5 -9q36 0 63 5.5t46 13.5v-153q-22 -12 -52.5 -20t-74.5 -8zM351 -10q-88 0 -158 34.5t-110 100t-40 156.5q0 86 25 157.5t72.5 123.5t116 80
t154.5 28q89 0 158.5 -34.5t109.5 -99.5t40 -157q0 -86 -25 -157.5t-72.5 -123.5t-116 -80t-154.5 -28zM355 165q34 0 58.5 22.5t41 58.5t24.5 77.5t8 78.5q0 31 -8.5 51.5t-26 31t-45.5 10.5q-34 0 -58.5 -22.5t-41 -58.5t-24.5 -77.5t-8 -78.5q0 -30 8.5 -51t26.5 -31.5
t45 -10.5z" />
    <glyph glyph-name="R" unicode="R" horiz-adv-x="704" 
d="M-8 0l153 660h328q110 0 174 -51t64 -143q0 -82 -38.5 -136.5t-106 -81.5t-155.5 -27l-29 -10h-127l35 153h99q29 0 50 9t33 26t12 39q0 31 -20.5 43.5t-49.5 12.5h-80l-114 -494h-228zM423 0l-105 289l205 34l131 -323h-231z" />
    <glyph glyph-name="S" unicode="S" horiz-adv-x="640" 
d="M328 -13q-67 0 -130.5 15.5t-118.5 47.5t-99 81l116 138q28 -32 67 -57t81 -39.5t79 -14.5q19 0 29.5 4.5t15.5 11.5t5 16q0 11 -10.5 18.5t-34.5 15.5l-93 33q-41 15 -78 39.5t-60 62.5t-23 91q0 75 38 123.5t103 72.5t146 24q108 0 183 -34.5t133 -90.5l-123 -134
q-25 25 -56 44.5t-65 30.5t-69 11q-16 0 -26.5 -3t-15.5 -9t-5 -15q0 -12 15 -20.5t40 -17.5l85 -30q77 -27 118.5 -70.5t41.5 -117.5q0 -72 -38 -123t-103 -77.5t-148 -26.5z" />
    <glyph glyph-name="T" unicode="T" horiz-adv-x="686" 
d="M761 660l-40 -171h-206l-113 -489h-233l113 489h-207l40 171h646z" />
    <glyph glyph-name="U" unicode="U" horiz-adv-x="711" 
d="M332 -10q-107 0 -178.5 37t-100 106t-6.5 164l85 363h234l-89 -390q-7 -33 0 -56.5t26.5 -36t49.5 -12.5q38 0 59 22t32 72l93 401h233l-92 -394q-34 -143 -115 -209.5t-231 -66.5z" />
    <glyph glyph-name="V" unicode="V" horiz-adv-x="687" 
d="M793 660l-366 -660h-277l-60 660h219l11 -355l2 -129l56 128l180 356h235z" />
    <glyph glyph-name="W" unicode="W" horiz-adv-x="1021" 
d="M121 0l-34 660h230l-17 -473l190 473h200l1 -473l176 473h256l-341 -660h-252l4 248l15 177h-3l-70 -177l-102 -248h-253z" />
    <glyph glyph-name="X" unicode="X" horiz-adv-x="708" 
d="M-62 0l308 341l-146 319h253l58 -157l116 157h261l-295 -328l161 -332h-254l-59 158l-123 -158h-280z" />
    <glyph glyph-name="Y" unicode="Y" horiz-adv-x="713" 
d="M182 0l55 237l-133 423h219l41 -151l25 -117l68 117l99 151h243l-333 -439l-51 -221h-233z" />
    <glyph glyph-name="Z" unicode="Z" horiz-adv-x="644" 
d="M-26 0l39 169l401 325h-337l39 166h590l-39 -169l-400 -325h342l-39 -166h-596z" />
    <glyph glyph-name="bracketleft" unicode="[" horiz-adv-x="420" 
d="M468 550h-120l-131 -567h120l-35 -151h-315l201 869h315z" />
    <glyph glyph-name="backslash" unicode="\" horiz-adv-x="464" 
d="M104 700h201l85 -770h-201z" />
    <glyph glyph-name="bracketright" unicode="]" horiz-adv-x="420" 
d="M-41 -17h120l131 567h-120l35 151h315l-201 -869h-315z" />
    <glyph glyph-name="asciicircum" unicode="^" horiz-adv-x="647" 
d="M47 355l291 365h189l121 -365h-189l-60 223l-149 -223h-203z" />
    <glyph glyph-name="underscore" unicode="_" horiz-adv-x="539" 
d="M471 -45l-41 -175h-539l41 175h539z" />
    <glyph glyph-name="grave" unicode="`" horiz-adv-x="500" 
d="M435 730l19 -177h-154l-72 177h207z" />
    <glyph glyph-name="a" unicode="a" horiz-adv-x="619" 
d="M174 -10q-44 0 -80.5 20.5t-57.5 62t-21 105.5q0 59 16 118t47 107.5t76 77.5t103 29q26 0 53 -10t48 -33.5t28 -66.5l23 100h230l-116 -500h-210l17 95q-25 -49 -65.5 -77t-90.5 -28zM284 152q18 0 32 14.5t23.5 37.5t14 47.5t4.5 43.5q0 17 -4.5 28.5t-13 17.5t-21.5 6
q-21 0 -35.5 -15.5t-23.5 -38t-13.5 -46t-4.5 -38.5q0 -17 4.5 -30t13.5 -20t24 -7z" />
    <glyph glyph-name="b" unicode="b" horiz-adv-x="619" 
d="M456 510q45 0 78 -20.5t51.5 -61.5t18.5 -103q0 -58 -15.5 -117.5t-44.5 -108.5t-71 -79t-95 -30q-30 0 -61.5 9.5t-55 33t-31.5 65.5l-28 -98h-222l162 700h230l-64 -280q26 43 64 66.5t84 23.5zM300 153q21 0 35.5 15.5t23.5 38t13.5 46t4.5 38.5q0 18 -4 30.5
t-13.5 19.5t-24.5 7q-18 0 -32 -14.5t-23.5 -37.5t-14 -47t-4.5 -44q0 -25 10 -38.5t29 -13.5z" />
    <glyph glyph-name="c" unicode="c" horiz-adv-x="579" 
d="M292 -10q-85 0 -146.5 28.5t-94 80t-32.5 119.5q0 78 34 144.5t101.5 107t168.5 40.5q77 0 134.5 -24.5t89 -69.5t28.5 -108l-216 -30q7 36 0 56t-36 20q-21 0 -36 -17t-25 -42.5t-15 -53t-5 -48.5q0 -18 6 -29t16.5 -15.5t23.5 -4.5q20 0 35.5 17t22.5 43l201 -63
q-30 -69 -95.5 -110t-159.5 -41z" />
    <glyph glyph-name="d" unicode="d" horiz-adv-x="619" 
d="M174 -10q-44 0 -80.5 20.5t-57.5 62t-21 105.5q0 59 16 118t47 107.5t76 77.5t103 29q26 0 53 -10t48 -33.5t28 -66.5l69 300h230l-162 -700h-210l17 95q-25 -49 -65.5 -77t-90.5 -28zM284 152q18 0 32 14.5t23.5 37.5t14 47.5t4.5 43.5q0 17 -4.5 28.5t-13 17.5t-21.5 6
q-21 0 -35.5 -15.5t-23.5 -38t-13.5 -46t-4.5 -38.5q0 -17 4.5 -30t13.5 -20t24 -7z" />
    <glyph glyph-name="e" unicode="e" horiz-adv-x="588" 
d="M286 -9q-77 0 -137.5 27t-94.5 78.5t-34 122.5q0 88 36.5 153.5t103 101.5t155.5 36q81 0 138 -28.5t86.5 -78.5t29.5 -116q0 -19 -2 -40t-8 -41h-382l-1 85h224l-55 -21q5 14 5.5 23t0.5 17q0 19 -5.5 29.5t-14.5 15t-20 4.5q-26 0 -42.5 -15t-25 -39t-11.5 -51t-3 -50
t8 -37t22.5 -20t32.5 -6q26 0 40.5 13.5t20.5 31.5l192 -62q-15 -42 -53 -72t-91 -45.5t-115 -15.5z" />
    <glyph glyph-name="f" unicode="f" horiz-adv-x="433" 
d="M24 0l120 520q18 78 56 121.5t91.5 61t118.5 17.5q44 0 78 -7t56 -18l-45 -139q-9 4 -22 7t-36 3q-36 0 -54 -11t-25 -40l-16 -65l5 -29l-97 -421h-230zM24 345l36 155h426l-36 -155h-426z" />
    <glyph glyph-name="g" unicode="g" horiz-adv-x="618" 
d="M208 -215q-46 0 -90 11t-79 35t-54 61.5t-16 89.5l231 12q-4 -33 2 -52.5t36 -19.5q15 0 26.5 9.5t20 28.5t15.5 50l45 192l6 -9q-16 -89 -59 -134t-113 -45q-44 0 -80 20t-57 61t-21 104q0 57 16 112.5t47 100.5t75 71.5t101 26.5q31 0 61.5 -15t50.5 -50.5t17 -95.5
l-23 -36l43 187h230l-106 -460q-22 -97 -64 -152.5t-106.5 -79t-154.5 -23.5zM290 173q24 0 39 20t22.5 48.5t7.5 54.5q0 16 -5 27.5t-14 17.5t-21 6q-26 0 -42 -21.5t-23 -49t-7 -46.5q0 -26 9.5 -41.5t33.5 -15.5z" />
    <glyph glyph-name="h" unicode="h" horiz-adv-x="618" 
d="M-20 0l162 700h230l-75 -324l-17 -34q12 43 36 81t64 62.5t97 24.5q45 0 77.5 -22t45.5 -61t1 -91l-78 -336h-230l68 290q5 23 -3.5 36.5t-28.5 13.5q-14 0 -25 -7.5t-18.5 -22t-12.5 -36.5l-63 -274h-230z" />
    <glyph glyph-name="i" unicode="i" horiz-adv-x="308" 
d="M229 532q-57 0 -87.5 21t-22.5 72q8 56 39.5 77.5t92.5 21.5q59 0 89.5 -21.5t22.5 -68.5q-8 -61 -40.5 -81.5t-93.5 -20.5zM327 500l-116 -500h-230l116 500h230z" />
    <glyph glyph-name="j" unicode="j" horiz-adv-x="308" 
d="M229 532q-57 0 -87.5 21t-22.5 72q8 56 39.5 77.5t92.5 21.5q59 0 89.5 -21.5t22.5 -68.5q-8 -61 -40.5 -81.5t-93.5 -20.5zM-16 -215q-42 0 -83.5 7t-70.5 26l45 135q11 -6 22 -9.5t23 -3.5q31 0 42.5 15.5t20.5 53.5l114 491h230l-119 -513q-25 -106 -76.5 -154
t-147.5 -48z" />
    <glyph glyph-name="k" unicode="k" horiz-adv-x="657" 
d="M708 500l-304 -272l-23 -8l-172 -155l15 201l230 234h254zM372 700l-162 -700h-230l162 700h230zM463 366l155 -366h-221l-89 234z" />
    <glyph glyph-name="l" unicode="l" horiz-adv-x="345" 
d="M191 -10q-103 0 -146 54.5t-21 148.5l118 507h230l-116 -501q-7 -29 2 -44t36 -15q10 0 17.5 1t11.5 2l-37 -140q-16 -7 -39 -10t-56 -3z" />
    <glyph glyph-name="m" unicode="m" horiz-adv-x="932" 
d="M-20 0l116 500h205l-30 -191l-8 20q21 86 74 133.5t130 47.5q51 0 85 -22.5t47 -63.5t0 -98l-76 -326h-230l68 290q5 23 -3.5 36.5t-28.5 13.5q-14 0 -25 -7.5t-18.5 -22t-12.5 -36.5l-63 -274h-230zM607 0l68 290q5 23 -3.5 36.5t-28.5 13.5q-14 0 -25 -7.5t-18.5 -22
t-12.5 -36.5l-10 55q21 86 73 133.5t126 47.5q53 0 88 -22.5t48.5 -63.5t0.5 -98l-76 -326h-230z" />
    <glyph glyph-name="n" unicode="n" horiz-adv-x="618" 
d="M-20 0l116 500h205l-30 -191l-8 20q21 86 74 133.5t130 47.5q51 0 85 -22.5t47 -63.5t0 -98l-76 -326h-230l68 290q5 23 -3.5 36.5t-28.5 13.5q-14 0 -25 -7.5t-18.5 -22t-12.5 -36.5l-63 -274h-230z" />
    <glyph glyph-name="o" unicode="o" horiz-adv-x="603" 
d="M280 -10q-79 0 -137.5 29t-91 80.5t-32.5 118.5q0 78 34 144.5t101.5 107t168.5 40.5q79 0 137.5 -29t91 -80.5t32.5 -118.5q0 -77 -34 -144t-101.5 -107.5t-168.5 -40.5zM282 144q19 0 33.5 17t24.5 43.5t15 54t5 48.5q0 19 -5.5 29.5t-14.5 15t-20 4.5q-19 0 -33.5 -17
t-24.5 -43.5t-15 -54t-5 -48.5q0 -18 5.5 -29t14.5 -15.5t20 -4.5z" />
    <glyph glyph-name="p" unicode="p" horiz-adv-x="619" 
d="M-68 -210l164 710h210l-36 -202l-9 19q11 60 39.5 103t69 66.5t86.5 23.5q45 0 78 -20.5t51.5 -61.5t18.5 -103q0 -58 -15 -117.5t-44.5 -108.5t-70.5 -79t-94 -30q-34 0 -69 12.5t-58.5 45t-23.5 90.5l24 49l-91 -397h-230zM300 153q21 0 35.5 15.5t23.5 38t13.5 46
t4.5 38.5q0 18 -4 30.5t-13.5 19.5t-24.5 7q-18 0 -32 -14.5t-23.5 -37.5t-14 -47t-4.5 -44q0 -25 10 -38.5t29 -13.5z" />
    <glyph glyph-name="q" unicode="q" horiz-adv-x="619" 
d="M252 -210l95 412l11 -19q-16 -89 -65 -141t-119 -52q-44 0 -80.5 20.5t-57.5 62t-21 105.5q0 59 16 118t47 107.5t76 77.5t103 29q31 0 62.5 -14t52 -50.5t17.5 -102.5l-23 -30l43 187h230l-165 -710h-222zM284 152q18 0 32 14.5t23.5 37.5t14 47.5t4.5 43.5
q0 17 -4.5 28.5t-13 17.5t-21.5 6q-21 0 -35.5 -15.5t-23.5 -38t-13.5 -46t-4.5 -38.5q0 -17 4.5 -30t13.5 -20t24 -7z" />
    <glyph glyph-name="r" unicode="r" horiz-adv-x="447" 
d="M-20 0l116 500h207l-43 -226l-5 23q16 63 41 111t64.5 75t96.5 27q17 0 28 -2.5t18 -6.5l-53 -188q-10 5 -24 8t-37 3q-27 0 -53.5 -11.5t-47 -37.5t-31.5 -71l-47 -204h-230z" />
    <glyph glyph-name="s" unicode="s" horiz-adv-x="527" 
d="M255 -10q-51 0 -105 13t-100 37.5t-77 60.5l96 106q31 -31 74.5 -54t80.5 -23q17 0 25.5 4.5t8.5 12.5q0 7 -5.5 12.5t-19.5 9.5l-42 14q-83 28 -117 63t-34 92t30.5 95t83.5 57.5t120 19.5q83 0 147 -25t107 -66l-89 -110q-16 16 -41 30t-53 22.5t-56 8.5q-13 0 -19 -4
t-6 -11t5.5 -12t18.5 -9l90 -29q54 -17 83.5 -51t29.5 -85q0 -55 -27.5 -95t-80 -62t-128.5 -22z" />
    <glyph glyph-name="t" unicode="t" horiz-adv-x="458" 
d="M270 -10q-71 0 -120 23.5t-68.5 71t-3.5 119.5l93 402l245 64l-106 -457q-10 -34 7.5 -53.5t57.5 -19.5q22 0 33.5 2t21.5 5l-28 -138q-28 -10 -62.5 -14.5t-69.5 -4.5zM24 345l36 155h441l-36 -155h-441z" />
    <glyph glyph-name="u" unicode="u" horiz-adv-x="618" 
d="M153 -10q-52 0 -86.5 22t-47.5 62t-1 95l77 331h230l-67 -290q-6 -25 4 -37.5t30 -12.5q15 0 24.5 7.5t16.5 22.5t12 36l63 274h230l-116 -500h-205l30 191l8 -22q-22 -85 -74.5 -132t-127.5 -47z" />
    <glyph glyph-name="v" unicode="v" horiz-adv-x="588" 
d="M398 500h258l-277 -500h-286l-45 500h226l-12 -476l-42 7z" />
    <glyph glyph-name="w" unicode="w" horiz-adv-x="932" 
d="M58 0l-9 500h225l-20 -335l148 335h226v-335l128 335h243l-248 -500h-283v248l-118 -248h-292z" />
    <glyph glyph-name="x" unicode="x" horiz-adv-x="630" 
d="M-69 0l255 281l76 -29l170 248h265l-250 -276l-89 25l-155 -249h-272zM336 0l-69 249l-90 -18l-121 269h246l51 -248l101 22l127 -274h-245z" />
    <glyph glyph-name="y" unicode="y" horiz-adv-x="594" 
d="M66 -215q-47 0 -88.5 10t-64.5 25l57 155q35 -29 92 -29q25 0 44.5 7t28.5 21l3 5l-88 521h234l-6 -258l-6 -120l47 121l103 257h240l-284 -504q-43 -77 -87.5 -123.5t-98.5 -67t-126 -20.5z" />
    <glyph glyph-name="z" unicode="z" horiz-adv-x="511" 
d="M-30 0l31 132l183 172l58 48l-73 -4h-122l35 152h457l-31 -132l-180 -170l-60 -50l82 4h122l-35 -152h-467z" />
    <glyph glyph-name="braceleft" unicode="{" horiz-adv-x="466" 
d="M344 -193q-133 0 -195.5 51t-37.5 168l13 59q14 60 -7.5 86.5t-68.5 26.5h-10l32 137h30q38 0 64.5 19.5t36.5 65.5l29 124q23 98 82 140t164 42h87l-32 -137h-37q-32 0 -59.5 -23.5t-40.5 -76.5l-26 -115q-10 -46 -38 -72.5t-74 -34.5q41 -13 56 -42t4 -76l-24 -104
q-13 -54 7.5 -77.5t62.5 -23.5h20l-31 -137h-7z" />
    <glyph glyph-name="bar" unicode="|" horiz-adv-x="372" 
d="M392 701l-201 -869h-204l201 869h204z" />
    <glyph glyph-name="braceright" unicode="}" horiz-adv-x="466" 
d="M-89 -193l32 137h36q40 0 65 24.5t36 75.5l26 115q11 46 38.5 72.5t73.5 34.5q-40 13 -55 42t-5 76l24 104q13 54 -6 77.5t-54 23.5h-30l31 137h58q63 0 110.5 -21.5t69 -65.5t6.5 -112l-17 -79q-13 -60 8.5 -86.5t70.5 -26.5h7l-32 -137h-30q-38 0 -64 -19.5t-37 -65.5
l-29 -124q-22 -98 -80 -140t-156 -42h-97z" />
    <glyph glyph-name="asciitilde" unicode="~" horiz-adv-x="627" 
d="M629 452q-14 -89 -45.5 -138t-72.5 -67.5t-82 -18.5q-35 0 -60 9t-44.5 21t-36 21t-35.5 9q-15 0 -27 -12.5t-19 -39.5h-165q12 85 44 133.5t75.5 69.5t89.5 21q28 0 50.5 -9t42 -21t37 -21t36.5 -9q15 0 27.5 12.5t19.5 39.5h165z" />
    <glyph glyph-name="uni00A0" unicode="&#xa0;" horiz-adv-x="250" 
 />
    <glyph glyph-name="exclamdown" unicode="&#xa1;" horiz-adv-x="321" 
d="M264 280l-40 -276l-38 -164h-240l38 164l88 276h192zM200 507q52 0 82 -20t30 -61q0 -51 -32 -81.5t-91 -30.5q-51 0 -81 20.5t-30 61.5q0 51 31.5 81t90.5 30z" />
    <glyph glyph-name="cent" unicode="&#xa2;" horiz-adv-x="581" 
d="M281 -10q-78 0 -137 29.5t-92 82t-33 121.5q0 88 35.5 152t100.5 99.5t153 35.5q84 0 142 -26.5t89 -72t32 -102.5l-185 -22q5 41 -14 65t-59 24q-37 0 -60.5 -24.5t-34.5 -62.5t-11 -79q0 -27 8.5 -46.5t26 -29.5t43.5 -10q32 0 51 18t31 61l178 -55q-24 -71 -94 -114.5
t-170 -43.5zM149 -100l160 700h130l-160 -700h-130z" />
    <glyph glyph-name="sterling" unicode="&#xa3;" horiz-adv-x="641" 
d="M55 267l19 83h434l-19 -83h-434zM420 -11q-43 0 -77 13t-62.5 32t-54 37.5t-50.5 31.5t-54 13q-13 0 -22.5 -8t-9.5 -20q0 -13 9 -21t22 -8q27 0 39.5 17t16.5 42.5t4 48.5q0 44 -8.5 79.5t-19 66.5t-19 63t-8.5 70q0 67 32 117t90 78.5t134 28.5q72 0 127.5 -23
t86.5 -69.5t27 -117.5l-188 -36q2 41 -10.5 64t-45.5 23q-17 0 -31 -7.5t-22.5 -23t-8.5 -38.5q0 -24 5.5 -51.5t10.5 -58t5 -65.5q0 -52 -15 -102t-44 -90t-68.5 -63.5t-89.5 -23.5q-51 0 -83 26t-32 69q0 50 35.5 75t84.5 25q27 0 57.5 -5t61.5 -12.5t59.5 -15t53.5 -12.5
t43 -5q25 0 40.5 16.5t19.5 56.5l137 -21q4 -64 -22 -107.5t-68 -66t-88 -22.5z" />
    <glyph glyph-name="currency" unicode="&#xa4;" horiz-adv-x="654" 
d="M346 536q64 0 112 -26t75 -72t27 -108t-27 -108.5t-75 -72.5t-112 -26q-65 0 -113.5 26t-75.5 72.5t-27 108.5t27 108t75.5 72t113.5 26zM346 384q-25 0 -39 -14t-14 -40q0 -25 14 -39.5t39 -14.5q24 0 37.5 14.5t13.5 39.5q0 26 -13.5 40t-37.5 14zM171 632l139 -166
l-102 -102l-166 139zM208 295l102 -102l-139 -166l-129 129zM488 290l160 -134l-130 -129l-134 160zM518 632l130 -129l-160 -135l-104 104z" />
    <glyph glyph-name="yen" unicode="&#xa5;" horiz-adv-x="697" 
d="M174 0l31 131h-171l13 59h171l14 61h-171l14 59h90l70 -4l-143 354h212l44 -182l26 -104h2l56 105l88 181h251l-289 -354l72 4h90l-14 -59h-171l-14 -61h171l-13 -59h-171l-31 -131h-227z" />
    <glyph glyph-name="brokenbar" unicode="&#xa6;" horiz-adv-x="372" 
d="M392 701l-90 -391h-204l90 391h204zM282 223l-91 -391h-204l91 391h204z" />
    <glyph glyph-name="section" unicode="&#xa7;" horiz-adv-x="643" 
d="M288 -111q-57 0 -114 15t-103.5 45.5t-72.5 76.5l122 82q29 -42 78.5 -65t97.5 -23q25 0 42.5 7t17.5 22q0 11 -12 20t-38 18l-129 46q-68 24 -109 59t-41 102q0 58 31 93.5t84.5 51t120.5 13.5l35 -92q-66 -4 -91 -12t-25 -31q0 -18 15.5 -27.5t43.5 -18.5l140 -45
q65 -21 102 -55t37 -84q0 -60 -30.5 -104.5t-83 -69t-118.5 -24.5zM383 102l-38 94q30 -1 57 1t44 11t17 26q0 15 -15 23.5t-32 13.5l-179 59q-32 11 -56 31.5t-37 49t-13 63.5q0 62 30.5 105.5t83.5 66.5t119 23q61 0 112.5 -13t93 -40.5t70.5 -72.5l-126 -87
q-23 38 -61 55.5t-88 17.5q-22 0 -35 -5.5t-18.5 -13.5t-5.5 -18q0 -11 11.5 -23t58.5 -25l73 -20q83 -22 126 -60.5t43 -95.5q0 -61 -31 -102.5t-84 -58t-120 -5.5z" />
    <glyph glyph-name="dieresis" unicode="&#xa8;" horiz-adv-x="500" 
d="M449 537q-44 0 -71 16.5t-27 55.5q0 59 31.5 83.5t86.5 24.5q44 0 70 -16.5t26 -54.5q0 -60 -31 -84.5t-85 -24.5zM208 537q-44 0 -71 16.5t-27 55.5q0 59 31.5 83.5t86.5 24.5q44 0 70 -16.5t26 -54.5q0 -60 -31 -84.5t-85 -24.5z" />
    <glyph glyph-name="copyright" unicode="&#xa9;" horiz-adv-x="759" 
d="M398 -10q-99 0 -177.5 42.5t-123.5 119t-45 178.5q0 103 45 179t123.5 118.5t177.5 42.5q100 0 178 -42.5t123 -118.5t45 -179q0 -102 -45 -178.5t-123 -119t-178 -42.5zM398 86q74 0 129.5 30.5t86.5 85.5t31 128q0 74 -31 128.5t-86.5 85t-129.5 30.5t-129.5 -30.5
t-86.5 -85t-31 -128.5q0 -73 31 -128t86.5 -85.5t129.5 -30.5zM403 135q-94 0 -145.5 53.5t-51.5 141.5q0 89 51.5 142t145.5 53q74 0 121 -33t63 -88l-125 -59q-9 17 -21 22t-29 5q-21 0 -34 -10.5t-13 -31.5t13 -31.5t35 -10.5q15 0 28.5 4.5t21.5 25.5l120 -60
q-27 -68 -68 -95.5t-112 -27.5z" />
    <glyph glyph-name="ordfeminine" unicode="&#xaa;" horiz-adv-x="476" 
d="M182 292q-47 0 -80 33t-33 100q0 42 11.5 83.5t33.5 76t54 55t73 20.5q22 0 44 -10t36.5 -35.5t12.5 -72.5l-16 -21l30 132h163l-82 -354h-149l26 143l6 -13q-11 -63 -45.5 -100t-84.5 -37zM8 117l26 113h396l-26 -113h-396zM260 407q17 0 28.5 17.5t17.5 41.5t6 42
q0 17 -7 27t-21 10q-19 0 -31 -18.5t-17.5 -41.5t-5.5 -38q0 -19 7 -29.5t23 -10.5z" />
    <glyph glyph-name="guillemotleft" unicode="&#xab;" horiz-adv-x="637" 
d="M385 461l-205 -243l3 122l109 -271h-185l-80 196l169 196h189zM661 461l-205 -243l3 122l109 -271h-185l-80 196l169 196h189z" />
    <glyph glyph-name="logicalnot" unicode="&#xac;" horiz-adv-x="604" 
d="M558 310l-54 -235h-175l54 235h175zM580 407l-35 -153h-484l35 153h484z" />
    <glyph glyph-name="uni00AD" unicode="&#xad;" horiz-adv-x="540" 
d="M490 359l-40 -175h-390l40 175h390z" />
    <glyph glyph-name="registered" unicode="&#xae;" horiz-adv-x="761" 
d="M399 670q105 0 182.5 -42.5t120.5 -118.5t43 -179q0 -102 -43 -178.5t-120.5 -119t-182.5 -42.5q-104 0 -182 42.5t-121 119t-43 178.5q0 103 43 179t121 118.5t182 42.5zM371 517v-360h-124v360h124zM471 320l101 -163h-152l-58 140zM399 574q-74 0 -129 -30.5
t-85.5 -85t-30.5 -128.5q0 -73 30.5 -128t85.5 -85.5t129 -30.5t129 30.5t85.5 85.5t30.5 128q0 74 -30.5 128.5t-85.5 85t-129 30.5zM438 517q35 0 63 -16t45 -43t17 -62q0 -58 -39 -89.5t-106 -31.5h-101v82h82q16 0 26.5 5.5t10.5 21.5t-10.5 21.5t-26.5 5.5h-82v106h121
z" />
    <glyph glyph-name="macron" unicode="&#xaf;" horiz-adv-x="500" 
d="M544 681l-31 -130h-388l31 130h388z" />
    <glyph glyph-name="degree" unicode="&#xb0;" horiz-adv-x="500" 
d="M301 270q-70 0 -120 24t-77 69t-27 107t27 107t77 69t120 24t119.5 -24t76.5 -69t27 -107t-27 -107t-76.5 -69t-119.5 -24zM301 408q29 0 46.5 17.5t17.5 45.5t-17.5 45t-46.5 17t-47 -17t-18 -45t18 -45.5t47 -17.5z" />
    <glyph glyph-name="plusminus" unicode="&#xb1;" horiz-adv-x="604" 
d="M475 660l-105 -454h-155l105 454h155zM618 506l-34 -146h-514l34 146h514zM534 141l-32 -140h-514l32 140h514z" />
    <glyph glyph-name="uni00B2" unicode="&#xb2;" horiz-adv-x="398" 
d="M44 334l23 101q37 14 76.5 32.5t74 39t56 41.5t21.5 42q0 15 -6 20.5t-17 5.5q-19 0 -28 -14t-11 -40l-150 28q12 70 60 108t142 38q83 0 126 -31t43 -81q0 -42 -17 -70t-45 -46t-61 -30t-65 -23v-1q19 2 40.5 2.5t46.5 0.5h75l-28 -123h-356z" />
    <glyph glyph-name="uni00B3" unicode="&#xb3;" horiz-adv-x="396" 
d="M245 327q-91 0 -140 35.5t-52 91.5l144 25q0 -23 11 -32.5t28 -9.5q15 0 24 7t9 22q0 14 -9 20t-24 6q-9 0 -14.5 -0.5t-10.5 -1.5l19 77q7 -1 13.5 -2t13.5 -1q21 0 28 8.5t7 20.5t-7.5 18t-21.5 6t-23.5 -7t-14.5 -23l-134 41q12 47 57.5 78t130.5 31q71 0 119.5 -28
t48.5 -81q0 -40 -24.5 -69.5t-68.5 -31.5l-1 -3q29 -2 50.5 -18.5t21.5 -51.5q0 -42 -24.5 -70.5t-65.5 -42.5t-90 -14z" />
    <glyph glyph-name="acute" unicode="&#xb4;" horiz-adv-x="600" 
d="M337 730h209l-150 -177h-161z" />
    <glyph glyph-name="uni00B5" unicode="&#xb5;" horiz-adv-x="619" 
d="M-67 -210l163 710h230l-67 -290q-5 -22 2.5 -36t31.5 -14q15 0 24.5 7.5t16.5 22.5t12 36l63 274h230l-116 -500h-205l18 112q-28 -57 -72.5 -89t-105.5 -32q-22 0 -46 4t-50 14l174 89l-73 -308h-230z" />
    <glyph glyph-name="paragraph" unicode="&#xb6;" horiz-adv-x="812" 
d="M221 -100l60 261q-27 0 -63.5 11.5t-72 38t-58.5 71.5t-23 112q0 83 40.5 142.5t113.5 91.5t170 32h469l-176 -760h-183l136 588h-94l-136 -588h-183zM315 340l34 148h-18q-29 0 -49 -9.5t-30.5 -28.5t-10.5 -48q0 -28 19 -45t55 -17z" />
    <glyph glyph-name="periodcentered" unicode="&#xb7;" horiz-adv-x="302" 
d="M169 246q-54 0 -85.5 22.5t-31.5 67.5q0 56 33.5 89.5t94.5 33.5q54 0 85.5 -22.5t31.5 -67.5q0 -56 -33 -89.5t-95 -33.5z" />
    <glyph glyph-name="cedilla" unicode="&#xb8;" horiz-adv-x="500" 
d="M119 6l46 23q63 -6 97.5 -35t34.5 -75q0 -41 -19 -72t-52.5 -48t-78.5 -17q-40 0 -69.5 10t-52.5 30l52 89q11 -9 28 -13.5t28 -4.5q23 0 38.5 16t15.5 36q0 18 -16.5 34.5t-51.5 26.5z" />
    <glyph glyph-name="uni00B9" unicode="&#xb9;" horiz-adv-x="307" 
d="M130 334l42 180q2 8 6 22.5t8 27t4 13.5q-25 -13 -60 -22t-58 -9l28 120q29 6 58.5 16t55.5 22.5t43 25.5h123l-92 -396h-158z" />
    <glyph glyph-name="ordmasculine" unicode="&#xba;" horiz-adv-x="464" 
d="M270 292q-91 0 -138.5 45t-47.5 116q0 55 24 102t71.5 76t119.5 29q90 0 137 -45t47 -116q0 -55 -23 -102t-70.5 -76t-119.5 -29zM5 117l26 113h392l-26 -113h-392zM270 401q18 0 30 20.5t18.5 48t6.5 46.5q0 20 -8.5 27.5t-19.5 7.5q-18 0 -30.5 -20.5t-18.5 -47.5
t-6 -47q0 -19 8 -27t20 -8z" />
    <glyph glyph-name="guillemotright" unicode="&#xbb;" horiz-adv-x="637" 
d="M-17 69l190 233l13 -119l-111 278h181l84 -196l-165 -196h-192zM259 69l190 233l13 -119l-111 278h181l84 -196l-165 -196h-192z" />
    <glyph glyph-name="onequarter" unicode="&#xbc;" horiz-adv-x="922" 
d="M115 269l42 180q2 8 6 22.5t8 27t4 13.5q-25 -13 -60 -22t-58 -9l28 120q29 6 58.5 16t55.5 22.5t43 25.5h123l-92 -396h-158zM75 0l627 661h155l-627 -661h-155zM652 -3l17 74h-189l24 93q12 15 22.5 28.5t22 27t24.5 28.5l124 145h185l-50 -219h66l-23 -103h-66
l-17 -74h-140zM634 174h59l29 121l-58 -83q-8 -11 -15.5 -20.5t-14.5 -17.5z" />
    <glyph glyph-name="onehalf" unicode="&#xbd;" horiz-adv-x="986" 
d="M115 269l42 180q2 8 6 22.5t8 27t4 13.5q-25 -13 -60 -22t-58 -9l28 120q29 6 58.5 16t55.5 22.5t43 25.5h123l-92 -396h-158zM75 0l627 661h155l-627 -661h-155zM554 -3l23 101q37 14 76.5 32.5t74 39t56 41.5t21.5 42q0 15 -6 20.5t-17 5.5q-19 0 -28 -14t-11 -40
l-150 28q12 70 60 108t142 38q83 0 126 -31t43 -81q0 -42 -17 -70t-45 -46t-61 -30t-65 -23v-1q19 2 40.5 2.5t46.5 0.5h75l-28 -123h-356z" />
    <glyph glyph-name="threequarters" unicode="&#xbe;" horiz-adv-x="1011" 
d="M230 262q-91 0 -140 35.5t-52 91.5l144 25q0 -23 11 -32.5t28 -9.5q15 0 24 7t9 22q0 14 -9 20t-24 6q-9 0 -14.5 -0.5t-10.5 -1.5l19 77q7 -1 13.5 -2t13.5 -1q21 0 28 8.5t7 20.5t-7.5 18t-21.5 6t-23.5 -7t-14.5 -23l-134 41q12 47 57.5 78t130.5 31q71 0 119.5 -28
t48.5 -81q0 -40 -24.5 -69.5t-68.5 -31.5l-1 -3q29 -2 50.5 -18.5t21.5 -51.5q0 -42 -24.5 -70.5t-65.5 -42.5t-90 -14zM164 0l627 661h155l-627 -661h-155zM741 -3l17 74h-189l24 93q12 15 22.5 28.5t22 27t24.5 28.5l124 145h185l-50 -219h66l-23 -103h-66l-17 -74h-140z
M723 174h59l29 121l-58 -83q-8 -11 -15.5 -20.5t-14.5 -17.5z" />
    <glyph glyph-name="questiondown" unicode="&#xbf;" horiz-adv-x="640" 
d="M448 283l-34 -157q-48 -1 -89.5 -7.5t-67 -23.5t-25.5 -50q0 -18 12.5 -28t34.5 -10q27 0 43.5 18t26.5 56l216 -70q-14 -48 -50.5 -89t-101 -66t-163.5 -25q-79 0 -138 21.5t-91.5 62t-32.5 96.5q0 62 26.5 106t81 70t137.5 34l21 62h194zM378 507q51 0 81 -20t30 -61
q0 -50 -31.5 -80t-90.5 -30q-51 0 -81 20t-30 61q0 50 31.5 80t90.5 30z" />
    <glyph glyph-name="Agrave" unicode="&#xc0;" horiz-adv-x="689" 
d="M-68 0l369 660h280l60 -660h-219l-3 132h-184l-65 -132h-238zM307 277h108l-3 220zM502 876l26 -167h-148l-69 167h191z" />
    <glyph glyph-name="Aacute" unicode="&#xc1;" horiz-adv-x="689" 
d="M-68 0l369 660h280l60 -660h-219l-3 132h-184l-65 -132h-238zM307 277h108l-3 220zM463 876h200l-130 -167h-167z" />
    <glyph glyph-name="Acircumflex" unicode="&#xc2;" horiz-adv-x="689" 
d="M-68 0l369 660h280l60 -660h-219l-3 132h-184l-65 -132h-238zM307 277h108l-3 220zM600 876l55 -167h-142l-37 82l-73 -82h-154l133 167h218z" />
    <glyph glyph-name="Atilde" unicode="&#xc3;" horiz-adv-x="689" 
d="M-68 0l369 660h280l60 -660h-219l-3 132h-184l-65 -132h-238zM307 277h108l-3 220zM682 879q-13 -90 -56.5 -133t-97.5 -43q-27 0 -45.5 8t-32.5 18t-26.5 18t-26.5 8t-23 -13.5t-14 -36.5h-116q14 90 54 133t98 43q21 0 39 -8t33.5 -18t30 -18t28.5 -8t23.5 12.5
t15.5 37.5h116z" />
    <glyph glyph-name="Adieresis" unicode="&#xc4;" horiz-adv-x="689" 
d="M-68 0l369 660h280l60 -660h-219l-3 132h-184l-65 -132h-238zM307 277h108l-3 220zM574 697q-44 0 -71 16.5t-27 55.5q0 59 31.5 83.5t86.5 24.5q44 0 70 -16.5t26 -54.5q0 -60 -31 -84.5t-85 -24.5zM333 697q-44 0 -71 16.5t-27 55.5q0 59 31.5 83.5t86.5 24.5
q44 0 70 -16.5t26 -54.5q0 -60 -31 -84.5t-85 -24.5z" />
    <glyph glyph-name="Aring" unicode="&#xc5;" horiz-adv-x="689" 
d="M-68 0l369 660h280l60 -660h-219l-3 132h-184l-65 -132h-238zM307 277h108l-3 220zM452 839q68 0 106.5 -32t38.5 -85q0 -63 -43.5 -103.5t-111.5 -40.5q-67 0 -106 31.5t-39 84.5q0 63 43.5 104t111.5 41zM449 750q-18 0 -31.5 -12.5t-13.5 -35.5q0 -16 11 -25.5
t30 -9.5q18 0 31 12.5t13 34.5q0 17 -10.5 26.5t-29.5 9.5z" />
    <glyph glyph-name="AE" unicode="&#xc6;" horiz-adv-x="904" 
d="M-68 0l357 660h682l-38 -161h-261l-22 -96h200l-34 -149h-200l-22 -93h273l-37 -161h-487l43 185h-126l-85 -185h-243zM322 321h95l43 186h-53z" />
    <glyph glyph-name="Ccedilla" unicode="&#xc7;" horiz-adv-x="698" 
d="M352 -10q-91 0 -160.5 35.5t-109 100t-39.5 150.5q0 91 25.5 163.5t73.5 124t117 79t156 27.5q82 0 145.5 -28t103 -80.5t48.5 -126.5l-220 -43q2 50 -16.5 76.5t-62.5 26.5q-37 0 -63.5 -23t-43.5 -58.5t-24.5 -75.5t-7.5 -75q0 -30 9.5 -52t29.5 -34t53 -12
q41 0 64.5 26t39.5 67l205 -75q-44 -91 -123.5 -142t-199.5 -51zM235 6l46 23q63 -6 97.5 -35t34.5 -75q0 -41 -19 -72t-52.5 -48t-78.5 -17q-40 0 -69.5 10t-52.5 30l52 89q11 -9 28 -13.5t28 -4.5q23 0 38.5 16t15.5 36q0 18 -16.5 34.5t-51.5 26.5z" />
    <glyph glyph-name="Egrave" unicode="&#xc8;" horiz-adv-x="626" 
d="M-8 0l153 660h554l-40 -171h-321l-19 -82h254l-36 -158h-254l-18 -78h327l-40 -171h-560zM480 876l26 -167h-148l-69 167h191z" />
    <glyph glyph-name="Eacute" unicode="&#xc9;" horiz-adv-x="626" 
d="M-8 0l153 660h554l-40 -171h-321l-19 -82h254l-36 -158h-254l-18 -78h327l-40 -171h-560zM430 876h200l-130 -167h-167z" />
    <glyph glyph-name="Ecircumflex" unicode="&#xca;" horiz-adv-x="626" 
d="M-8 0l153 660h554l-40 -171h-321l-19 -82h254l-36 -158h-254l-18 -78h327l-40 -171h-560zM578 876l55 -167h-142l-37 82l-73 -82h-154l133 167h218z" />
    <glyph glyph-name="Edieresis" unicode="&#xcb;" horiz-adv-x="626" 
d="M-8 0l153 660h554l-40 -171h-321l-19 -82h254l-36 -158h-254l-18 -78h327l-40 -171h-560zM552 697q-44 0 -71 16.5t-27 55.5q0 59 31.5 83.5t86.5 24.5q44 0 70 -16.5t26 -54.5q0 -60 -31 -84.5t-85 -24.5zM311 697q-44 0 -71 16.5t-27 55.5q0 59 31.5 83.5t86.5 24.5
q44 0 70 -16.5t26 -54.5q0 -60 -31 -84.5t-85 -24.5z" />
    <glyph glyph-name="Igrave" unicode="&#xcc;" horiz-adv-x="333" 
d="M378 660l-153 -660h-233l153 660h233zM322 876l26 -167h-148l-69 167h191z" />
    <glyph glyph-name="Iacute" unicode="&#xcd;" horiz-adv-x="333" 
d="M378 660l-153 -660h-233l153 660h233zM283 876h200l-130 -167h-167z" />
    <glyph glyph-name="Icircumflex" unicode="&#xce;" horiz-adv-x="333" 
d="M378 660l-153 -660h-233l153 660h233zM420 876l55 -167h-142l-37 82l-73 -82h-154l133 167h218z" />
    <glyph glyph-name="Idieresis" unicode="&#xcf;" horiz-adv-x="333" 
d="M394 697q-44 0 -71 16.5t-27 55.5q0 59 31.5 83.5t86.5 24.5q44 0 70 -16.5t26 -54.5q0 -60 -31 -84.5t-85 -24.5zM153 697q-44 0 -71 16.5t-27 55.5q0 59 31.5 83.5t86.5 24.5q44 0 70 -16.5t26 -54.5q0 -60 -31 -84.5t-85 -24.5zM378 660l-153 -660h-233l153 660h233z
" />
    <glyph glyph-name="Eth" unicode="&#xd0;" horiz-adv-x="737" 
d="M5 253l34 150h393l-34 -150h-393zM20 0l153 660h261q100 0 166 -33.5t99 -94t33 -142.5q0 -89 -24 -161t-71.5 -123t-115.5 -78.5t-157 -27.5h-344zM292 166h55q41 0 70.5 21t47.5 55t26.5 74.5t8.5 79.5q0 32 -10 54t-30 33t-51 11h-42z" />
    <glyph glyph-name="Ntilde" unicode="&#xd1;" horiz-adv-x="746" 
d="M-8 0l153 660h242l89 -311l23 -93h2l31 159l57 245h202l-153 -660h-239l-93 300l-25 94h-2l-28 -149l-57 -245h-202zM709 879q-13 -90 -56.5 -133t-97.5 -43q-27 0 -45.5 8t-32.5 18t-26.5 18t-26.5 8t-23 -13.5t-14 -36.5h-116q14 90 54 133t98 43q21 0 39 -8t33.5 -18
t30 -18t28.5 -8t23.5 12.5t15.5 37.5h116z" />
    <glyph glyph-name="Ograve" unicode="&#xd2;" horiz-adv-x="725" 
d="M351 -10q-88 0 -158 34.5t-110 100t-40 156.5q0 86 25 157.5t72.5 123.5t116 80t154.5 28q89 0 158.5 -34.5t109.5 -99.5t40 -157q0 -86 -25 -157.5t-72.5 -123.5t-116 -80t-154.5 -28zM355 165q34 0 58.5 22.5t41 58.5t24.5 77.5t8 78.5q0 31 -8.5 51.5t-26 31
t-45.5 10.5q-34 0 -58.5 -22.5t-41 -58.5t-24.5 -77.5t-8 -78.5q0 -30 8.5 -51t26.5 -31.5t45 -10.5zM498 876l26 -167h-148l-69 167h191z" />
    <glyph glyph-name="Oacute" unicode="&#xd3;" horiz-adv-x="725" 
d="M351 -10q-88 0 -158 34.5t-110 100t-40 156.5q0 86 25 157.5t72.5 123.5t116 80t154.5 28q89 0 158.5 -34.5t109.5 -99.5t40 -157q0 -86 -25 -157.5t-72.5 -123.5t-116 -80t-154.5 -28zM355 165q34 0 58.5 22.5t41 58.5t24.5 77.5t8 78.5q0 31 -8.5 51.5t-26 31
t-45.5 10.5q-34 0 -58.5 -22.5t-41 -58.5t-24.5 -77.5t-8 -78.5q0 -30 8.5 -51t26.5 -31.5t45 -10.5zM459 876h200l-130 -167h-167z" />
    <glyph glyph-name="Ocircumflex" unicode="&#xd4;" horiz-adv-x="725" 
d="M351 -10q-88 0 -158 34.5t-110 100t-40 156.5q0 86 25 157.5t72.5 123.5t116 80t154.5 28q89 0 158.5 -34.5t109.5 -99.5t40 -157q0 -86 -25 -157.5t-72.5 -123.5t-116 -80t-154.5 -28zM355 165q34 0 58.5 22.5t41 58.5t24.5 77.5t8 78.5q0 31 -8.5 51.5t-26 31
t-45.5 10.5q-34 0 -58.5 -22.5t-41 -58.5t-24.5 -77.5t-8 -78.5q0 -30 8.5 -51t26.5 -31.5t45 -10.5zM596 876l55 -167h-142l-37 82l-73 -82h-154l133 167h218z" />
    <glyph glyph-name="Otilde" unicode="&#xd5;" horiz-adv-x="725" 
d="M351 -10q-88 0 -158 34.5t-110 100t-40 156.5q0 86 25 157.5t72.5 123.5t116 80t154.5 28q89 0 158.5 -34.5t109.5 -99.5t40 -157q0 -86 -25 -157.5t-72.5 -123.5t-116 -80t-154.5 -28zM355 165q34 0 58.5 22.5t41 58.5t24.5 77.5t8 78.5q0 31 -8.5 51.5t-26 31
t-45.5 10.5q-34 0 -58.5 -22.5t-41 -58.5t-24.5 -77.5t-8 -78.5q0 -30 8.5 -51t26.5 -31.5t45 -10.5zM678 879q-13 -90 -56.5 -133t-97.5 -43q-27 0 -45.5 8t-32.5 18t-26.5 18t-26.5 8t-23 -13.5t-14 -36.5h-116q14 90 54 133t98 43q21 0 39 -8t33.5 -18t30 -18t28.5 -8
t23.5 12.5t15.5 37.5h116z" />
    <glyph glyph-name="Odieresis" unicode="&#xd6;" horiz-adv-x="725" 
d="M351 -10q-88 0 -158 34.5t-110 100t-40 156.5q0 86 25 157.5t72.5 123.5t116 80t154.5 28q89 0 158.5 -34.5t109.5 -99.5t40 -157q0 -86 -25 -157.5t-72.5 -123.5t-116 -80t-154.5 -28zM355 165q34 0 58.5 22.5t41 58.5t24.5 77.5t8 78.5q0 31 -8.5 51.5t-26 31
t-45.5 10.5q-34 0 -58.5 -22.5t-41 -58.5t-24.5 -77.5t-8 -78.5q0 -30 8.5 -51t26.5 -31.5t45 -10.5zM570 697q-44 0 -71 16.5t-27 55.5q0 59 31.5 83.5t86.5 24.5q44 0 70 -16.5t26 -54.5q0 -60 -31 -84.5t-85 -24.5zM329 697q-44 0 -71 16.5t-27 55.5q0 59 31.5 83.5
t86.5 24.5q44 0 70 -16.5t26 -54.5q0 -60 -31 -84.5t-85 -24.5z" />
    <glyph glyph-name="multiply" unicode="&#xd7;" horiz-adv-x="604" 
d="M126 66l-102 133l492 399l102 -133zM418 66l-326 428l131 104l326 -428z" />
    <glyph glyph-name="Oslash" unicode="&#xd8;" horiz-adv-x="725" 
d="M263 148l-41 56l280 326l36 -61zM15 -21l138 155l44 -50l-97 -105h-85zM569 498l-11 85l89 97h85zM351 -10q-88 0 -158 34.5t-110 100t-40 156.5q0 86 25 157.5t72.5 123.5t116 80t154.5 28q89 0 158.5 -34.5t109.5 -99.5t40 -157q0 -86 -25 -157.5t-72.5 -123.5
t-116 -80t-154.5 -28zM355 165q34 0 58.5 22.5t41 58.5t24.5 77.5t8 78.5q0 31 -8.5 51.5t-26 31t-45.5 10.5q-34 0 -58.5 -22.5t-41 -58.5t-24.5 -77.5t-8 -78.5q0 -30 8.5 -51t26.5 -31.5t45 -10.5z" />
    <glyph glyph-name="Ugrave" unicode="&#xd9;" horiz-adv-x="711" 
d="M332 -10q-107 0 -178.5 37t-100 106t-6.5 164l85 363h234l-89 -390q-7 -33 0 -56.5t26.5 -36t49.5 -12.5q38 0 59 22t32 72l93 401h233l-92 -394q-34 -143 -115 -209.5t-231 -66.5zM512 876l26 -167h-148l-69 167h191z" />
    <glyph glyph-name="Uacute" unicode="&#xda;" horiz-adv-x="711" 
d="M332 -10q-107 0 -178.5 37t-100 106t-6.5 164l85 363h234l-89 -390q-7 -33 0 -56.5t26.5 -36t49.5 -12.5q38 0 59 22t32 72l93 401h233l-92 -394q-34 -143 -115 -209.5t-231 -66.5zM473 876h200l-130 -167h-167z" />
    <glyph glyph-name="Ucircumflex" unicode="&#xdb;" horiz-adv-x="711" 
d="M332 -10q-107 0 -178.5 37t-100 106t-6.5 164l85 363h234l-89 -390q-7 -33 0 -56.5t26.5 -36t49.5 -12.5q38 0 59 22t32 72l93 401h233l-92 -394q-34 -143 -115 -209.5t-231 -66.5zM610 876l55 -167h-142l-37 82l-73 -82h-154l133 167h218z" />
    <glyph glyph-name="Udieresis" unicode="&#xdc;" horiz-adv-x="711" 
d="M332 -10q-107 0 -178.5 37t-100 106t-6.5 164l85 363h234l-89 -390q-7 -33 0 -56.5t26.5 -36t49.5 -12.5q38 0 59 22t32 72l93 401h233l-92 -394q-34 -143 -115 -209.5t-231 -66.5zM584 697q-44 0 -71 16.5t-27 55.5q0 59 31.5 83.5t86.5 24.5q44 0 70 -16.5t26 -54.5
q0 -60 -31 -84.5t-85 -24.5zM343 697q-44 0 -71 16.5t-27 55.5q0 59 31.5 83.5t86.5 24.5q44 0 70 -16.5t26 -54.5q0 -60 -31 -84.5t-85 -24.5z" />
    <glyph glyph-name="Yacute" unicode="&#xdd;" horiz-adv-x="713" 
d="M182 0l55 237l-133 423h219l41 -151l25 -117l68 117l99 151h243l-333 -439l-51 -221h-233zM455 876h200l-130 -167h-167z" />
    <glyph glyph-name="Thorn" unicode="&#xde;" horiz-adv-x="704" 
d="M150 102l37 165h187q30 0 50.5 10.5t31.5 28t11 38.5q0 29 -17 45.5t-60 16.5h-175l38 165h165q131 0 204.5 -54.5t73.5 -155.5q0 -76 -36 -134.5t-103.5 -91.5t-162.5 -33h-244zM-8 0l153 660h233l-153 -660h-233z" />
    <glyph glyph-name="germandbls" unicode="&#xdf;" horiz-adv-x="665" 
d="M395 -10q-52 0 -91.5 8t-59.5 22l58 142q12 -7 25 -10.5t30 -3.5q22 0 37 8t23 22.5t8 32.5q0 29 -20 41.5t-58 12.5q-9 0 -17.5 -0.5t-19.5 -1.5l49 154q10 -1 18.5 -1.5t15.5 -0.5q23 0 38.5 10.5t23.5 28t8 36.5q0 22 -8 35t-21.5 19t-30.5 6q-37 0 -56.5 -22
t-30.5 -69l-106 -459h-230l109 473q26 116 106 174t225 58q86 0 144 -23.5t88 -63.5t30 -91q0 -63 -24 -102.5t-66 -59.5t-98 -25v-2q41 -2 73.5 -18t51 -45.5t18.5 -73.5q0 -62 -30.5 -109.5t-84.5 -74.5t-127 -27z" />
    <glyph glyph-name="agrave" unicode="&#xe0;" horiz-adv-x="619" 
d="M174 -10q-44 0 -80.5 20.5t-57.5 62t-21 105.5q0 59 16 118t47 107.5t76 77.5t103 29q26 0 53 -10t48 -33.5t28 -66.5l23 100h230l-116 -500h-210l17 95q-25 -49 -65.5 -77t-90.5 -28zM284 152q18 0 32 14.5t23.5 37.5t14 47.5t4.5 43.5q0 17 -4.5 28.5t-13 17.5t-21.5 6
q-21 0 -35.5 -15.5t-23.5 -38t-13.5 -46t-4.5 -38.5q0 -17 4.5 -30t13.5 -20t24 -7zM421 730l19 -177h-154l-72 177h207z" />
    <glyph glyph-name="aacute" unicode="&#xe1;" horiz-adv-x="619" 
d="M174 -10q-44 0 -80.5 20.5t-57.5 62t-21 105.5q0 59 16 118t47 107.5t76 77.5t103 29q26 0 53 -10t48 -33.5t28 -66.5l23 100h230l-116 -500h-210l17 95q-25 -49 -65.5 -77t-90.5 -28zM284 152q18 0 32 14.5t23.5 37.5t14 47.5t4.5 43.5q0 17 -4.5 28.5t-13 17.5t-21.5 6
q-21 0 -35.5 -15.5t-23.5 -38t-13.5 -46t-4.5 -38.5q0 -17 4.5 -30t13.5 -20t24 -7zM364 730h209l-150 -177h-161z" />
    <glyph glyph-name="acircumflex" unicode="&#xe2;" horiz-adv-x="619" 
d="M174 -10q-44 0 -80.5 20.5t-57.5 62t-21 105.5q0 59 16 118t47 107.5t76 77.5t103 29q26 0 53 -10t48 -33.5t28 -66.5l23 100h230l-116 -500h-210l17 95q-25 -49 -65.5 -77t-90.5 -28zM284 152q18 0 32 14.5t23.5 37.5t14 47.5t4.5 43.5q0 17 -4.5 28.5t-13 17.5t-21.5 6
q-21 0 -35.5 -15.5t-23.5 -38t-13.5 -46t-4.5 -38.5q0 -17 4.5 -30t13.5 -20t24 -7zM145 547l147 177h214l65 -177h-150l-41 71l-73 -71h-162z" />
    <glyph glyph-name="atilde" unicode="&#xe3;" horiz-adv-x="619" 
d="M174 -10q-44 0 -80.5 20.5t-57.5 62t-21 105.5q0 59 16 118t47 107.5t76 77.5t103 29q26 0 53 -10t48 -33.5t28 -66.5l23 100h230l-116 -500h-210l17 95q-25 -49 -65.5 -77t-90.5 -28zM284 152q18 0 32 14.5t23.5 37.5t14 47.5t4.5 43.5q0 17 -4.5 28.5t-13 17.5t-21.5 6
q-21 0 -35.5 -15.5t-23.5 -38t-13.5 -46t-4.5 -38.5q0 -17 4.5 -30t13.5 -20t24 -7zM594 719q-13 -90 -56.5 -133t-97.5 -43q-27 0 -45.5 8t-32.5 18t-26.5 18t-26.5 8t-23 -13.5t-14 -36.5h-116q14 90 54 133t98 43q21 0 39 -8t33.5 -18t30 -18t28.5 -8t23.5 12.5
t15.5 37.5h116z" />
    <glyph glyph-name="adieresis" unicode="&#xe4;" horiz-adv-x="619" 
d="M174 -10q-44 0 -80.5 20.5t-57.5 62t-21 105.5q0 59 16 118t47 107.5t76 77.5t103 29q26 0 53 -10t48 -33.5t28 -66.5l23 100h230l-116 -500h-210l17 95q-25 -49 -65.5 -77t-90.5 -28zM284 152q18 0 32 14.5t23.5 37.5t14 47.5t4.5 43.5q0 17 -4.5 28.5t-13 17.5t-21.5 6
q-21 0 -35.5 -15.5t-23.5 -38t-13.5 -46t-4.5 -38.5q0 -17 4.5 -30t13.5 -20t24 -7zM486 537q-44 0 -71 16.5t-27 55.5q0 59 31.5 83.5t86.5 24.5q44 0 70 -16.5t26 -54.5q0 -60 -31 -84.5t-85 -24.5zM245 537q-44 0 -71 16.5t-27 55.5q0 59 31.5 83.5t86.5 24.5
q44 0 70 -16.5t26 -54.5q0 -60 -31 -84.5t-85 -24.5z" />
    <glyph glyph-name="aring" unicode="&#xe5;" horiz-adv-x="619" 
d="M174 -10q-44 0 -80.5 20.5t-57.5 62t-21 105.5q0 59 16 118t47 107.5t76 77.5t103 29q26 0 53 -10t48 -33.5t28 -66.5l23 100h230l-116 -500h-210l17 95q-25 -49 -65.5 -77t-90.5 -28zM284 152q18 0 32 14.5t23.5 37.5t14 47.5t4.5 43.5q0 17 -4.5 28.5t-13 17.5t-21.5 6
q-21 0 -35.5 -15.5t-23.5 -38t-13.5 -46t-4.5 -38.5q0 -17 4.5 -30t13.5 -20t24 -7zM379 796q68 0 106.5 -32t38.5 -85q0 -63 -43.5 -103.5t-111.5 -40.5q-67 0 -106 31.5t-39 84.5q0 63 43.5 104t111.5 41zM376 707q-18 0 -31.5 -12.5t-13.5 -35.5q0 -16 11 -25.5t30 -9.5
q18 0 31 12.5t13 34.5q0 17 -10.5 26.5t-29.5 9.5z" />
    <glyph glyph-name="ae" unicode="&#xe6;" horiz-adv-x="884" 
d="M173 -10q-76 0 -123.5 36.5t-47.5 102.5q0 49 24 79t61.5 45.5t77.5 19.5l170 19l-19 -81l-61 -9q-24 -4 -37.5 -15t-13.5 -32q0 -15 10 -24.5t29 -9.5q18 0 29.5 8.5t15.5 26.5l31 137q2 8 2.5 14.5t0.5 11.5q0 21 -10.5 32.5t-34.5 11.5q-23 0 -34.5 -17t-16.5 -46
l-191 30q11 80 70.5 130t174.5 50q55 0 94 -14.5t61 -41.5t25 -67l-42 17q25 31 53.5 55t67 37.5t92.5 13.5q71 0 123.5 -28.5t81.5 -78.5t29 -116q0 -19 -2 -40t-8 -41h-346l11 85h126q1 5 1 10v9q0 19 -5.5 29.5t-14.5 15t-20 4.5q-25 0 -41 -15t-25 -39t-12.5 -51
t-3.5 -50t8 -37t22.5 -20t32.5 -6q26 0 40.5 13.5t20.5 31.5l192 -62q-15 -42 -52 -72t-87.5 -45.5t-107.5 -15.5q-58 0 -105.5 18.5t-79.5 54.5t-45 86l49 -7q-10 -40 -38.5 -75t-78.5 -56.5t-123 -21.5z" />
    <glyph glyph-name="ccedilla" unicode="&#xe7;" horiz-adv-x="579" 
d="M292 -10q-85 0 -146.5 28.5t-94 80t-32.5 119.5q0 78 34 144.5t101.5 107t168.5 40.5q77 0 134.5 -24.5t89 -69.5t28.5 -108l-216 -30q7 36 0 56t-36 20q-21 0 -36 -17t-25 -42.5t-15 -53t-5 -48.5q0 -18 6 -29t16.5 -15.5t23.5 -4.5q20 0 35.5 17t22.5 43l201 -63
q-30 -69 -95.5 -110t-159.5 -41zM201 9l46 23q63 -6 97.5 -35t34.5 -75q0 -41 -19 -72t-52.5 -48t-78.5 -17q-40 0 -69.5 10t-52.5 30l52 89q11 -9 28 -13.5t28 -4.5q23 0 38.5 16t15.5 36q0 18 -16.5 34.5t-51.5 26.5z" />
    <glyph glyph-name="egrave" unicode="&#xe8;" horiz-adv-x="588" 
d="M286 -9q-77 0 -137.5 27t-94.5 78.5t-34 122.5q0 88 36.5 153.5t103 101.5t155.5 36q81 0 138 -28.5t86.5 -78.5t29.5 -116q0 -19 -2 -40t-8 -41h-382l-1 85h224l-55 -21q5 14 5.5 23t0.5 17q0 19 -5.5 29.5t-14.5 15t-20 4.5q-26 0 -42.5 -15t-25 -39t-11.5 -51t-3 -50
t8 -37t22.5 -20t32.5 -6q26 0 40.5 13.5t20.5 31.5l192 -62q-15 -42 -53 -72t-91 -45.5t-115 -15.5zM406 730l19 -177h-154l-72 177h207z" />
    <glyph glyph-name="eacute" unicode="&#xe9;" horiz-adv-x="588" 
d="M286 -9q-77 0 -137.5 27t-94.5 78.5t-34 122.5q0 88 36.5 153.5t103 101.5t155.5 36q81 0 138 -28.5t86.5 -78.5t29.5 -116q0 -19 -2 -40t-8 -41h-382l-1 85h224l-55 -21q5 14 5.5 23t0.5 17q0 19 -5.5 29.5t-14.5 15t-20 4.5q-26 0 -42.5 -15t-25 -39t-11.5 -51t-3 -50
t8 -37t22.5 -20t32.5 -6q26 0 40.5 13.5t20.5 31.5l192 -62q-15 -42 -53 -72t-91 -45.5t-115 -15.5zM349 730h209l-150 -177h-161z" />
    <glyph glyph-name="ecircumflex" unicode="&#xea;" horiz-adv-x="588" 
d="M286 -9q-77 0 -137.5 27t-94.5 78.5t-34 122.5q0 88 36.5 153.5t103 101.5t155.5 36q81 0 138 -28.5t86.5 -78.5t29.5 -116q0 -19 -2 -40t-8 -41h-382l-1 85h224l-55 -21q5 14 5.5 23t0.5 17q0 19 -5.5 29.5t-14.5 15t-20 4.5q-26 0 -42.5 -15t-25 -39t-11.5 -51t-3 -50
t8 -37t22.5 -20t32.5 -6q26 0 40.5 13.5t20.5 31.5l192 -62q-15 -42 -53 -72t-91 -45.5t-115 -15.5zM130 547l147 177h214l65 -177h-150l-41 71l-73 -71h-162z" />
    <glyph glyph-name="edieresis" unicode="&#xeb;" horiz-adv-x="588" 
d="M286 -9q-77 0 -137.5 27t-94.5 78.5t-34 122.5q0 88 36.5 153.5t103 101.5t155.5 36q81 0 138 -28.5t86.5 -78.5t29.5 -116q0 -19 -2 -40t-8 -41h-382l-1 85h224l-55 -21q5 14 5.5 23t0.5 17q0 19 -5.5 29.5t-14.5 15t-20 4.5q-26 0 -42.5 -15t-25 -39t-11.5 -51t-3 -50
t8 -37t22.5 -20t32.5 -6q26 0 40.5 13.5t20.5 31.5l192 -62q-15 -42 -53 -72t-91 -45.5t-115 -15.5zM471 537q-44 0 -71 16.5t-27 55.5q0 59 31.5 83.5t86.5 24.5q44 0 70 -16.5t26 -54.5q0 -60 -31 -84.5t-85 -24.5zM230 537q-44 0 -71 16.5t-27 55.5q0 59 31.5 83.5
t86.5 24.5q44 0 70 -16.5t26 -54.5q0 -60 -31 -84.5t-85 -24.5z" />
    <glyph glyph-name="igrave" unicode="&#xec;" horiz-adv-x="308" 
d="M327 500l-116 -500h-230l116 500h230zM280 730l19 -177h-154l-72 177h207z" />
    <glyph glyph-name="iacute" unicode="&#xed;" horiz-adv-x="308" 
d="M327 500l-116 -500h-230l116 500h230zM223 730h209l-150 -177h-161z" />
    <glyph glyph-name="icircumflex" unicode="&#xee;" horiz-adv-x="308" 
d="M327 500l-116 -500h-230l116 500h230zM4 547l147 177h214l65 -177h-150l-41 71l-73 -71h-162z" />
    <glyph glyph-name="idieresis" unicode="&#xef;" horiz-adv-x="308" 
d="M345 537q-44 0 -71 16.5t-27 55.5q0 59 31.5 83.5t86.5 24.5q44 0 70 -16.5t26 -54.5q0 -60 -31 -84.5t-85 -24.5zM104 537q-44 0 -71 16.5t-27 55.5q0 59 31.5 83.5t86.5 24.5q44 0 70 -16.5t26 -54.5q0 -60 -31 -84.5t-85 -24.5zM327 500l-116 -500h-230l116 500h230z
" />
    <glyph glyph-name="eth" unicode="&#xf0;" horiz-adv-x="599" 
d="M276 -10q-73 0 -129.5 28.5t-88.5 81.5t-32 124q0 81 33 144.5t92 100.5t138 37q50 0 82 -15.5t48 -45t16 -73.5l-9 -22q3 17 4.5 33t1.5 32q0 65 -22 117t-60 97t-86 88h182q25 -21 51 -51t48.5 -68t36 -85t13.5 -104q0 -89 -21.5 -165.5t-62.5 -133.5t-100.5 -88.5
t-134.5 -31.5zM288 144q19 0 33.5 16.5t25 42.5t16 55t5.5 54q0 16 -4 26.5t-12 16t-22 5.5q-19 0 -34.5 -18t-26 -45.5t-16.5 -56.5t-6 -51q0 -15 4.5 -25t13.5 -15t23 -5zM249 546l-7 60l149 19l26 -55zM490 581l-13 56l166 25l8 -59z" />
    <glyph glyph-name="ntilde" unicode="&#xf1;" horiz-adv-x="618" 
d="M-20 0l116 500h205l-30 -191l-8 20q21 86 74 133.5t130 47.5q51 0 85 -22.5t47 -63.5t0 -98l-76 -326h-230l68 290q5 23 -3.5 36.5t-28.5 13.5q-14 0 -25 -7.5t-18.5 -22t-12.5 -36.5l-63 -274h-230zM607 719q-13 -90 -56.5 -133t-97.5 -43q-27 0 -45.5 8t-32.5 18
t-26.5 18t-26.5 8t-23 -13.5t-14 -36.5h-116q14 90 54 133t98 43q21 0 39 -8t33.5 -18t30 -18t28.5 -8t23.5 12.5t15.5 37.5h116z" />
    <glyph glyph-name="ograve" unicode="&#xf2;" horiz-adv-x="603" 
d="M280 -10q-79 0 -137.5 29t-91 80.5t-32.5 118.5q0 78 34 144.5t101.5 107t168.5 40.5q79 0 137.5 -29t91 -80.5t32.5 -118.5q0 -77 -34 -144t-101.5 -107.5t-168.5 -40.5zM282 144q19 0 33.5 17t24.5 43.5t15 54t5 48.5q0 19 -5.5 29.5t-14.5 15t-20 4.5q-19 0 -33.5 -17
t-24.5 -43.5t-15 -54t-5 -48.5q0 -18 5.5 -29t14.5 -15.5t20 -4.5zM423 730l19 -177h-154l-72 177h207z" />
    <glyph glyph-name="oacute" unicode="&#xf3;" horiz-adv-x="603" 
d="M280 -10q-79 0 -137.5 29t-91 80.5t-32.5 118.5q0 78 34 144.5t101.5 107t168.5 40.5q79 0 137.5 -29t91 -80.5t32.5 -118.5q0 -77 -34 -144t-101.5 -107.5t-168.5 -40.5zM282 144q19 0 33.5 17t24.5 43.5t15 54t5 48.5q0 19 -5.5 29.5t-14.5 15t-20 4.5q-19 0 -33.5 -17
t-24.5 -43.5t-15 -54t-5 -48.5q0 -18 5.5 -29t14.5 -15.5t20 -4.5zM366 730h209l-150 -177h-161z" />
    <glyph glyph-name="ocircumflex" unicode="&#xf4;" horiz-adv-x="603" 
d="M280 -10q-79 0 -137.5 29t-91 80.5t-32.5 118.5q0 78 34 144.5t101.5 107t168.5 40.5q79 0 137.5 -29t91 -80.5t32.5 -118.5q0 -77 -34 -144t-101.5 -107.5t-168.5 -40.5zM282 144q19 0 33.5 17t24.5 43.5t15 54t5 48.5q0 19 -5.5 29.5t-14.5 15t-20 4.5q-19 0 -33.5 -17
t-24.5 -43.5t-15 -54t-5 -48.5q0 -18 5.5 -29t14.5 -15.5t20 -4.5zM147 547l147 177h214l65 -177h-150l-41 71l-73 -71h-162z" />
    <glyph glyph-name="otilde" unicode="&#xf5;" horiz-adv-x="603" 
d="M280 -10q-79 0 -137.5 29t-91 80.5t-32.5 118.5q0 78 34 144.5t101.5 107t168.5 40.5q79 0 137.5 -29t91 -80.5t32.5 -118.5q0 -77 -34 -144t-101.5 -107.5t-168.5 -40.5zM282 144q19 0 33.5 17t24.5 43.5t15 54t5 48.5q0 19 -5.5 29.5t-14.5 15t-20 4.5q-19 0 -33.5 -17
t-24.5 -43.5t-15 -54t-5 -48.5q0 -18 5.5 -29t14.5 -15.5t20 -4.5zM596 719q-13 -90 -56.5 -133t-97.5 -43q-27 0 -45.5 8t-32.5 18t-26.5 18t-26.5 8t-23 -13.5t-14 -36.5h-116q14 90 54 133t98 43q21 0 39 -8t33.5 -18t30 -18t28.5 -8t23.5 12.5t15.5 37.5h116z" />
    <glyph glyph-name="odieresis" unicode="&#xf6;" horiz-adv-x="603" 
d="M280 -10q-79 0 -137.5 29t-91 80.5t-32.5 118.5q0 78 34 144.5t101.5 107t168.5 40.5q79 0 137.5 -29t91 -80.5t32.5 -118.5q0 -77 -34 -144t-101.5 -107.5t-168.5 -40.5zM282 144q19 0 33.5 17t24.5 43.5t15 54t5 48.5q0 19 -5.5 29.5t-14.5 15t-20 4.5q-19 0 -33.5 -17
t-24.5 -43.5t-15 -54t-5 -48.5q0 -18 5.5 -29t14.5 -15.5t20 -4.5zM488 537q-44 0 -71 16.5t-27 55.5q0 59 31.5 83.5t86.5 24.5q44 0 70 -16.5t26 -54.5q0 -60 -31 -84.5t-85 -24.5zM247 537q-44 0 -71 16.5t-27 55.5q0 59 31.5 83.5t86.5 24.5q44 0 70 -16.5t26 -54.5
q0 -60 -31 -84.5t-85 -24.5z" />
    <glyph glyph-name="divide" unicode="&#xf7;" horiz-adv-x="636" 
d="M612 407l-35 -153h-516l35 153h516zM279 11q-42 0 -66.5 19.5t-24.5 58.5q0 48 26 77t74 29q42 0 66.5 -19.5t24.5 -58.5q0 -48 -26 -77t-74 -29zM385 467q-42 0 -66.5 19.5t-24.5 58.5q0 48 26 77t74 29q42 0 66.5 -19.5t24.5 -58.5q0 -48 -26 -77t-74 -29z" />
    <glyph glyph-name="oslash" unicode="&#xf8;" horiz-adv-x="603" 
d="M280 -10q-79 0 -137.5 29t-91 80.5t-32.5 118.5q0 78 34 144.5t101.5 107t168.5 40.5q79 0 137.5 -29t91 -80.5t32.5 -118.5q0 -77 -34 -144t-101.5 -107.5t-168.5 -40.5zM282 144q19 0 33.5 17t24.5 43.5t15 54t5 48.5q0 19 -5.5 29.5t-14.5 15t-20 4.5q-19 0 -33.5 -17
t-24.5 -43.5t-15 -54t-5 -48.5q0 -18 5.5 -29t14.5 -15.5t20 -4.5zM-22 -21l571 541h76l-571 -541h-76z" />
    <glyph glyph-name="ugrave" unicode="&#xf9;" horiz-adv-x="618" 
d="M153 -10q-52 0 -86.5 22t-47.5 62t-1 95l77 331h230l-67 -290q-6 -25 4 -37.5t30 -12.5q15 0 24.5 7.5t16.5 22.5t12 36l63 274h230l-116 -500h-205l30 191l8 -22q-22 -85 -74.5 -132t-127.5 -47zM429 730l19 -177h-154l-72 177h207z" />
    <glyph glyph-name="uacute" unicode="&#xfa;" horiz-adv-x="618" 
d="M153 -10q-52 0 -86.5 22t-47.5 62t-1 95l77 331h230l-67 -290q-6 -25 4 -37.5t30 -12.5q15 0 24.5 7.5t16.5 22.5t12 36l63 274h230l-116 -500h-205l30 191l8 -22q-22 -85 -74.5 -132t-127.5 -47zM372 730h209l-150 -177h-161z" />
    <glyph glyph-name="ucircumflex" unicode="&#xfb;" horiz-adv-x="618" 
d="M153 -10q-52 0 -86.5 22t-47.5 62t-1 95l77 331h230l-67 -290q-6 -25 4 -37.5t30 -12.5q15 0 24.5 7.5t16.5 22.5t12 36l63 274h230l-116 -500h-205l30 191l8 -22q-22 -85 -74.5 -132t-127.5 -47zM153 547l147 177h214l65 -177h-150l-41 71l-73 -71h-162z" />
    <glyph glyph-name="udieresis" unicode="&#xfc;" horiz-adv-x="618" 
d="M153 -10q-52 0 -86.5 22t-47.5 62t-1 95l77 331h230l-67 -290q-6 -25 4 -37.5t30 -12.5q15 0 24.5 7.5t16.5 22.5t12 36l63 274h230l-116 -500h-205l30 191l8 -22q-22 -85 -74.5 -132t-127.5 -47zM494 537q-44 0 -71 16.5t-27 55.5q0 59 31.5 83.5t86.5 24.5
q44 0 70 -16.5t26 -54.5q0 -60 -31 -84.5t-85 -24.5zM253 537q-44 0 -71 16.5t-27 55.5q0 59 31.5 83.5t86.5 24.5q44 0 70 -16.5t26 -54.5q0 -60 -31 -84.5t-85 -24.5z" />
    <glyph glyph-name="yacute" unicode="&#xfd;" horiz-adv-x="594" 
d="M66 -215q-47 0 -88.5 10t-64.5 25l57 155q35 -29 92 -29q25 0 44.5 7t28.5 21l3 5l-88 521h234l-6 -258l-6 -120l47 121l103 257h240l-284 -504q-43 -77 -87.5 -123.5t-98.5 -67t-126 -20.5zM392 730h209l-150 -177h-161z" />
    <glyph glyph-name="thorn" unicode="&#xfe;" horiz-adv-x="619" 
d="M-68 -210l210 910h230l-89 -387l-12 4q16 89 65.5 141t119.5 52q45 0 78 -20.5t51.5 -61.5t18.5 -103q0 -58 -15 -117.5t-44.5 -108.5t-70.5 -79t-94 -30q-34 0 -69 12.5t-58.5 45t-23.5 90.5l24 49l-91 -397h-230zM300 153q21 0 35.5 15.5t23.5 38t13.5 46t4.5 38.5
q0 18 -4 30.5t-13.5 19.5t-24.5 7q-18 0 -32 -14.5t-23.5 -37.5t-14 -47t-4.5 -44q0 -25 10 -38.5t29 -13.5z" />
    <glyph glyph-name="ydieresis" unicode="&#xff;" horiz-adv-x="594" 
d="M66 -215q-47 0 -88.5 10t-64.5 25l57 155q35 -29 92 -29q25 0 44.5 7t28.5 21l3 5l-88 521h234l-6 -258l-6 -120l47 121l103 257h240l-284 -504q-43 -77 -87.5 -123.5t-98.5 -67t-126 -20.5zM514 537q-44 0 -71 16.5t-27 55.5q0 59 31.5 83.5t86.5 24.5q44 0 70 -16.5
t26 -54.5q0 -60 -31 -84.5t-85 -24.5zM273 537q-44 0 -71 16.5t-27 55.5q0 59 31.5 83.5t86.5 24.5q44 0 70 -16.5t26 -54.5q0 -60 -31 -84.5t-85 -24.5z" />
    <glyph glyph-name="Amacron" unicode="&#x100;" horiz-adv-x="689" 
d="M-68 0l369 660h280l60 -660h-219l-3 132h-184l-65 -132h-238zM307 277h108l-3 220zM679 841l-31 -130h-388l31 130h388z" />
    <glyph glyph-name="amacron" unicode="&#x101;" horiz-adv-x="619" 
d="M174 -10q-44 0 -80.5 20.5t-57.5 62t-21 105.5q0 59 16 118t47 107.5t76 77.5t103 29q26 0 53 -10t48 -33.5t28 -66.5l23 100h230l-116 -500h-210l17 95q-25 -49 -65.5 -77t-90.5 -28zM284 152q18 0 32 14.5t23.5 37.5t14 47.5t4.5 43.5q0 17 -4.5 28.5t-13 17.5t-21.5 6
q-21 0 -35.5 -15.5t-23.5 -38t-13.5 -46t-4.5 -38.5q0 -17 4.5 -30t13.5 -20t24 -7zM591 681l-31 -130h-388l31 130h388z" />
    <glyph glyph-name="Abreve" unicode="&#x102;" horiz-adv-x="689" 
d="M-68 0l369 660h280l60 -660h-219l-3 132h-184l-65 -132h-238zM307 277h108l-3 220zM662 873q-14 -79 -70.5 -126t-142.5 -47q-76 0 -117 35t-41 95q0 10 1.5 21t3.5 22h139q-1 -6 -2 -11.5t-1 -10.5q0 -15 10 -24t28 -9q21 0 34.5 14.5t18.5 40.5h139z" />
    <glyph glyph-name="abreve" unicode="&#x103;" horiz-adv-x="619" 
d="M174 -10q-44 0 -80.5 20.5t-57.5 62t-21 105.5q0 59 16 118t47 107.5t76 77.5t103 29q26 0 53 -10t48 -33.5t28 -66.5l23 100h230l-116 -500h-210l17 95q-25 -49 -65.5 -77t-90.5 -28zM284 152q18 0 32 14.5t23.5 37.5t14 47.5t4.5 43.5q0 17 -4.5 28.5t-13 17.5t-21.5 6
q-21 0 -35.5 -15.5t-23.5 -38t-13.5 -46t-4.5 -38.5q0 -17 4.5 -30t13.5 -20t24 -7zM575 713q-14 -79 -70.5 -126t-142.5 -47q-76 0 -117 35t-41 95q0 10 1.5 21t3.5 22h139q-1 -6 -2 -11.5t-1 -10.5q0 -15 10 -24t28 -9q21 0 34.5 14.5t18.5 40.5h139z" />
    <glyph glyph-name="Aogonek" unicode="&#x104;" horiz-adv-x="689" 
d="M524 -219q-40 0 -76 11.5t-58.5 36.5t-22.5 67q0 47 27.5 78.5t72.5 48.5t99 18l75 -41q-29 -1 -56 -7t-44 -19.5t-17 -37.5q0 -22 16.5 -30.5t35.5 -8.5q9 0 16.5 1.5t13.5 3.5l-6 -106q-19 -8 -39 -11.5t-37 -3.5zM-68 0l369 660h280l60 -660h-219l-3 132h-184
l-65 -132h-238zM307 277h108l-3 220z" />
    <glyph glyph-name="aogonek" unicode="&#x105;" horiz-adv-x="619" 
d="M404 -219q-40 0 -76 11.5t-58.5 36.5t-22.5 67q0 47 27.5 78.5t72.5 48.5t99 18l77 -41q-48 -8 -82 -21.5t-34 -45.5q0 -20 15 -28.5t34 -8.5q9 0 16.5 2t13.5 4l-6 -106q-19 -8 -39 -11.5t-37 -3.5zM174 -10q-44 0 -80.5 20.5t-57.5 62t-21 105.5q0 59 16 118t47 107.5
t76 77.5t103 29q26 0 53 -10t48 -33.5t28 -66.5l23 100h230l-116 -500h-210l17 95q-25 -49 -65.5 -77t-90.5 -28zM284 152q18 0 32 14.5t23.5 37.5t14 47.5t4.5 43.5q0 17 -4.5 28.5t-13 17.5t-21.5 6q-21 0 -35.5 -15.5t-23.5 -38t-13.5 -46t-4.5 -38.5q0 -17 4.5 -30
t13.5 -20t24 -7z" />
    <glyph glyph-name="Cacute" unicode="&#x106;" horiz-adv-x="698" 
d="M352 -10q-91 0 -160.5 35.5t-109 100t-39.5 150.5q0 91 25.5 163.5t73.5 124t117 79t156 27.5q82 0 145.5 -28t103 -80.5t48.5 -126.5l-220 -43q2 50 -16.5 76.5t-62.5 26.5q-37 0 -63.5 -23t-43.5 -58.5t-24.5 -75.5t-7.5 -75q0 -30 9.5 -52t29.5 -34t53 -12
q41 0 64.5 26t39.5 67l205 -75q-44 -91 -123.5 -142t-199.5 -51zM458 876h200l-130 -167h-167z" />
    <glyph glyph-name="cacute" unicode="&#x107;" horiz-adv-x="579" 
d="M292 -10q-85 0 -146.5 28.5t-94 80t-32.5 119.5q0 78 34 144.5t101.5 107t168.5 40.5q77 0 134.5 -24.5t89 -69.5t28.5 -108l-216 -30q7 36 0 56t-36 20q-21 0 -36 -17t-25 -42.5t-15 -53t-5 -48.5q0 -18 6 -29t16.5 -15.5t23.5 -4.5q20 0 35.5 17t22.5 43l201 -63
q-30 -69 -95.5 -110t-159.5 -41zM366 730h209l-150 -177h-161z" />
    <glyph glyph-name="Ccircumflex" unicode="&#x108;" horiz-adv-x="698" 
d="M352 -10q-91 0 -160.5 35.5t-109 100t-39.5 150.5q0 91 25.5 163.5t73.5 124t117 79t156 27.5q82 0 145.5 -28t103 -80.5t48.5 -126.5l-220 -43q2 50 -16.5 76.5t-62.5 26.5q-37 0 -63.5 -23t-43.5 -58.5t-24.5 -75.5t-7.5 -75q0 -30 9.5 -52t29.5 -34t53 -12
q41 0 64.5 26t39.5 67l205 -75q-44 -91 -123.5 -142t-199.5 -51zM595 876l55 -167h-142l-37 82l-73 -82h-154l133 167h218z" />
    <glyph glyph-name="ccircumflex" unicode="&#x109;" horiz-adv-x="579" 
d="M292 -10q-85 0 -146.5 28.5t-94 80t-32.5 119.5q0 78 34 144.5t101.5 107t168.5 40.5q77 0 134.5 -24.5t89 -69.5t28.5 -108l-216 -30q7 36 0 56t-36 20q-21 0 -36 -17t-25 -42.5t-15 -53t-5 -48.5q0 -18 6 -29t16.5 -15.5t23.5 -4.5q20 0 35.5 17t22.5 43l201 -63
q-30 -69 -95.5 -110t-159.5 -41zM147 547l147 177h214l65 -177h-150l-41 71l-73 -71h-162z" />
    <glyph glyph-name="Cdotaccent" unicode="&#x10a;" horiz-adv-x="698" 
d="M352 -10q-91 0 -160.5 35.5t-109 100t-39.5 150.5q0 91 25.5 163.5t73.5 124t117 79t156 27.5q82 0 145.5 -28t103 -80.5t48.5 -126.5l-220 -43q2 50 -16.5 76.5t-62.5 26.5q-37 0 -63.5 -23t-43.5 -58.5t-24.5 -75.5t-7.5 -75q0 -30 9.5 -52t29.5 -34t53 -12
q41 0 64.5 26t39.5 67l205 -75q-44 -91 -123.5 -142t-199.5 -51zM445 698q-48 0 -76.5 17t-28.5 57q0 62 34 88t92 26q51 0 79 -17.5t28 -55.5q0 -64 -34 -89.5t-94 -25.5z" />
    <glyph glyph-name="cdotaccent" unicode="&#x10b;" horiz-adv-x="579" 
d="M292 -10q-85 0 -146.5 28.5t-94 80t-32.5 119.5q0 78 34 144.5t101.5 107t168.5 40.5q77 0 134.5 -24.5t89 -69.5t28.5 -108l-216 -30q7 36 0 56t-36 20q-21 0 -36 -17t-25 -42.5t-15 -53t-5 -48.5q0 -18 6 -29t16.5 -15.5t23.5 -4.5q20 0 35.5 17t22.5 43l201 -63
q-30 -69 -95.5 -110t-159.5 -41zM364 538q-48 0 -76.5 17t-28.5 57q0 62 34 88t92 26q51 0 79 -17.5t28 -55.5q0 -64 -34 -89.5t-94 -25.5z" />
    <glyph glyph-name="Ccaron" unicode="&#x10c;" horiz-adv-x="698" 
d="M352 -10q-91 0 -160.5 35.5t-109 100t-39.5 150.5q0 91 25.5 163.5t73.5 124t117 79t156 27.5q82 0 145.5 -28t103 -80.5t48.5 -126.5l-220 -43q2 50 -16.5 76.5t-62.5 26.5q-37 0 -63.5 -23t-43.5 -58.5t-24.5 -75.5t-7.5 -75q0 -30 9.5 -52t29.5 -34t53 -12
q41 0 64.5 26t39.5 67l205 -75q-44 -91 -123.5 -142t-199.5 -51zM327 709l-55 167h142l37 -82l73 82h154l-133 -167h-218z" />
    <glyph glyph-name="ccaron" unicode="&#x10d;" horiz-adv-x="579" 
d="M292 -10q-85 0 -146.5 28.5t-94 80t-32.5 119.5q0 78 34 144.5t101.5 107t168.5 40.5q77 0 134.5 -24.5t89 -69.5t28.5 -108l-216 -30q7 36 0 56t-36 20q-21 0 -36 -17t-25 -42.5t-15 -53t-5 -48.5q0 -18 6 -29t16.5 -15.5t23.5 -4.5q20 0 35.5 17t22.5 43l201 -63
q-30 -69 -95.5 -110t-159.5 -41zM238 553l-65 177h145l42 -74l77 74h162l-147 -177h-214z" />
    <glyph glyph-name="Dcaron" unicode="&#x10e;" horiz-adv-x="709" 
d="M-8 0l153 660h261q100 0 166 -33.5t99 -94t33 -142.5q0 -89 -24 -161t-71.5 -123t-115.5 -78.5t-157 -27.5h-344zM264 166h55q41 0 70.5 21t47.5 55t26.5 74.5t8.5 79.5q0 32 -10 54t-30 33t-51 11h-42zM317 709l-55 167h142l37 -82l73 82h154l-133 -167h-218z" />
    <glyph glyph-name="dcaron" unicode="&#x10f;" horiz-adv-x="751" 
d="M911 700l-123 -267h-130l84 267h169zM176 -10q-44 0 -80.5 20.5t-57.5 62t-21 105.5q0 59 16 118t47 107.5t76 77.5t103 29q26 0 53 -10t48 -33.5t28 -66.5l69 300h230l-162 -700h-210l17 95q-25 -49 -65.5 -77t-90.5 -28zM286 152q18 0 32 14.5t23.5 37.5t14 47.5
t4.5 43.5q0 17 -4.5 28.5t-13 17.5t-21.5 6q-21 0 -35.5 -15.5t-23.5 -38t-13.5 -46t-4.5 -38.5q0 -17 4.5 -30t13.5 -20t24 -7z" />
    <glyph glyph-name="Dcroat" unicode="&#x110;" horiz-adv-x="737" 
d="M5 253l34 150h393l-34 -150h-393zM20 0l153 660h261q100 0 166 -33.5t99 -94t33 -142.5q0 -89 -24 -161t-71.5 -123t-115.5 -78.5t-157 -27.5h-344zM292 166h55q41 0 70.5 21t47.5 55t26.5 74.5t8.5 79.5q0 32 -10 54t-30 33t-51 11h-42z" />
    <glyph glyph-name="dcroat" unicode="&#x111;" horiz-adv-x="627" 
d="M754 640l-28 -121h-418l28 121h418zM174 -10q-44 0 -80.5 20.5t-57.5 62t-21 105.5q0 59 16 118t47 107.5t76 77.5t103 29q26 0 53 -10t48 -33.5t28 -66.5l69 300h230l-162 -700h-210l17 95q-25 -49 -65.5 -77t-90.5 -28zM284 152q18 0 32 14.5t23.5 37.5t14 47.5
t4.5 43.5q0 17 -4.5 28.5t-13 17.5t-21.5 6q-21 0 -35.5 -15.5t-23.5 -38t-13.5 -46t-4.5 -38.5q0 -17 4.5 -30t13.5 -20t24 -7z" />
    <glyph glyph-name="Emacron" unicode="&#x112;" horiz-adv-x="626" 
d="M-8 0l153 660h554l-40 -171h-321l-19 -82h254l-36 -158h-254l-18 -78h327l-40 -171h-560zM657 841l-31 -130h-388l31 130h388z" />
    <glyph glyph-name="emacron" unicode="&#x113;" horiz-adv-x="588" 
d="M286 -9q-77 0 -137.5 27t-94.5 78.5t-34 122.5q0 88 36.5 153.5t103 101.5t155.5 36q81 0 138 -28.5t86.5 -78.5t29.5 -116q0 -19 -2 -40t-8 -41h-382l-1 85h224l-55 -21q5 14 5.5 23t0.5 17q0 19 -5.5 29.5t-14.5 15t-20 4.5q-26 0 -42.5 -15t-25 -39t-11.5 -51t-3 -50
t8 -37t22.5 -20t32.5 -6q26 0 40.5 13.5t20.5 31.5l192 -62q-15 -42 -53 -72t-91 -45.5t-115 -15.5zM576 681l-31 -130h-388l31 130h388z" />
    <glyph glyph-name="Ebreve" unicode="&#x114;" horiz-adv-x="626" 
d="M-8 0l153 660h554l-40 -171h-321l-19 -82h254l-36 -158h-254l-18 -78h327l-40 -171h-560zM640 873q-14 -79 -70.5 -126t-142.5 -47q-76 0 -117 35t-41 95q0 10 1.5 21t3.5 22h139q-1 -6 -2 -11.5t-1 -10.5q0 -15 10 -24t28 -9q21 0 34.5 14.5t18.5 40.5h139z" />
    <glyph glyph-name="ebreve" unicode="&#x115;" horiz-adv-x="588" 
d="M286 -9q-77 0 -137.5 27t-94.5 78.5t-34 122.5q0 88 36.5 153.5t103 101.5t155.5 36q81 0 138 -28.5t86.5 -78.5t29.5 -116q0 -19 -2 -40t-8 -41h-382l-1 85h224l-55 -21q5 14 5.5 23t0.5 17q0 19 -5.5 29.5t-14.5 15t-20 4.5q-26 0 -42.5 -15t-25 -39t-11.5 -51t-3 -50
t8 -37t22.5 -20t32.5 -6q26 0 40.5 13.5t20.5 31.5l192 -62q-15 -42 -53 -72t-91 -45.5t-115 -15.5zM560 713q-14 -79 -70.5 -126t-142.5 -47q-76 0 -117 35t-41 95q0 10 1.5 21t3.5 22h139q-1 -6 -2 -11.5t-1 -10.5q0 -15 10 -24t28 -9q21 0 34.5 14.5t18.5 40.5h139z" />
    <glyph glyph-name="Edotaccent" unicode="&#x116;" horiz-adv-x="626" 
d="M-8 0l153 660h554l-40 -171h-321l-19 -82h254l-36 -158h-254l-18 -78h327l-40 -171h-560zM428 698q-48 0 -76.5 17t-28.5 57q0 62 34 88t92 26q51 0 79 -17.5t28 -55.5q0 -64 -34 -89.5t-94 -25.5z" />
    <glyph glyph-name="edotaccent" unicode="&#x117;" horiz-adv-x="588" 
d="M286 -9q-77 0 -137.5 27t-94.5 78.5t-34 122.5q0 88 36.5 153.5t103 101.5t155.5 36q81 0 138 -28.5t86.5 -78.5t29.5 -116q0 -19 -2 -40t-8 -41h-382l-1 85h224l-55 -21q5 14 5.5 23t0.5 17q0 19 -5.5 29.5t-14.5 15t-20 4.5q-26 0 -42.5 -15t-25 -39t-11.5 -51t-3 -50
t8 -37t22.5 -20t32.5 -6q26 0 40.5 13.5t20.5 31.5l192 -62q-15 -42 -53 -72t-91 -45.5t-115 -15.5zM347 538q-48 0 -76.5 17t-28.5 57q0 62 34 88t92 26q51 0 79 -17.5t28 -55.5q0 -64 -34 -89.5t-94 -25.5z" />
    <glyph glyph-name="Eogonek" unicode="&#x118;" horiz-adv-x="626" 
d="M436 -219q-39 0 -75 10.5t-59 33.5t-23 60q0 39 20.5 67t68.5 43t130 15l55 -10q-34 -1 -60.5 -7t-41.5 -19.5t-15 -37.5q0 -22 16.5 -30.5t35.5 -8.5q8 0 15 1.5t12 3.5l-6 -106q-19 -8 -37.5 -11.5t-35.5 -3.5zM-8 0l153 660h554l-40 -171h-321l-19 -82h254l-36 -158
h-254l-18 -78h327l-40 -171h-560z" />
    <glyph glyph-name="eogonek" unicode="&#x119;" horiz-adv-x="588" 
d="M286 -9q-77 0 -137.5 27t-94.5 78.5t-34 122.5q0 88 36.5 153.5t103 101.5t155.5 36q81 0 138 -28.5t86.5 -78.5t29.5 -116q0 -19 -2 -40t-8 -41h-382l-1 85h224l-55 -21q5 14 5.5 23t0.5 17q0 19 -5.5 29.5t-14.5 15t-20 4.5q-26 0 -42.5 -15t-25 -39t-11.5 -51t-3 -50
t8 -37t22.5 -20t32.5 -6q26 0 40.5 13.5t20.5 31.5l192 -62q-15 -42 -53 -72t-91 -45.5t-115 -15.5zM289 -220q-40 0 -74.5 12.5t-55.5 38.5t-21 68q0 47 26 77t70.5 45t98.5 15l73 -24q-31 -12 -57 -21.5t-41.5 -22t-15.5 -33.5q0 -20 15 -28.5t34 -8.5q9 0 16.5 2t13.5 4
l-6 -109q-19 -8 -39 -11.5t-37 -3.5z" />
    <glyph glyph-name="Ecaron" unicode="&#x11a;" horiz-adv-x="626" 
d="M-8 0l153 660h554l-40 -171h-321l-19 -82h254l-36 -158h-254l-18 -78h327l-40 -171h-560zM310 709l-55 167h142l37 -82l73 82h154l-133 -167h-218z" />
    <glyph glyph-name="ecaron" unicode="&#x11b;" horiz-adv-x="588" 
d="M286 -9q-77 0 -137.5 27t-94.5 78.5t-34 122.5q0 88 36.5 153.5t103 101.5t155.5 36q81 0 138 -28.5t86.5 -78.5t29.5 -116q0 -19 -2 -40t-8 -41h-382l-1 85h224l-55 -21q5 14 5.5 23t0.5 17q0 19 -5.5 29.5t-14.5 15t-20 4.5q-26 0 -42.5 -15t-25 -39t-11.5 -51t-3 -50
t8 -37t22.5 -20t32.5 -6q26 0 40.5 13.5t20.5 31.5l192 -62q-15 -42 -53 -72t-91 -45.5t-115 -15.5zM221 553l-65 177h145l42 -74l77 74h162l-147 -177h-214z" />
    <glyph glyph-name="Gcircumflex" unicode="&#x11c;" horiz-adv-x="720" 
d="M308 -10q-76 0 -136 35t-95 99.5t-35 153.5q0 82 25 153t73 125t118 84t160 30q82 0 145 -27.5t101.5 -78.5t44.5 -120l-216 -32q0 35 -18.5 59t-59.5 24q-29 0 -54.5 -14.5t-45 -41t-30.5 -63.5t-11 -82q0 -41 11 -72t36 -48t67 -17q26 0 45 7t32 19.5t20 27.5l8 17
h-126l32 140h306l-94 -368h-148l38 171l19 -20q-17 -52 -44.5 -88t-68.5 -54.5t-99 -18.5zM595 876l55 -167h-142l-37 82l-73 -82h-154l133 167h218z" />
    <glyph glyph-name="gcircumflex" unicode="&#x11d;" horiz-adv-x="618" 
d="M208 -215q-46 0 -90 11t-79 35t-54 61.5t-16 89.5l231 12q-4 -33 2 -52.5t36 -19.5q15 0 26.5 9.5t20 28.5t15.5 50l45 192l6 -9q-16 -89 -59 -134t-113 -45q-44 0 -80 20t-57 61t-21 104q0 57 16 112.5t47 100.5t75 71.5t101 26.5q31 0 61.5 -15t50.5 -50.5t17 -95.5
l-23 -36l43 187h230l-106 -460q-22 -97 -64 -152.5t-106.5 -79t-154.5 -23.5zM290 173q24 0 39 20t22.5 48.5t7.5 54.5q0 16 -5 27.5t-14 17.5t-21 6q-26 0 -42 -21.5t-23 -49t-7 -46.5q0 -26 9.5 -41.5t33.5 -15.5zM160 547l147 177h214l65 -177h-150l-41 71l-73 -71h-162z
" />
    <glyph glyph-name="Gbreve" unicode="&#x11e;" horiz-adv-x="720" 
d="M308 -10q-76 0 -136 35t-95 99.5t-35 153.5q0 82 25 153t73 125t118 84t160 30q82 0 145 -27.5t101.5 -78.5t44.5 -120l-216 -32q0 35 -18.5 59t-59.5 24q-29 0 -54.5 -14.5t-45 -41t-30.5 -63.5t-11 -82q0 -41 11 -72t36 -48t67 -17q26 0 45 7t32 19.5t20 27.5l8 17
h-126l32 140h306l-94 -368h-148l38 171l19 -20q-17 -52 -44.5 -88t-68.5 -54.5t-99 -18.5zM657 873q-14 -79 -70.5 -126t-142.5 -47q-76 0 -117 35t-41 95q0 10 1.5 21t3.5 22h139q-1 -6 -2 -11.5t-1 -10.5q0 -15 10 -24t28 -9q21 0 34.5 14.5t18.5 40.5h139z" />
    <glyph glyph-name="gbreve" unicode="&#x11f;" horiz-adv-x="618" 
d="M208 -215q-46 0 -90 11t-79 35t-54 61.5t-16 89.5l231 12q-4 -33 2 -52.5t36 -19.5q15 0 26.5 9.5t20 28.5t15.5 50l45 192l6 -9q-16 -89 -59 -134t-113 -45q-44 0 -80 20t-57 61t-21 104q0 57 16 112.5t47 100.5t75 71.5t101 26.5q31 0 61.5 -15t50.5 -50.5t17 -95.5
l-23 -36l43 187h230l-106 -460q-22 -97 -64 -152.5t-106.5 -79t-154.5 -23.5zM290 173q24 0 39 20t22.5 48.5t7.5 54.5q0 16 -5 27.5t-14 17.5t-21 6q-26 0 -42 -21.5t-23 -49t-7 -46.5q0 -26 9.5 -41.5t33.5 -15.5zM590 713q-14 -79 -70.5 -126t-142.5 -47q-76 0 -117 35
t-41 95q0 10 1.5 21t3.5 22h139q-1 -6 -2 -11.5t-1 -10.5q0 -15 10 -24t28 -9q21 0 34.5 14.5t18.5 40.5h139z" />
    <glyph glyph-name="Gdotaccent" unicode="&#x120;" horiz-adv-x="720" 
d="M308 -10q-76 0 -136 35t-95 99.5t-35 153.5q0 82 25 153t73 125t118 84t160 30q82 0 145 -27.5t101.5 -78.5t44.5 -120l-216 -32q0 35 -18.5 59t-59.5 24q-29 0 -54.5 -14.5t-45 -41t-30.5 -63.5t-11 -82q0 -41 11 -72t36 -48t67 -17q26 0 45 7t32 19.5t20 27.5l8 17
h-126l32 140h306l-94 -368h-148l38 171l19 -20q-17 -52 -44.5 -88t-68.5 -54.5t-99 -18.5zM445 698q-48 0 -76.5 17t-28.5 57q0 62 34 88t92 26q51 0 79 -17.5t28 -55.5q0 -64 -34 -89.5t-94 -25.5z" />
    <glyph glyph-name="gdotaccent" unicode="&#x121;" horiz-adv-x="618" 
d="M208 -215q-46 0 -90 11t-79 35t-54 61.5t-16 89.5l231 12q-4 -33 2 -52.5t36 -19.5q15 0 26.5 9.5t20 28.5t15.5 50l45 192l6 -9q-16 -89 -59 -134t-113 -45q-44 0 -80 20t-57 61t-21 104q0 57 16 112.5t47 100.5t75 71.5t101 26.5q31 0 61.5 -15t50.5 -50.5t17 -95.5
l-23 -36l43 187h230l-106 -460q-22 -97 -64 -152.5t-106.5 -79t-154.5 -23.5zM290 173q24 0 39 20t22.5 48.5t7.5 54.5q0 16 -5 27.5t-14 17.5t-21 6q-26 0 -42 -21.5t-23 -49t-7 -46.5q0 -26 9.5 -41.5t33.5 -15.5zM377 538q-48 0 -76.5 17t-28.5 57q0 62 34 88t92 26
q51 0 79 -17.5t28 -55.5q0 -64 -34 -89.5t-94 -25.5z" />
    <glyph glyph-name="uni0122" unicode="&#x122;" horiz-adv-x="720" 
d="M308 -10q-76 0 -136 35t-95 99.5t-35 153.5q0 82 25 153t73 125t118 84t160 30q82 0 145 -27.5t101.5 -78.5t44.5 -120l-216 -32q0 35 -18.5 59t-59.5 24q-29 0 -54.5 -14.5t-45 -41t-30.5 -63.5t-11 -82q0 -41 11 -72t36 -48t67 -17q26 0 45 7t32 19.5t20 27.5l8 17
h-126l32 140h306l-94 -368h-148l38 171l19 -20q-17 -52 -44.5 -88t-68.5 -54.5t-99 -18.5zM426 -50l-120 -193h-147l69 193h198z" />
    <glyph glyph-name="uni0123" unicode="&#x123;" horiz-adv-x="618" 
d="M208 -215q-46 0 -90 11t-79 35t-54 61.5t-16 89.5l231 12q-4 -33 2 -52.5t36 -19.5q15 0 26.5 9.5t20 28.5t15.5 50l45 192l6 -9q-16 -89 -59 -134t-113 -45q-44 0 -80 20t-57 61t-21 104q0 57 16 112.5t47 100.5t75 71.5t101 26.5q31 0 61.5 -15t50.5 -50.5t17 -95.5
l-23 -36l43 187h230l-106 -460q-22 -97 -64 -152.5t-106.5 -79t-154.5 -23.5zM290 173q24 0 39 20t22.5 48.5t7.5 54.5q0 16 -5 27.5t-14 17.5t-21 6q-26 0 -42 -21.5t-23 -49t-7 -46.5q0 -26 9.5 -41.5t33.5 -15.5zM566 768l-83 -221h-182l122 221h143z" />
    <glyph glyph-name="Hcircumflex" unicode="&#x124;" horiz-adv-x="747" 
d="M792 660l-153 -660h-233l153 660h233zM378 660l-153 -660h-233l153 660h233zM632 417l-40 -171h-431l40 171h431zM628 876l55 -167h-142l-37 82l-73 -82h-154l133 167h218z" />
    <glyph glyph-name="hcircumflex" unicode="&#x125;" horiz-adv-x="618" 
d="M-20 0l162 700h230l-75 -324l-17 -34q12 43 36 81t64 62.5t97 24.5q45 0 77.5 -22t45.5 -61t1 -91l-78 -336h-230l68 290q5 23 -3.5 36.5t-28.5 13.5q-14 0 -25 -7.5t-18.5 -22t-12.5 -36.5l-63 -274h-230zM416 916l55 -167h-142l-37 82l-73 -82h-154l133 167h218z" />
    <glyph glyph-name="Hbar" unicode="&#x126;" horiz-adv-x="747" 
d="M792 660l-153 -660h-233l153 660h233zM378 660l-153 -660h-233l153 660h233zM632 417l-40 -171h-431l40 171h431zM843 592l-26 -113h-781l26 113h781z" />
    <glyph glyph-name="hbar" unicode="&#x127;" horiz-adv-x="618" 
d="M53 640h398l-28 -121h-398zM-20 0l162 700h230l-75 -324l-17 -34q12 43 36 81t64 62.5t97 24.5q45 0 77.5 -22t45.5 -61t1 -91l-78 -336h-230l68 290q5 23 -3.5 36.5t-28.5 13.5q-14 0 -25 -7.5t-18.5 -22t-12.5 -36.5l-63 -274h-230z" />
    <glyph glyph-name="Itilde" unicode="&#x128;" horiz-adv-x="333" 
d="M378 660l-153 -660h-233l153 660h233zM502 879q-13 -90 -56.5 -133t-97.5 -43q-27 0 -45.5 8t-32.5 18t-26.5 18t-26.5 8t-23 -13.5t-14 -36.5h-116q14 90 54 133t98 43q21 0 39 -8t33.5 -18t30 -18t28.5 -8t23.5 12.5t15.5 37.5h116z" />
    <glyph glyph-name="itilde" unicode="&#x129;" horiz-adv-x="308" 
d="M327 500l-116 -500h-230l116 500h230zM453 719q-13 -90 -56.5 -133t-97.5 -43q-27 0 -45.5 8t-32.5 18t-26.5 18t-26.5 8t-23 -13.5t-14 -36.5h-116q14 90 54 133t98 43q21 0 39 -8t33.5 -18t30 -18t28.5 -8t23.5 12.5t15.5 37.5h116z" />
    <glyph glyph-name="Imacron" unicode="&#x12a;" horiz-adv-x="333" 
d="M466 841l-30 -130h-329l30 130h329zM378 660l-153 -660h-233l153 660h233z" />
    <glyph glyph-name="imacron" unicode="&#x12b;" horiz-adv-x="308" 
d="M410 681l-31 -130h-308l31 130h308zM327 500l-116 -500h-230l116 500h230z" />
    <glyph glyph-name="Ibreve" unicode="&#x12c;" horiz-adv-x="333" 
d="M378 660l-153 -660h-233l153 660h233zM482 873q-14 -79 -70.5 -126t-142.5 -47q-76 0 -117 35t-41 95q0 10 1.5 21t3.5 22h139q-1 -6 -2 -11.5t-1 -10.5q0 -15 10 -24t28 -9q21 0 34.5 14.5t18.5 40.5h139z" />
    <glyph glyph-name="ibreve" unicode="&#x12d;" horiz-adv-x="308" 
d="M327 500l-116 -500h-230l116 500h230zM434 713q-14 -79 -70.5 -126t-142.5 -47q-76 0 -117 35t-41 95q0 10 1.5 21t3.5 22h139q-1 -6 -2 -11.5t-1 -10.5q0 -15 10 -24t28 -9q21 0 34.5 14.5t18.5 40.5h139z" />
    <glyph glyph-name="Iogonek" unicode="&#x12e;" horiz-adv-x="333" 
d="M108 -232q-40 0 -76 11.5t-58.5 36.5t-22.5 67q0 47 27.5 78.5t72.5 48.5t99 18l75 -28q-31 -12 -57 -22t-41.5 -23.5t-15.5 -34.5q0 -20 15 -28.5t34 -8.5q9 0 16.5 2t13.5 4l-6 -106q-19 -8 -39 -11.5t-37 -3.5zM378 660l-153 -660h-233l153 660h233z" />
    <glyph glyph-name="iogonek" unicode="&#x12f;" horiz-adv-x="308" 
d="M94 -232q-40 0 -76 11.5t-58.5 36.5t-22.5 67q0 47 27.5 78.5t72.5 48.5t99 18l75 -28q-31 -12 -57 -22t-41.5 -23.5t-15.5 -34.5q0 -20 15 -28.5t34 -8.5q9 0 16.5 2t13.5 4l-6 -106q-19 -8 -39 -11.5t-37 -3.5zM229 532q-57 0 -87.5 21t-22.5 72q8 56 39.5 77.5
t92.5 21.5q59 0 89.5 -21.5t22.5 -68.5q-8 -61 -40.5 -81.5t-93.5 -20.5zM327 500l-116 -500h-230l116 500h230z" />
    <glyph glyph-name="Idotaccent" unicode="&#x130;" horiz-adv-x="333" 
d="M378 660l-153 -660h-233l153 660h233zM270 698q-48 0 -76.5 17t-28.5 57q0 62 34 88t92 26q51 0 79 -17.5t28 -55.5q0 -64 -34 -89.5t-94 -25.5z" />
    <glyph glyph-name="dotlessi" unicode="&#x131;" horiz-adv-x="308" 
d="M327 500l-116 -500h-230l116 500h230z" />
    <glyph glyph-name="IJ" unicode="&#x132;" horiz-adv-x="982" 
d="M378 660l-153 -660h-233l153 660h233zM627 -10q-88 0 -148 26.5t-92.5 71.5t-36.5 102.5t21 119.5l234 9q-23 -57 -23 -91t16.5 -48.5t43.5 -14.5q35 0 50.5 29t30.5 95l86 371h233l-94 -408q-18 -79 -55 -138t-101 -91.5t-165 -32.5z" />
    <glyph glyph-name="ij" unicode="&#x133;" horiz-adv-x="617" 
d="M229 532q-57 0 -87.5 21t-22.5 72q8 56 39.5 77.5t92.5 21.5q59 0 89.5 -21.5t22.5 -68.5q-8 -61 -40.5 -81.5t-93.5 -20.5zM327 500l-116 -500h-230l116 500h230zM538 532q-57 0 -87.5 21t-22.5 72q8 56 39.5 77.5t92.5 21.5q59 0 89.5 -21.5t22.5 -68.5
q-8 -61 -40.5 -81.5t-93.5 -20.5zM293 -215q-42 0 -83.5 7t-70.5 26l45 135q11 -6 22 -9.5t23 -3.5q31 0 42.5 15.5t20.5 53.5l114 491h230l-119 -513q-25 -106 -76.5 -154t-147.5 -48z" />
    <glyph glyph-name="Jcircumflex" unicode="&#x134;" horiz-adv-x="649" 
d="M294 -10q-88 0 -148 26.5t-92.5 71.5t-36.5 102.5t21 119.5l234 9q-23 -57 -23 -91t16.5 -48.5t43.5 -14.5q35 0 50.5 29t30.5 95l86 371h233l-94 -408q-18 -79 -55 -138t-101 -91.5t-165 -32.5zM752 876l55 -167h-142l-37 82l-73 -82h-154l133 167h218z" />
    <glyph glyph-name="jcircumflex" unicode="&#x135;" horiz-adv-x="308" 
d="M-16 -215q-42 0 -83.5 7t-70.5 26l45 135q11 -6 22 -9.5t23 -3.5q31 0 42.5 15.5t20.5 53.5l114 491h230l-119 -513q-25 -106 -76.5 -154t-147.5 -48zM4 547l147 177h214l65 -177h-150l-41 71l-73 -71h-162z" />
    <glyph glyph-name="uni0136" unicode="&#x136;" horiz-adv-x="717" 
d="M-8 0l153 660h233l-52 -223l231 223h251l-286 -278l141 -382h-236l-84 236l-81 -75l-37 -161h-233zM406 -50l-120 -193h-147l69 193h198z" />
    <glyph glyph-name="uni0137" unicode="&#x137;" horiz-adv-x="657" 
d="M708 500l-304 -272l-23 -8l-172 -155l15 201l230 234h254zM372 700l-162 -700h-230l162 700h230zM463 366l155 -366h-221l-89 234zM386 -50l-120 -193h-147l69 193h198z" />
    <glyph glyph-name="kgreenlandic" unicode="&#x138;" horiz-adv-x="657" 
d="M708 500l-304 -274l-23 -8l-172 -153l15 219l230 216h254zM326 500l-116 -500h-230l116 500h230zM463 364l155 -364h-221l-89 232z" />
    <glyph glyph-name="Lacute" unicode="&#x139;" horiz-adv-x="615" 
d="M265 171h309l-40 -171h-542l153 660h233zM283 876h200l-130 -167h-167z" />
    <glyph glyph-name="lacute" unicode="&#x13a;" horiz-adv-x="345" 
d="M191 -10q-103 0 -146 54.5t-21 148.5l118 507h230l-116 -501q-7 -29 2 -44t36 -15q10 0 17.5 1t11.5 2l-37 -140q-16 -7 -39 -10t-56 -3zM180 746l97 167h200l-130 -167h-167z" />
    <glyph glyph-name="uni013B" unicode="&#x13b;" horiz-adv-x="615" 
d="M265 171h309l-40 -171h-542l153 660h233zM379 -50l-120 -193h-147l69 193h198z" />
    <glyph glyph-name="uni013C" unicode="&#x13c;" horiz-adv-x="345" 
d="M191 -10q-103 0 -146 54.5t-21 148.5l118 507h230l-116 -501q-7 -29 2 -44t36 -15q10 0 17.5 1t11.5 2l-37 -140q-16 -7 -39 -10t-56 -3zM241 -50l-120 -193h-147l69 193h198z" />
    <glyph glyph-name="Lcaron" unicode="&#x13d;" horiz-adv-x="615" 
d="M715 660l-148 -267h-156l101 267h203zM265 171h309l-40 -171h-542l153 660h233z" />
    <glyph glyph-name="lcaron" unicode="&#x13e;" horiz-adv-x="437" 
d="M596 700l-123 -267h-130l84 267h169zM191 -10q-103 0 -146 54.5t-21 148.5l118 507h230l-116 -501q-7 -29 2 -44t36 -15q10 0 17.5 1t11.5 2l-37 -140q-16 -7 -39 -10t-56 -3z" />
    <glyph glyph-name="Ldot" unicode="&#x13f;" horiz-adv-x="661" 
d="M265 171h309l-40 -171h-542l153 660h233zM523 285q-54 0 -85.5 22.5t-31.5 67.5q0 56 33.5 89.5t94.5 33.5q54 0 85.5 -22.5t31.5 -67.5q0 -56 -33 -89.5t-95 -33.5z" />
    <glyph glyph-name="ldot" unicode="&#x140;" horiz-adv-x="557" 
d="M191 -10q-103 0 -146 54.5t-21 148.5l118 507h230l-116 -501q-7 -29 2 -44t36 -15q10 0 17.5 1t11.5 2l-37 -140q-16 -7 -39 -10t-56 -3zM452 246q-54 0 -85.5 22.5t-31.5 67.5q0 56 33.5 89.5t94.5 33.5q54 0 85.5 -22.5t31.5 -67.5q0 -56 -33 -89.5t-95 -33.5z" />
    <glyph glyph-name="Lslash" unicode="&#x141;" horiz-adv-x="698" 
d="M576 529l-38 -165l-540 -223l38 165zM348 171h309l-40 -171h-542l153 660h233z" />
    <glyph glyph-name="lslash" unicode="&#x142;" horiz-adv-x="441" 
d="M3 170l34 148l141 63l107 29l195 97l-34 -147l-142 -69l-112 -36zM255 -10q-103 0 -146 54.5t-21 148.5l118 507h230l-116 -501q-7 -29 2 -44t36 -15q10 0 17.5 1t11.5 2l-37 -140q-16 -7 -39 -10t-56 -3z" />
    <glyph glyph-name="Nacute" unicode="&#x143;" horiz-adv-x="746" 
d="M-8 0l153 660h242l89 -311l23 -93h2l31 159l57 245h202l-153 -660h-239l-93 300l-25 94h-2l-28 -149l-57 -245h-202zM490 876h200l-130 -167h-167z" />
    <glyph glyph-name="nacute" unicode="&#x144;" horiz-adv-x="618" 
d="M-20 0l116 500h205l-30 -191l-8 20q21 86 74 133.5t130 47.5q51 0 85 -22.5t47 -63.5t0 -98l-76 -326h-230l68 290q5 23 -3.5 36.5t-28.5 13.5q-14 0 -25 -7.5t-18.5 -22t-12.5 -36.5l-63 -274h-230zM377 730h209l-150 -177h-161z" />
    <glyph glyph-name="uni0145" unicode="&#x145;" horiz-adv-x="746" 
d="M-8 0l153 660h242l89 -311l23 -93h2l31 159l57 245h202l-153 -660h-239l-93 300l-25 94h-2l-28 -149l-57 -245h-202zM439 -50l-120 -193h-147l69 193h198z" />
    <glyph glyph-name="uni0146" unicode="&#x146;" horiz-adv-x="618" 
d="M-20 0l116 500h205l-30 -191l-8 20q21 86 74 133.5t130 47.5q51 0 85 -22.5t47 -63.5t0 -98l-76 -326h-230l68 290q5 23 -3.5 36.5t-28.5 13.5q-14 0 -25 -7.5t-18.5 -22t-12.5 -36.5l-63 -274h-230zM362 -50l-120 -193h-147l69 193h198z" />
    <glyph glyph-name="Ncaron" unicode="&#x147;" horiz-adv-x="746" 
d="M-8 0l153 660h242l89 -311l23 -93h2l31 159l57 245h202l-153 -660h-239l-93 300l-25 94h-2l-28 -149l-57 -245h-202zM359 709l-55 167h142l37 -82l73 82h154l-133 -167h-218z" />
    <glyph glyph-name="ncaron" unicode="&#x148;" horiz-adv-x="618" 
d="M-20 0l116 500h205l-30 -191l-8 20q21 86 74 133.5t130 47.5q51 0 85 -22.5t47 -63.5t0 -98l-76 -326h-230l68 290q5 23 -3.5 36.5t-28.5 13.5q-14 0 -25 -7.5t-18.5 -22t-12.5 -36.5l-63 -274h-230zM249 553l-65 177h145l42 -74l77 74h162l-147 -177h-214z" />
    <glyph glyph-name="Eng" unicode="&#x14a;" horiz-adv-x="746" 
d="M391 -215q-44 0 -76 5t-58 18l58 147q9 -6 23 -10t34 -4q25 0 41.5 15t24.5 51v0l-113 261l-45 113h-2l-27 -136l-57 -245h-202l153 660h221l104 -279l33 -94h1l21 99l64 274h202l-156 -673q-25 -106 -84 -154t-160 -48z" />
    <glyph glyph-name="eng" unicode="&#x14b;" horiz-adv-x="619" 
d="M262 -215q-55 0 -90.5 7.5t-62.5 23.5l59 133q8 -5 20 -8t29 -3q28 0 48.5 13.5t28.5 48.5l67 290q5 23 -3.5 36.5t-28.5 13.5q-14 0 -25 -7.5t-18.5 -22t-12.5 -36.5l-63 -274h-230l116 500h205l-17 -111q27 59 73.5 90t109.5 31q51 0 85 -22.5t47 -63.5t0 -98l-73 -319
q-28 -121 -91.5 -171.5t-172.5 -50.5z" />
    <glyph glyph-name="Omacron" unicode="&#x14c;" horiz-adv-x="725" 
d="M351 -10q-88 0 -158 34.5t-110 100t-40 156.5q0 86 25 157.5t72.5 123.5t116 80t154.5 28q89 0 158.5 -34.5t109.5 -99.5t40 -157q0 -86 -25 -157.5t-72.5 -123.5t-116 -80t-154.5 -28zM355 165q34 0 58.5 22.5t41 58.5t24.5 77.5t8 78.5q0 31 -8.5 51.5t-26 31
t-45.5 10.5q-34 0 -58.5 -22.5t-41 -58.5t-24.5 -77.5t-8 -78.5q0 -30 8.5 -51t26.5 -31.5t45 -10.5zM675 841l-31 -130h-388l31 130h388z" />
    <glyph glyph-name="omacron" unicode="&#x14d;" horiz-adv-x="603" 
d="M280 -10q-79 0 -137.5 29t-91 80.5t-32.5 118.5q0 78 34 144.5t101.5 107t168.5 40.5q79 0 137.5 -29t91 -80.5t32.5 -118.5q0 -77 -34 -144t-101.5 -107.5t-168.5 -40.5zM282 144q19 0 33.5 17t24.5 43.5t15 54t5 48.5q0 19 -5.5 29.5t-14.5 15t-20 4.5q-19 0 -33.5 -17
t-24.5 -43.5t-15 -54t-5 -48.5q0 -18 5.5 -29t14.5 -15.5t20 -4.5zM593 681l-31 -130h-388l31 130h388z" />
    <glyph glyph-name="Obreve" unicode="&#x14e;" horiz-adv-x="725" 
d="M351 -10q-88 0 -158 34.5t-110 100t-40 156.5q0 86 25 157.5t72.5 123.5t116 80t154.5 28q89 0 158.5 -34.5t109.5 -99.5t40 -157q0 -86 -25 -157.5t-72.5 -123.5t-116 -80t-154.5 -28zM355 165q34 0 58.5 22.5t41 58.5t24.5 77.5t8 78.5q0 31 -8.5 51.5t-26 31
t-45.5 10.5q-34 0 -58.5 -22.5t-41 -58.5t-24.5 -77.5t-8 -78.5q0 -30 8.5 -51t26.5 -31.5t45 -10.5zM658 873q-14 -79 -70.5 -126t-142.5 -47q-76 0 -117 35t-41 95q0 10 1.5 21t3.5 22h139q-1 -6 -2 -11.5t-1 -10.5q0 -15 10 -24t28 -9q21 0 34.5 14.5t18.5 40.5h139z" />
    <glyph glyph-name="obreve" unicode="&#x14f;" horiz-adv-x="603" 
d="M280 -10q-79 0 -137.5 29t-91 80.5t-32.5 118.5q0 78 34 144.5t101.5 107t168.5 40.5q79 0 137.5 -29t91 -80.5t32.5 -118.5q0 -77 -34 -144t-101.5 -107.5t-168.5 -40.5zM282 144q19 0 33.5 17t24.5 43.5t15 54t5 48.5q0 19 -5.5 29.5t-14.5 15t-20 4.5q-19 0 -33.5 -17
t-24.5 -43.5t-15 -54t-5 -48.5q0 -18 5.5 -29t14.5 -15.5t20 -4.5zM577 713q-14 -79 -70.5 -126t-142.5 -47q-76 0 -117 35t-41 95q0 10 1.5 21t3.5 22h139q-1 -6 -2 -11.5t-1 -10.5q0 -15 10 -24t28 -9q21 0 34.5 14.5t18.5 40.5h139z" />
    <glyph glyph-name="Ohungarumlaut" unicode="&#x150;" horiz-adv-x="725" 
d="M351 -10q-88 0 -158 34.5t-110 100t-40 156.5q0 86 25 157.5t72.5 123.5t116 80t154.5 28q89 0 158.5 -34.5t109.5 -99.5t40 -157q0 -86 -25 -157.5t-72.5 -123.5t-116 -80t-154.5 -28zM355 165q34 0 58.5 22.5t41 58.5t24.5 77.5t8 78.5q0 31 -8.5 51.5t-26 31
t-45.5 10.5q-34 0 -58.5 -22.5t-41 -58.5t-24.5 -77.5t-8 -78.5q0 -30 8.5 -51t26.5 -31.5t45 -10.5zM471 709l105 167h187l-141 -167h-151zM245 709l105 167h187l-141 -167h-151z" />
    <glyph glyph-name="ohungarumlaut" unicode="&#x151;" horiz-adv-x="603" 
d="M280 -10q-79 0 -137.5 29t-91 80.5t-32.5 118.5q0 78 34 144.5t101.5 107t168.5 40.5q79 0 137.5 -29t91 -80.5t32.5 -118.5q0 -77 -34 -144t-101.5 -107.5t-168.5 -40.5zM282 144q19 0 33.5 17t24.5 43.5t15 54t5 48.5q0 19 -5.5 29.5t-14.5 15t-20 4.5q-19 0 -33.5 -17
t-24.5 -43.5t-15 -54t-5 -48.5q0 -18 5.5 -29t14.5 -15.5t20 -4.5zM400 553l112 177h187l-149 -177h-150zM166 553l112 177h187l-149 -177h-150z" />
    <glyph glyph-name="OE" unicode="&#x152;" horiz-adv-x="1022" 
d="M318 -10q-74 0 -136.5 34.5t-100.5 99.5t-38 156q0 84 24 155t69.5 124t110.5 82t147 29q56 0 96.5 -11.5t68 -32.5t42.5 -49l20 83h474l-40 -171h-301l-19 -82h234l-36 -158h-234l-18 -78h307l-40 -171h-460l17 72q-35 -37 -81.5 -59.5t-105.5 -22.5zM355 165
q34 0 58.5 22.5t41 58.5t24.5 77.5t8 78.5q0 31 -8.5 51.5t-26 31t-45.5 10.5q-34 0 -58.5 -22.5t-41 -58.5t-24.5 -77.5t-8 -78.5q0 -30 8.5 -51t26.5 -31.5t45 -10.5z" />
    <glyph glyph-name="oe" unicode="&#x153;" horiz-adv-x="934" 
d="M280 -10q-79 0 -137.5 29t-91 80.5t-32.5 118.5q0 78 34 144.5t101.5 107t168.5 40.5q34 0 63.5 -6.5t55.5 -19t46 -32.5q36 29 82.5 43.5t96.5 14.5q78 0 133.5 -28.5t85 -78.5t29.5 -116q0 -19 -2 -40t-8 -41h-330v-1v-1q0 -23 8 -37t22.5 -20t32.5 -6q26 0 40.5 13.5
t20.5 31.5l192 -62q-23 -64 -94 -98.5t-163 -34.5q-32 0 -62.5 7t-57.5 21t-50 36q-34 -32 -80 -48.5t-104 -16.5zM282 144q19 0 33.5 17t24.5 43.5t15 54t5 48.5q0 19 -5.5 29.5t-14.5 15t-20 4.5q-19 0 -33.5 -17t-24.5 -43.5t-15 -54t-5 -48.5q0 -28 12 -38.5t28 -10.5z
M586 291h110q1 5 1 10v9q0 19 -5.5 29.5t-14.5 15t-20 4.5q-19 0 -32.5 -9t-23 -24.5t-15.5 -34.5z" />
    <glyph glyph-name="Racute" unicode="&#x154;" horiz-adv-x="704" 
d="M-8 0l153 660h328q110 0 174 -51t64 -143q0 -82 -38.5 -136.5t-106 -81.5t-155.5 -27l-29 -10h-127l35 153h99q29 0 50 9t33 26t12 39q0 31 -20.5 43.5t-49.5 12.5h-80l-114 -494h-228zM423 0l-105 289l205 34l131 -323h-231zM451 876h200l-130 -167h-167z" />
    <glyph glyph-name="racute" unicode="&#x155;" horiz-adv-x="447" 
d="M-20 0l116 500h207l-43 -226l-5 23q16 63 41 111t64.5 75t96.5 27q17 0 28 -2.5t18 -6.5l-53 -188q-10 5 -24 8t-37 3q-27 0 -53.5 -11.5t-47 -37.5t-31.5 -71l-47 -204h-230zM315 730h209l-150 -177h-161z" />
    <glyph glyph-name="uni0156" unicode="&#x156;" horiz-adv-x="704" 
d="M-8 0l153 660h328q110 0 174 -51t64 -143q0 -82 -38.5 -136.5t-106 -81.5t-155.5 -27l-29 -10h-127l35 153h99q29 0 50 9t33 26t12 39q0 31 -20.5 43.5t-49.5 12.5h-80l-114 -494h-228zM423 0l-105 289l205 34l131 -323h-231zM424 -50l-120 -193h-147l69 193h198z" />
    <glyph glyph-name="uni0157" unicode="&#x157;" horiz-adv-x="447" 
d="M-20 0l116 500h207l-43 -226l-5 23q16 63 41 111t64.5 75t96.5 27q17 0 28 -2.5t18 -6.5l-53 -188q-10 5 -24 8t-37 3q-27 0 -53.5 -11.5t-47 -37.5t-31.5 -71l-47 -204h-230zM203 -50l-120 -193h-147l69 193h198z" />
    <glyph glyph-name="Rcaron" unicode="&#x158;" horiz-adv-x="704" 
d="M-8 0l153 660h328q110 0 174 -51t64 -143q0 -82 -38.5 -136.5t-106 -81.5t-155.5 -27l-29 -10h-127l35 153h99q29 0 50 9t33 26t12 39q0 31 -20.5 43.5t-49.5 12.5h-80l-114 -494h-228zM423 0l-105 289l205 34l131 -323h-231zM320 709l-55 167h142l37 -82l73 82h154
l-133 -167h-218z" />
    <glyph glyph-name="rcaron" unicode="&#x159;" horiz-adv-x="447" 
d="M-20 0l116 500h207l-43 -226l-5 23q16 63 41 111t64.5 75t96.5 27q17 0 28 -2.5t18 -6.5l-53 -188q-10 5 -24 8t-37 3q-27 0 -53.5 -11.5t-47 -37.5t-31.5 -71l-47 -204h-230zM187 553l-65 177h145l42 -74l77 74h162l-147 -177h-214z" />
    <glyph glyph-name="Sacute" unicode="&#x15a;" horiz-adv-x="640" 
d="M328 -13q-67 0 -130.5 15.5t-118.5 47.5t-99 81l116 138q28 -32 67 -57t81 -39.5t79 -14.5q19 0 29.5 4.5t15.5 11.5t5 16q0 11 -10.5 18.5t-34.5 15.5l-93 33q-41 15 -78 39.5t-60 62.5t-23 91q0 75 38 123.5t103 72.5t146 24q108 0 183 -34.5t133 -90.5l-123 -134
q-25 25 -56 44.5t-65 30.5t-69 11q-16 0 -26.5 -3t-15.5 -9t-5 -15q0 -12 15 -20.5t40 -17.5l85 -30q77 -27 118.5 -70.5t41.5 -117.5q0 -72 -38 -123t-103 -77.5t-148 -26.5zM421 876h200l-130 -167h-167z" />
    <glyph glyph-name="sacute" unicode="&#x15b;" horiz-adv-x="527" 
d="M255 -10q-51 0 -105 13t-100 37.5t-77 60.5l96 106q31 -31 74.5 -54t80.5 -23q17 0 25.5 4.5t8.5 12.5q0 7 -5.5 12.5t-19.5 9.5l-42 14q-83 28 -117 63t-34 92t30.5 95t83.5 57.5t120 19.5q83 0 147 -25t107 -66l-89 -110q-16 16 -41 30t-53 22.5t-56 8.5q-13 0 -19 -4
t-6 -11t5.5 -12t18.5 -9l90 -29q54 -17 83.5 -51t29.5 -85q0 -55 -27.5 -95t-80 -62t-128.5 -22zM335 730h209l-150 -177h-161z" />
    <glyph glyph-name="Scircumflex" unicode="&#x15c;" horiz-adv-x="640" 
d="M328 -13q-67 0 -130.5 15.5t-118.5 47.5t-99 81l116 138q28 -32 67 -57t81 -39.5t79 -14.5q19 0 29.5 4.5t15.5 11.5t5 16q0 11 -10.5 18.5t-34.5 15.5l-93 33q-41 15 -78 39.5t-60 62.5t-23 91q0 75 38 123.5t103 72.5t146 24q108 0 183 -34.5t133 -90.5l-123 -134
q-25 25 -56 44.5t-65 30.5t-69 11q-16 0 -26.5 -3t-15.5 -9t-5 -15q0 -12 15 -20.5t40 -17.5l85 -30q77 -27 118.5 -70.5t41.5 -117.5q0 -72 -38 -123t-103 -77.5t-148 -26.5zM558 876l55 -167h-142l-37 82l-73 -82h-154l133 167h218z" />
    <glyph glyph-name="scircumflex" unicode="&#x15d;" horiz-adv-x="527" 
d="M255 -10q-51 0 -105 13t-100 37.5t-77 60.5l96 106q31 -31 74.5 -54t80.5 -23q17 0 25.5 4.5t8.5 12.5q0 7 -5.5 12.5t-19.5 9.5l-42 14q-83 28 -117 63t-34 92t30.5 95t83.5 57.5t120 19.5q83 0 147 -25t107 -66l-89 -110q-16 16 -41 30t-53 22.5t-56 8.5q-13 0 -19 -4
t-6 -11t5.5 -12t18.5 -9l90 -29q54 -17 83.5 -51t29.5 -85q0 -55 -27.5 -95t-80 -62t-128.5 -22zM116 547l147 177h214l65 -177h-150l-41 71l-73 -71h-162z" />
    <glyph glyph-name="Scedilla" unicode="&#x15e;" horiz-adv-x="640" 
d="M328 -13q-67 0 -130.5 15.5t-118.5 47.5t-99 81l116 138q28 -32 67 -57t81 -39.5t79 -14.5q19 0 29.5 4.5t15.5 11.5t5 16q0 11 -10.5 18.5t-34.5 15.5l-93 33q-41 15 -78 39.5t-60 62.5t-23 91q0 75 38 123.5t103 72.5t146 24q108 0 183 -34.5t133 -90.5l-123 -134
q-25 25 -56 44.5t-65 30.5t-69 11q-16 0 -26.5 -3t-15.5 -9t-5 -15q0 -12 15 -20.5t40 -17.5l85 -30q77 -27 118.5 -70.5t41.5 -117.5q0 -72 -38 -123t-103 -77.5t-148 -26.5zM213 6l46 23q63 -6 97.5 -35t34.5 -75q0 -41 -19 -72t-52.5 -48t-78.5 -17q-40 0 -69.5 10
t-52.5 30l52 89q11 -9 28 -13.5t28 -4.5q23 0 38.5 16t15.5 36q0 18 -16.5 34.5t-51.5 26.5z" />
    <glyph glyph-name="scedilla" unicode="&#x15f;" horiz-adv-x="527" 
d="M255 -10q-51 0 -105 13t-100 37.5t-77 60.5l96 106q31 -31 74.5 -54t80.5 -23q17 0 25.5 4.5t8.5 12.5q0 7 -5.5 12.5t-19.5 9.5l-42 14q-83 28 -117 63t-34 92t30.5 95t83.5 57.5t120 19.5q83 0 147 -25t107 -66l-89 -110q-16 16 -41 30t-53 22.5t-56 8.5q-13 0 -19 -4
t-6 -11t5.5 -12t18.5 -9l90 -29q54 -17 83.5 -51t29.5 -85q0 -55 -27.5 -95t-80 -62t-128.5 -22zM157 6l46 23q63 -6 97.5 -35t34.5 -75q0 -41 -19 -72t-52.5 -48t-78.5 -17q-40 0 -69.5 10t-52.5 30l52 89q11 -9 28 -13.5t28 -4.5q23 0 38.5 16t15.5 36q0 18 -16.5 34.5
t-51.5 26.5z" />
    <glyph glyph-name="Scaron" unicode="&#x160;" horiz-adv-x="640" 
d="M328 -13q-67 0 -130.5 15.5t-118.5 47.5t-99 81l116 138q28 -32 67 -57t81 -39.5t79 -14.5q19 0 29.5 4.5t15.5 11.5t5 16q0 11 -10.5 18.5t-34.5 15.5l-93 33q-41 15 -78 39.5t-60 62.5t-23 91q0 75 38 123.5t103 72.5t146 24q108 0 183 -34.5t133 -90.5l-123 -134
q-25 25 -56 44.5t-65 30.5t-69 11q-16 0 -26.5 -3t-15.5 -9t-5 -15q0 -12 15 -20.5t40 -17.5l85 -30q77 -27 118.5 -70.5t41.5 -117.5q0 -72 -38 -123t-103 -77.5t-148 -26.5zM290 709l-55 167h142l37 -82l73 82h154l-133 -167h-218z" />
    <glyph glyph-name="scaron" unicode="&#x161;" horiz-adv-x="527" 
d="M255 -10q-51 0 -105 13t-100 37.5t-77 60.5l96 106q31 -31 74.5 -54t80.5 -23q17 0 25.5 4.5t8.5 12.5q0 7 -5.5 12.5t-19.5 9.5l-42 14q-83 28 -117 63t-34 92t30.5 95t83.5 57.5t120 19.5q83 0 147 -25t107 -66l-89 -110q-16 16 -41 30t-53 22.5t-56 8.5q-13 0 -19 -4
t-6 -11t5.5 -12t18.5 -9l90 -29q54 -17 83.5 -51t29.5 -85q0 -55 -27.5 -95t-80 -62t-128.5 -22zM207 553l-65 177h145l42 -74l77 74h162l-147 -177h-214z" />
    <glyph glyph-name="uni0162" unicode="&#x162;" horiz-adv-x="686" 
d="M251 -218q-40 0 -69.5 10t-52.5 30l52 89q11 -9 28 -13.5t28 -4.5q23 0 38.5 16t15.5 36q0 18 -16.5 34.5t-51.5 26.5l46 23q63 -6 97.5 -35t34.5 -75q0 -41 -19 -72t-52.5 -48t-78.5 -17zM761 660l-40 -171h-206l-113 -489h-233l113 489h-207l40 171h646z" />
    <glyph glyph-name="uni0163" unicode="&#x163;" horiz-adv-x="458" 
d="M270 -10q-71 0 -120 23.5t-68.5 71t-3.5 119.5l93 402l245 64l-106 -457q-10 -34 7.5 -53.5t57.5 -19.5q22 0 33.5 2t21.5 5l-28 -138q-28 -10 -62.5 -14.5t-69.5 -4.5zM24 345l36 155h441l-36 -155h-441zM162 6l46 23q63 -6 97.5 -35t34.5 -75q0 -41 -19 -72t-52.5 -48
t-78.5 -17q-40 0 -69.5 10t-52.5 30l52 89q11 -9 28 -13.5t28 -4.5q23 0 38.5 16t15.5 36q0 18 -16.5 34.5t-51.5 26.5z" />
    <glyph glyph-name="Tcaron" unicode="&#x164;" horiz-adv-x="686" 
d="M761 660l-40 -171h-206l-113 -489h-233l113 489h-207l40 171h646zM329 709l-55 167h142l37 -82l73 82h154l-133 -167h-218z" />
    <glyph glyph-name="tcaron" unicode="&#x165;" horiz-adv-x="458" 
d="M666 767l-123 -227h-130l84 227h169zM270 -10q-71 0 -120 23.5t-68.5 71t-3.5 119.5l93 402l245 64l-106 -457q-10 -34 7.5 -53.5t57.5 -19.5q22 0 33.5 2t21.5 5l-28 -138q-28 -10 -62.5 -14.5t-69.5 -4.5zM24 345l36 155h441l-36 -155h-441z" />
    <glyph glyph-name="Tbar" unicode="&#x166;" horiz-adv-x="686" 
d="M761 660l-40 -171h-206l-113 -489h-233l113 489h-207l40 171h646zM630 374l-39 -171h-518l39 171h518z" />
    <glyph glyph-name="tbar" unicode="&#x167;" horiz-adv-x="458" 
d="M456 310l-28 -121h-438l28 121h438zM270 -10q-71 0 -120 23.5t-68.5 71t-3.5 119.5l93 402l245 64l-106 -457q-10 -34 7.5 -53.5t57.5 -19.5q22 0 33.5 2t21.5 5l-28 -138q-28 -10 -62.5 -14.5t-69.5 -4.5zM24 345l36 155h441l-36 -155h-441z" />
    <glyph glyph-name="Utilde" unicode="&#x168;" horiz-adv-x="711" 
d="M332 -10q-107 0 -178.5 37t-100 106t-6.5 164l85 363h234l-89 -390q-7 -33 0 -56.5t26.5 -36t49.5 -12.5q38 0 59 22t32 72l93 401h233l-92 -394q-34 -143 -115 -209.5t-231 -66.5zM692 879q-13 -90 -56.5 -133t-97.5 -43q-27 0 -45.5 8t-32.5 18t-26.5 18t-26.5 8
t-23 -13.5t-14 -36.5h-116q14 90 54 133t98 43q21 0 39 -8t33.5 -18t30 -18t28.5 -8t23.5 12.5t15.5 37.5h116z" />
    <glyph glyph-name="utilde" unicode="&#x169;" horiz-adv-x="618" 
d="M153 -10q-52 0 -86.5 22t-47.5 62t-1 95l77 331h230l-67 -290q-6 -25 4 -37.5t30 -12.5q15 0 24.5 7.5t16.5 22.5t12 36l63 274h230l-116 -500h-205l30 191l8 -22q-22 -85 -74.5 -132t-127.5 -47zM602 719q-13 -90 -56.5 -133t-97.5 -43q-27 0 -45.5 8t-32.5 18t-26.5 18
t-26.5 8t-23 -13.5t-14 -36.5h-116q14 90 54 133t98 43q21 0 39 -8t33.5 -18t30 -18t28.5 -8t23.5 12.5t15.5 37.5h116z" />
    <glyph glyph-name="Umacron" unicode="&#x16a;" horiz-adv-x="711" 
d="M332 -10q-107 0 -178.5 37t-100 106t-6.5 164l85 363h234l-89 -390q-7 -33 0 -56.5t26.5 -36t49.5 -12.5q38 0 59 22t32 72l93 401h233l-92 -394q-34 -143 -115 -209.5t-231 -66.5zM689 841l-31 -130h-388l31 130h388z" />
    <glyph glyph-name="umacron" unicode="&#x16b;" horiz-adv-x="618" 
d="M153 -10q-52 0 -86.5 22t-47.5 62t-1 95l77 331h230l-67 -290q-6 -25 4 -37.5t30 -12.5q15 0 24.5 7.5t16.5 22.5t12 36l63 274h230l-116 -500h-205l30 191l8 -22q-22 -85 -74.5 -132t-127.5 -47zM599 681l-31 -130h-388l31 130h388z" />
    <glyph glyph-name="Ubreve" unicode="&#x16c;" horiz-adv-x="711" 
d="M332 -10q-107 0 -178.5 37t-100 106t-6.5 164l85 363h234l-89 -390q-7 -33 0 -56.5t26.5 -36t49.5 -12.5q38 0 59 22t32 72l93 401h233l-92 -394q-34 -143 -115 -209.5t-231 -66.5zM672 873q-14 -79 -70.5 -126t-142.5 -47q-76 0 -117 35t-41 95q0 10 1.5 21t3.5 22h139
q-1 -6 -2 -11.5t-1 -10.5q0 -15 10 -24t28 -9q21 0 34.5 14.5t18.5 40.5h139z" />
    <glyph glyph-name="ubreve" unicode="&#x16d;" horiz-adv-x="618" 
d="M153 -10q-52 0 -86.5 22t-47.5 62t-1 95l77 331h230l-67 -290q-6 -25 4 -37.5t30 -12.5q15 0 24.5 7.5t16.5 22.5t12 36l63 274h230l-116 -500h-205l30 191l8 -22q-22 -85 -74.5 -132t-127.5 -47zM583 713q-14 -79 -70.5 -126t-142.5 -47q-76 0 -117 35t-41 95
q0 10 1.5 21t3.5 22h139q-1 -6 -2 -11.5t-1 -10.5q0 -15 10 -24t28 -9q21 0 34.5 14.5t18.5 40.5h139z" />
    <glyph glyph-name="Uring" unicode="&#x16e;" horiz-adv-x="711" 
d="M332 -10q-107 0 -178.5 37t-100 106t-6.5 164l85 363h234l-89 -390q-7 -33 0 -56.5t26.5 -36t49.5 -12.5q38 0 59 22t32 72l93 401h233l-92 -394q-34 -143 -115 -209.5t-231 -66.5zM475 949q68 0 106.5 -32t38.5 -85q0 -63 -43.5 -103.5t-111.5 -40.5q-67 0 -106 31.5
t-39 84.5q0 63 43.5 104t111.5 41zM472 860q-18 0 -31.5 -12.5t-13.5 -35.5q0 -16 11 -25.5t30 -9.5q18 0 31 12.5t13 34.5q0 17 -10.5 26.5t-29.5 9.5z" />
    <glyph glyph-name="uring" unicode="&#x16f;" horiz-adv-x="618" 
d="M153 -10q-52 0 -86.5 22t-47.5 62t-1 95l77 331h230l-67 -290q-6 -25 4 -37.5t30 -12.5q15 0 24.5 7.5t16.5 22.5t12 36l63 274h230l-116 -500h-205l30 191l8 -22q-22 -85 -74.5 -132t-127.5 -47zM387 796q68 0 106.5 -32t38.5 -85q0 -63 -43.5 -103.5t-111.5 -40.5
q-67 0 -106 31.5t-39 84.5q0 63 43.5 104t111.5 41zM384 707q-18 0 -31.5 -12.5t-13.5 -35.5q0 -16 11 -25.5t30 -9.5q18 0 31 12.5t13 34.5q0 17 -10.5 26.5t-29.5 9.5z" />
    <glyph glyph-name="Uhungarumlaut" unicode="&#x170;" horiz-adv-x="711" 
d="M332 -10q-107 0 -178.5 37t-100 106t-6.5 164l85 363h234l-89 -390q-7 -33 0 -56.5t26.5 -36t49.5 -12.5q38 0 59 22t32 72l93 401h233l-92 -394q-34 -143 -115 -209.5t-231 -66.5zM485 709l105 167h187l-141 -167h-151zM259 709l105 167h187l-141 -167h-151z" />
    <glyph glyph-name="uhungarumlaut" unicode="&#x171;" horiz-adv-x="618" 
d="M153 -10q-52 0 -86.5 22t-47.5 62t-1 95l77 331h230l-67 -290q-6 -25 4 -37.5t30 -12.5q15 0 24.5 7.5t16.5 22.5t12 36l63 274h230l-116 -500h-205l30 191l8 -22q-22 -85 -74.5 -132t-127.5 -47zM406 553l112 177h187l-149 -177h-150zM172 553l112 177h187l-149 -177
h-150z" />
    <glyph glyph-name="Uogonek" unicode="&#x172;" horiz-adv-x="711" 
d="M332 -10q-107 0 -178.5 37t-100 106t-6.5 164l85 363h234l-89 -390q-7 -33 0 -56.5t26.5 -36t49.5 -12.5q38 0 59 22t32 72l93 401h233l-92 -394q-34 -143 -115 -209.5t-231 -66.5zM326 -230q-40 0 -74.5 12.5t-55.5 38.5t-21 68q0 47 26 77t70.5 45t98.5 15l73 -24
q-31 -12 -57 -21.5t-41.5 -22t-15.5 -33.5q0 -20 15 -28.5t34 -8.5q9 0 16.5 2t13.5 4l-6 -109q-19 -8 -39 -11.5t-37 -3.5z" />
    <glyph glyph-name="uogonek" unicode="&#x173;" horiz-adv-x="618" 
d="M403 -219q-40 0 -76 11.5t-58.5 36.5t-22.5 67q0 47 27.5 78.5t72.5 48.5t99 18l77 -41q-48 -8 -82 -21.5t-34 -45.5q0 -20 15 -28.5t34 -8.5q9 0 16.5 2t13.5 4l-6 -106q-19 -8 -39 -11.5t-37 -3.5zM153 -10q-52 0 -86.5 22t-47.5 62t-1 95l77 331h230l-67 -290
q-6 -25 4 -37.5t30 -12.5q15 0 24.5 7.5t16.5 22.5t12 36l63 274h230l-116 -500h-205l30 191l8 -22q-22 -85 -74.5 -132t-127.5 -47z" />
    <glyph glyph-name="Wcircumflex" unicode="&#x174;" horiz-adv-x="1021" 
d="M121 0l-34 660h230l-17 -473l190 473h200l1 -473l176 473h256l-341 -660h-252l4 248l15 177h-3l-70 -177l-102 -248h-253zM753 876l55 -167h-142l-37 82l-73 -82h-154l133 167h218z" />
    <glyph glyph-name="wcircumflex" unicode="&#x175;" horiz-adv-x="932" 
d="M58 0l-9 500h225l-20 -335l148 335h226v-335l128 335h243l-248 -500h-283v248l-118 -248h-292zM311 547l147 177h214l65 -177h-150l-41 71l-73 -71h-162z" />
    <glyph glyph-name="Ycircumflex" unicode="&#x176;" horiz-adv-x="713" 
d="M182 0l55 237l-133 423h219l41 -151l25 -117l68 117l99 151h243l-333 -439l-51 -221h-233zM592 876l55 -167h-142l-37 82l-73 -82h-154l133 167h218z" />
    <glyph glyph-name="ycircumflex" unicode="&#x177;" horiz-adv-x="594" 
d="M66 -215q-47 0 -88.5 10t-64.5 25l57 155q35 -29 92 -29q25 0 44.5 7t28.5 21l3 5l-88 521h234l-6 -258l-6 -120l47 121l103 257h240l-284 -504q-43 -77 -87.5 -123.5t-98.5 -67t-126 -20.5zM173 547l147 177h214l65 -177h-150l-41 71l-73 -71h-162z" />
    <glyph glyph-name="Ydieresis" unicode="&#x178;" horiz-adv-x="713" 
d="M182 0l55 237l-133 423h219l41 -151l25 -117l68 117l99 151h243l-333 -439l-51 -221h-233zM566 697q-44 0 -71 16.5t-27 55.5q0 59 31.5 83.5t86.5 24.5q44 0 70 -16.5t26 -54.5q0 -60 -31 -84.5t-85 -24.5zM325 697q-44 0 -71 16.5t-27 55.5q0 59 31.5 83.5t86.5 24.5
q44 0 70 -16.5t26 -54.5q0 -60 -31 -84.5t-85 -24.5z" />
    <glyph glyph-name="Zacute" unicode="&#x179;" horiz-adv-x="644" 
d="M-26 0l39 169l401 325h-337l39 166h590l-39 -169l-400 -325h342l-39 -166h-596zM421 876h200l-130 -167h-167z" />
    <glyph glyph-name="zacute" unicode="&#x17a;" horiz-adv-x="511" 
d="M-30 0l31 132l183 172l58 48l-73 -4h-122l35 152h457l-31 -132l-180 -170l-60 -50l82 4h122l-35 -152h-467zM323 730h209l-150 -177h-161z" />
    <glyph glyph-name="Zdotaccent" unicode="&#x17b;" horiz-adv-x="644" 
d="M-26 0l39 169l401 325h-337l39 166h590l-39 -169l-400 -325h342l-39 -166h-596zM408 698q-48 0 -76.5 17t-28.5 57q0 62 34 88t92 26q51 0 79 -17.5t28 -55.5q0 -64 -34 -89.5t-94 -25.5z" />
    <glyph glyph-name="zdotaccent" unicode="&#x17c;" horiz-adv-x="511" 
d="M-30 0l31 132l183 172l58 48l-73 -4h-122l35 152h457l-31 -132l-180 -170l-60 -50l82 4h122l-35 -152h-467zM321 538q-48 0 -76.5 17t-28.5 57q0 62 34 88t92 26q51 0 79 -17.5t28 -55.5q0 -64 -34 -89.5t-94 -25.5z" />
    <glyph glyph-name="Zcaron" unicode="&#x17d;" horiz-adv-x="644" 
d="M-26 0l39 169l401 325h-337l39 166h590l-39 -169l-400 -325h342l-39 -166h-596zM290 709l-55 167h142l37 -82l73 82h154l-133 -167h-218z" />
    <glyph glyph-name="zcaron" unicode="&#x17e;" horiz-adv-x="511" 
d="M-30 0l31 132l183 172l58 48l-73 -4h-122l35 152h457l-31 -132l-180 -170l-60 -50l82 4h122l-35 -152h-467zM195 553l-65 177h145l42 -74l77 74h162l-147 -177h-214z" />
    <glyph glyph-name="longs" unicode="&#x17f;" horiz-adv-x="367" 
d="M-21 0l120 520q18 76 61 119.5t100 62t114 18.5q38 0 62.5 -6t41.5 -20l-37 -134q-14 10 -39 10q-29 0 -52.5 -15t-31.5 -50l-117 -505h-222z" />
    <glyph glyph-name="uni018E" unicode="&#x18e;" horiz-adv-x="626" 
d="M518 0h-560l40 171h327l18 78h-254l36 158h254l19 82h-315l40 171h548z" />
    <glyph glyph-name="uni018F" unicode="&#x18f;" horiz-adv-x="713" 
d="M348 -10q-90 0 -158 34.5t-106 99t-38 154.5q0 26 1.5 44.5t6.5 36.5h421q1 8 1 16.5v16.5q0 36 -11.5 58.5t-32 33.5t-47.5 11q-41 0 -66 -21.5t-41 -62.5l-209 65q37 92 117.5 143t206.5 51q91 0 161.5 -34.5t111 -100t40.5 -158.5q0 -86 -24.5 -157t-71 -122.5
t-112.5 -79.5t-150 -28zM349 167q27 0 47 10t34 27.5t23 39.5h-186q2 -26 10.5 -43t26.5 -25.5t45 -8.5z" />
    <glyph glyph-name="florin" unicode="&#x192;" horiz-adv-x="535" 
d="M542 722q27 0 58.5 -6t52.5 -23l-58 -130q-7 5 -17.5 8t-23.5 3q-34 0 -62 -18.5t-41 -52.5l-170 -440q-36 -92 -112 -141.5t-170 -49.5q-42 0 -66.5 6.5t-45.5 22.5l58 130q16 -11 42 -11q34 0 61.5 19t40.5 51l172 440q36 93 111.5 142.5t169.5 49.5zM547 429l-35 -152
h-478l35 152h478z" />
    <glyph glyph-name="Ohorn" unicode="&#x1a0;" horiz-adv-x="725" 
d="M535 561l-27 98q34 -6 57.5 -0.5t38 20.5t21.5 36.5t7 48.5h148q-5 -71 -32.5 -118t-80 -68.5t-132.5 -16.5zM351 -10q-88 0 -158 34.5t-110 100t-40 156.5q0 86 25 157.5t72.5 123.5t116 80t154.5 28q89 0 158.5 -34.5t109.5 -99.5t40 -157q0 -86 -25 -157.5
t-72.5 -123.5t-116 -80t-154.5 -28zM355 165q34 0 58.5 22.5t41 58.5t24.5 77.5t8 78.5q0 31 -8.5 51.5t-26 31t-45.5 10.5q-34 0 -58.5 -22.5t-41 -58.5t-24.5 -77.5t-8 -78.5q0 -30 8.5 -51t26.5 -31.5t45 -10.5z" />
    <glyph glyph-name="ohorn" unicode="&#x1a1;" horiz-adv-x="603" 
d="M438 401l-27 98q27 -8 46.5 4t32 39t16.5 63h147q-13 -78 -39 -124t-69 -65t-107 -15zM280 -10q-79 0 -137.5 29t-91 80.5t-32.5 118.5q0 78 34 144.5t101.5 107t168.5 40.5q79 0 137.5 -29t91 -80.5t32.5 -118.5q0 -77 -34 -144t-101.5 -107.5t-168.5 -40.5zM282 144
q19 0 33.5 17t24.5 43.5t15 54t5 48.5q0 19 -5.5 29.5t-14.5 15t-20 4.5q-19 0 -33.5 -17t-24.5 -43.5t-15 -54t-5 -48.5q0 -18 5.5 -29t14.5 -15.5t20 -4.5z" />
    <glyph glyph-name="Uhorn" unicode="&#x1af;" horiz-adv-x="711" 
d="M332 -10q-107 0 -178.5 37t-100 106t-6.5 164l85 363h234l-89 -390q-7 -33 0 -56.5t26.5 -36t49.5 -12.5q38 0 59 22t32 72l93 401h233l-92 -394q-34 -143 -115 -209.5t-231 -66.5zM640 553l25 107q26 0 43.5 24t23.5 80h150q-9 -77 -38.5 -124.5t-80.5 -68t-123 -18.5z
" />
    <glyph glyph-name="uhorn" unicode="&#x1b0;" horiz-adv-x="638" 
d="M153 -10q-52 0 -86.5 22t-47.5 62t-1 95l77 331h230l-67 -290q-6 -25 4 -37.5t30 -12.5q15 0 24.5 7.5t16.5 22.5t12 36l63 274h230l-116 -500h-205l30 191l8 -22q-22 -85 -74.5 -132t-127.5 -47zM574 398l-28 102q23 0 40 23t27 82h147q-12 -79 -39 -124t-64.5 -63.5
t-82.5 -19.5z" />
    <glyph glyph-name="uni01C4" unicode="&#x1c4;" horiz-adv-x="1353" 
d="M-8 0l153 660h261q100 0 166 -33.5t99 -94t33 -142.5q0 -89 -24 -161t-71.5 -123t-115.5 -78.5t-157 -27.5h-344zM264 166h55q41 0 70.5 21t47.5 55t26.5 74.5t8.5 79.5q0 32 -10 54t-30 33t-51 11h-42zM683 0l39 169l401 325h-337l39 166h590l-39 -169l-400 -325h342
l-39 -166h-596zM999 709l-55 167h142l37 -82l73 82h154l-133 -167h-218z" />
    <glyph glyph-name="uni01C5" unicode="&#x1c5;" horiz-adv-x="1220" 
d="M-8 0l153 660h261q100 0 166 -33.5t99 -94t33 -142.5q0 -89 -24 -161t-71.5 -123t-115.5 -78.5t-157 -27.5h-344zM264 166h55q41 0 70.5 21t47.5 55t26.5 74.5t8.5 79.5q0 32 -10 54t-30 33t-51 11h-42zM679 0l31 132l183 172l58 48l-73 -4h-122l35 152h457l-31 -132
l-180 -170l-60 -50l82 4h122l-35 -152h-467zM904 553l-65 177h145l42 -74l77 74h162l-147 -177h-214z" />
    <glyph glyph-name="uni01C6" unicode="&#x1c6;" horiz-adv-x="1130" 
d="M174 -10q-44 0 -80.5 20.5t-57.5 62t-21 105.5q0 59 16 118t47 107.5t76 77.5t103 29q26 0 53 -10t48 -33.5t28 -66.5l69 300h230l-162 -700h-210l17 95q-25 -49 -65.5 -77t-90.5 -28zM284 152q18 0 32 14.5t23.5 37.5t14 47.5t4.5 43.5q0 17 -4.5 28.5t-13 17.5t-21.5 6
q-21 0 -35.5 -15.5t-23.5 -38t-13.5 -46t-4.5 -38.5q0 -17 4.5 -30t13.5 -20t24 -7zM589 0l31 132l183 172l58 48l-73 -4h-122l35 152h457l-31 -132l-180 -170l-60 -50l82 4h122l-35 -152h-467zM814 553l-65 177h145l42 -74l77 74h162l-147 -177h-214z" />
    <glyph glyph-name="uni01C7" unicode="&#x1c7;" horiz-adv-x="1264" 
d="M265 171h309l-40 -171h-542l153 660h233zM909 -10q-88 0 -148 26.5t-92.5 71.5t-36.5 102.5t21 119.5l234 9q-23 -57 -23 -91t16.5 -48.5t43.5 -14.5q35 0 50.5 29t30.5 95l86 371h233l-94 -408q-18 -79 -55 -138t-101 -91.5t-165 -32.5z" />
    <glyph glyph-name="uni01C8" unicode="&#x1c8;" horiz-adv-x="923" 
d="M265 171h309l-40 -171h-542l153 660h233zM844 532q-57 0 -87.5 21t-22.5 72q8 56 39.5 77.5t92.5 21.5q59 0 89.5 -21.5t22.5 -68.5q-8 -61 -40.5 -81.5t-93.5 -20.5zM599 -215q-42 0 -83.5 7t-70.5 26l45 135q11 -6 22 -9.5t23 -3.5q31 0 42.5 15.5t20.5 53.5l114 491
h230l-119 -513q-25 -106 -76.5 -154t-147.5 -48z" />
    <glyph glyph-name="uni01C9" unicode="&#x1c9;" horiz-adv-x="653" 
d="M191 -10q-103 0 -146 54.5t-21 148.5l118 507h230l-116 -501q-7 -29 2 -44t36 -15q10 0 17.5 1t11.5 2l-37 -140q-16 -7 -39 -10t-56 -3zM574 532q-57 0 -87.5 21t-22.5 72q8 56 39.5 77.5t92.5 21.5q59 0 89.5 -21.5t22.5 -68.5q-8 -61 -40.5 -81.5t-93.5 -20.5z
M329 -215q-42 0 -83.5 7t-70.5 26l45 135q11 -6 22 -9.5t23 -3.5q31 0 42.5 15.5t20.5 53.5l114 491h230l-119 -513q-25 -106 -76.5 -154t-147.5 -48z" />
    <glyph glyph-name="uni01CA" unicode="&#x1ca;" horiz-adv-x="1395" 
d="M-8 0l153 660h242l89 -311l23 -93h2l31 159l57 245h202l-153 -660h-239l-93 300l-25 94h-2l-28 -149l-57 -245h-202zM1040 -10q-88 0 -148 26.5t-92.5 71.5t-36.5 102.5t21 119.5l234 9q-23 -57 -23 -91t16.5 -48.5t43.5 -14.5q35 0 50.5 29t30.5 95l86 371h233l-94 -408
q-18 -79 -55 -138t-101 -91.5t-165 -32.5z" />
    <glyph glyph-name="uni01CB" unicode="&#x1cb;" horiz-adv-x="1054" 
d="M-8 0l153 660h242l89 -311l23 -93h2l31 159l57 245h202l-153 -660h-239l-93 300l-25 94h-2l-28 -149l-57 -245h-202zM975 532q-57 0 -87.5 21t-22.5 72q8 56 39.5 77.5t92.5 21.5q59 0 89.5 -21.5t22.5 -68.5q-8 -61 -40.5 -81.5t-93.5 -20.5zM730 -215q-42 0 -83.5 7
t-70.5 26l45 135q11 -6 22 -9.5t23 -3.5q31 0 42.5 15.5t20.5 53.5l114 491h230l-119 -513q-25 -106 -76.5 -154t-147.5 -48z" />
    <glyph glyph-name="uni01CC" unicode="&#x1cc;" horiz-adv-x="926" 
d="M-20 0l116 500h205l-30 -191l-8 20q21 86 74 133.5t130 47.5q51 0 85 -22.5t47 -63.5t0 -98l-76 -326h-230l68 290q5 23 -3.5 36.5t-28.5 13.5q-14 0 -25 -7.5t-18.5 -22t-12.5 -36.5l-63 -274h-230zM847 532q-57 0 -87.5 21t-22.5 72q8 56 39.5 77.5t92.5 21.5
q59 0 89.5 -21.5t22.5 -68.5q-8 -61 -40.5 -81.5t-93.5 -20.5zM602 -215q-42 0 -83.5 7t-70.5 26l45 135q11 -6 22 -9.5t23 -3.5q31 0 42.5 15.5t20.5 53.5l114 491h230l-119 -513q-25 -106 -76.5 -154t-147.5 -48z" />
    <glyph glyph-name="uni01DD" unicode="&#x1dd;" horiz-adv-x="588" 
d="M305 509q78 0 137 -27t92.5 -78t33.5 -123q0 -88 -36.5 -153.5t-102.5 -101.5t-156 -36q-73 0 -129 30.5t-87 85t-31 126.5q0 14 1 30.5t2 31.5h382l1 -85h-224l55 21q-4 -13 -5 -22.5t-1 -17.5q0 -18 5.5 -29t15 -15.5t19.5 -4.5q26 0 42.5 15t25 39t11.5 51t3 50
t-6.5 37t-19.5 20t-31 6q-25 0 -41.5 -13.5t-22.5 -31.5l-192 62q29 58 98.5 95.5t160.5 37.5z" />
    <glyph glyph-name="Gcaron" unicode="&#x1e6;" horiz-adv-x="720" 
d="M308 -10q-76 0 -136 35t-95 99.5t-35 153.5q0 82 25 153t73 125t118 84t160 30q82 0 145 -27.5t101.5 -78.5t44.5 -120l-216 -32q0 35 -18.5 59t-59.5 24q-29 0 -54.5 -14.5t-45 -41t-30.5 -63.5t-11 -82q0 -41 11 -72t36 -48t67 -17q26 0 45 7t32 19.5t20 27.5l8 17
h-126l32 140h306l-94 -368h-148l38 171l19 -20q-17 -52 -44.5 -88t-68.5 -54.5t-99 -18.5zM327 709l-55 167h142l37 -82l73 82h154l-133 -167h-218z" />
    <glyph glyph-name="gcaron" unicode="&#x1e7;" horiz-adv-x="618" 
d="M208 -215q-46 0 -90 11t-79 35t-54 61.5t-16 89.5l231 12q-4 -33 2 -52.5t36 -19.5q15 0 26.5 9.5t20 28.5t15.5 50l45 192l6 -9q-16 -89 -59 -134t-113 -45q-44 0 -80 20t-57 61t-21 104q0 57 16 112.5t47 100.5t75 71.5t101 26.5q31 0 61.5 -15t50.5 -50.5t17 -95.5
l-23 -36l43 187h230l-106 -460q-22 -97 -64 -152.5t-106.5 -79t-154.5 -23.5zM290 173q24 0 39 20t22.5 48.5t7.5 54.5q0 16 -5 27.5t-14 17.5t-21 6q-26 0 -42 -21.5t-23 -49t-7 -46.5q0 -26 9.5 -41.5t33.5 -15.5zM251 553l-65 177h145l42 -74l77 74h162l-147 -177h-214z
" />
    <glyph glyph-name="uni01EA" unicode="&#x1ea;" horiz-adv-x="725" 
d="M351 -10q-88 0 -158 34.5t-110 100t-40 156.5q0 86 25 157.5t72.5 123.5t116 80t154.5 28q89 0 158.5 -34.5t109.5 -99.5t40 -157q0 -86 -25 -157.5t-72.5 -123.5t-116 -80t-154.5 -28zM355 165q34 0 58.5 22.5t41 58.5t24.5 77.5t8 78.5q0 31 -8.5 51.5t-26 31
t-45.5 10.5q-34 0 -58.5 -22.5t-41 -58.5t-24.5 -77.5t-8 -78.5q0 -30 8.5 -51t26.5 -31.5t45 -10.5zM334 -228q-40 0 -74.5 12.5t-55.5 38.5t-21 68q0 47 26 77t70.5 45t98.5 15l73 -24q-31 -12 -57 -21.5t-41.5 -22t-15.5 -33.5q0 -20 15 -28.5t34 -8.5q9 0 16.5 2t13.5 4
l-6 -109q-19 -8 -39 -11.5t-37 -3.5z" />
    <glyph glyph-name="uni01EB" unicode="&#x1eb;" horiz-adv-x="603" 
d="M280 -10q-79 0 -137.5 29t-91 80.5t-32.5 118.5q0 78 34 144.5t101.5 107t168.5 40.5q79 0 137.5 -29t91 -80.5t32.5 -118.5q0 -77 -34 -144t-101.5 -107.5t-168.5 -40.5zM282 144q19 0 33.5 17t24.5 43.5t15 54t5 48.5q0 19 -5.5 29.5t-14.5 15t-20 4.5q-19 0 -33.5 -17
t-24.5 -43.5t-15 -54t-5 -48.5q0 -18 5.5 -29t14.5 -15.5t20 -4.5zM262 -229q-40 0 -74.5 12.5t-55.5 38.5t-21 68q0 47 26 77t70.5 45t98.5 15l73 -24q-31 -12 -57 -21.5t-41.5 -22t-15.5 -33.5q0 -20 15 -28.5t34 -8.5q9 0 16.5 2t13.5 4l-6 -109q-19 -8 -39 -11.5
t-37 -3.5z" />
    <glyph glyph-name="uni01F1" unicode="&#x1f1;" horiz-adv-x="1353" 
d="M-8 0l153 660h261q100 0 166 -33.5t99 -94t33 -142.5q0 -89 -24 -161t-71.5 -123t-115.5 -78.5t-157 -27.5h-344zM264 166h55q41 0 70.5 21t47.5 55t26.5 74.5t8.5 79.5q0 32 -10 54t-30 33t-51 11h-42zM683 0l39 169l401 325h-337l39 166h590l-39 -169l-400 -325h342
l-39 -166h-596z" />
    <glyph glyph-name="uni01F2" unicode="&#x1f2;" horiz-adv-x="1220" 
d="M-8 0l153 660h261q100 0 166 -33.5t99 -94t33 -142.5q0 -89 -24 -161t-71.5 -123t-115.5 -78.5t-157 -27.5h-344zM264 166h55q41 0 70.5 21t47.5 55t26.5 74.5t8.5 79.5q0 32 -10 54t-30 33t-51 11h-42zM679 0l31 132l183 172l58 48l-73 -4h-122l35 152h457l-31 -132
l-180 -170l-60 -50l82 4h122l-35 -152h-467z" />
    <glyph glyph-name="uni01F3" unicode="&#x1f3;" horiz-adv-x="1130" 
d="M174 -10q-44 0 -80.5 20.5t-57.5 62t-21 105.5q0 59 16 118t47 107.5t76 77.5t103 29q26 0 53 -10t48 -33.5t28 -66.5l69 300h230l-162 -700h-210l17 95q-25 -49 -65.5 -77t-90.5 -28zM284 152q18 0 32 14.5t23.5 37.5t14 47.5t4.5 43.5q0 17 -4.5 28.5t-13 17.5t-21.5 6
q-21 0 -35.5 -15.5t-23.5 -38t-13.5 -46t-4.5 -38.5q0 -17 4.5 -30t13.5 -20t24 -7zM589 0l31 132l183 172l58 48l-73 -4h-122l35 152h457l-31 -132l-180 -170l-60 -50l82 4h122l-35 -152h-467z" />
    <glyph glyph-name="Aringacute" unicode="&#x1fa;" horiz-adv-x="689" 
d="M-68 0l369 660h280l60 -660h-219l-3 132h-184l-65 -132h-238zM307 277h108l-3 220zM452 839q68 0 106.5 -32t38.5 -85q0 -63 -43.5 -103.5t-111.5 -40.5q-67 0 -106 31.5t-39 84.5q0 63 43.5 104t111.5 41zM449 750q-18 0 -31.5 -12.5t-13.5 -35.5q0 -16 11 -25.5
t30 -9.5q18 0 31 12.5t13 34.5q0 17 -10.5 26.5t-29.5 9.5zM473 1035h200l-130 -167h-167z" />
    <glyph glyph-name="aringacute" unicode="&#x1fb;" horiz-adv-x="619" 
d="M174 -10q-44 0 -80.5 20.5t-57.5 62t-21 105.5q0 59 16 118t47 107.5t76 77.5t103 29q26 0 53 -10t48 -33.5t28 -66.5l23 100h230l-116 -500h-210l17 95q-25 -49 -65.5 -77t-90.5 -28zM284 152q18 0 32 14.5t23.5 37.5t14 47.5t4.5 43.5q0 17 -4.5 28.5t-13 17.5t-21.5 6
q-21 0 -35.5 -15.5t-23.5 -38t-13.5 -46t-4.5 -38.5q0 -17 4.5 -30t13.5 -20t24 -7zM379 796q68 0 106.5 -32t38.5 -85q0 -63 -43.5 -103.5t-111.5 -40.5q-67 0 -106 31.5t-39 84.5q0 63 43.5 104t111.5 41zM376 707q-18 0 -31.5 -12.5t-13.5 -35.5q0 -16 11 -25.5t30 -9.5
q18 0 31 12.5t13 34.5q0 17 -10.5 26.5t-29.5 9.5zM319 827l97 167h200l-130 -167h-167z" />
    <glyph glyph-name="AEacute" unicode="&#x1fc;" horiz-adv-x="904" 
d="M-68 0l357 660h682l-38 -161h-261l-22 -96h200l-34 -149h-200l-22 -93h273l-37 -161h-487l43 185h-126l-85 -185h-243zM322 321h95l43 186h-53zM625 876h200l-130 -167h-167z" />
    <glyph glyph-name="aeacute" unicode="&#x1fd;" horiz-adv-x="884" 
d="M173 -10q-76 0 -123.5 36.5t-47.5 102.5q0 49 24 79t61.5 45.5t77.5 19.5l170 19l-19 -81l-61 -9q-24 -4 -37.5 -15t-13.5 -32q0 -15 10 -24.5t29 -9.5q18 0 29.5 8.5t15.5 26.5l31 137q2 8 2.5 14.5t0.5 11.5q0 21 -10.5 32.5t-34.5 11.5q-23 0 -34.5 -17t-16.5 -46
l-191 30q11 80 70.5 130t174.5 50q55 0 94 -14.5t61 -41.5t25 -67l-42 17q25 31 53.5 55t67 37.5t92.5 13.5q71 0 123.5 -28.5t81.5 -78.5t29 -116q0 -19 -2 -40t-8 -41h-346l11 85h126q1 5 1 10v9q0 19 -5.5 29.5t-14.5 15t-20 4.5q-25 0 -41 -15t-25 -39t-12.5 -51
t-3.5 -50t8 -37t22.5 -20t32.5 -6q26 0 40.5 13.5t20.5 31.5l192 -62q-15 -42 -52 -72t-87.5 -45.5t-107.5 -15.5q-58 0 -105.5 18.5t-79.5 54.5t-45 86l49 -7q-10 -40 -38.5 -75t-78.5 -56.5t-123 -21.5zM483 730h209l-150 -177h-161z" />
    <glyph glyph-name="Oslashacute" unicode="&#x1fe;" horiz-adv-x="725" 
d="M263 148l-41 56l280 326l36 -61zM15 -21l138 155l44 -50l-97 -105h-85zM569 498l-11 85l89 97h85zM351 -10q-88 0 -158 34.5t-110 100t-40 156.5q0 86 25 157.5t72.5 123.5t116 80t154.5 28q89 0 158.5 -34.5t109.5 -99.5t40 -157q0 -86 -25 -157.5t-72.5 -123.5
t-116 -80t-154.5 -28zM355 165q34 0 58.5 22.5t41 58.5t24.5 77.5t8 78.5q0 31 -8.5 51.5t-26 31t-45.5 10.5q-34 0 -58.5 -22.5t-41 -58.5t-24.5 -77.5t-8 -78.5q0 -30 8.5 -51t26.5 -31.5t45 -10.5zM459 876h200l-130 -167h-167z" />
    <glyph glyph-name="oslashacute" unicode="&#x1ff;" horiz-adv-x="603" 
d="M280 -10q-79 0 -137.5 29t-91 80.5t-32.5 118.5q0 78 34 144.5t101.5 107t168.5 40.5q79 0 137.5 -29t91 -80.5t32.5 -118.5q0 -77 -34 -144t-101.5 -107.5t-168.5 -40.5zM282 144q19 0 33.5 17t24.5 43.5t15 54t5 48.5q0 19 -5.5 29.5t-14.5 15t-20 4.5q-19 0 -33.5 -17
t-24.5 -43.5t-15 -54t-5 -48.5q0 -18 5.5 -29t14.5 -15.5t20 -4.5zM-22 -21l571 541h76l-571 -541h-76zM366 730h209l-150 -177h-161z" />
    <glyph glyph-name="uni0200" unicode="&#x200;" horiz-adv-x="689" 
d="M-68 0l369 660h280l60 -660h-219l-3 132h-184l-65 -132h-238zM307 277h108l-3 220zM396 876l26 -167h-148l-69 167h191zM621 876l26 -167h-148l-69 167h191z" />
    <glyph glyph-name="uni0201" unicode="&#x201;" horiz-adv-x="619" 
d="M174 -10q-44 0 -80.5 20.5t-57.5 62t-21 105.5q0 59 16 118t47 107.5t76 77.5t103 29q26 0 53 -10t48 -33.5t28 -66.5l23 100h230l-116 -500h-210l17 95q-25 -49 -65.5 -77t-90.5 -28zM284 152q18 0 32 14.5t23.5 37.5t14 47.5t4.5 43.5q0 17 -4.5 28.5t-13 17.5t-21.5 6
q-21 0 -35.5 -15.5t-23.5 -38t-13.5 -46t-4.5 -38.5q0 -17 4.5 -30t13.5 -20t24 -7zM306 730l41 -177h-149l-73 177h181zM528 730l39 -177h-149l-71 177h181z" />
    <glyph glyph-name="uni0202" unicode="&#x202;" horiz-adv-x="689" 
d="M-68 0l369 660h280l60 -660h-219l-3 132h-184l-65 -132h-238zM307 277h108l-3 220zM264 700q14 81 63.5 127t143.5 46q80 0 122 -35.5t42 -94.5q0 -10 -1.5 -21t-3.5 -22h-139q2 6 2.5 11.5t0.5 10.5q0 15 -10 24t-28 9q-21 0 -35.5 -13t-17.5 -42h-139z" />
    <glyph glyph-name="uni0203" unicode="&#x203;" horiz-adv-x="619" 
d="M174 -10q-44 0 -80.5 20.5t-57.5 62t-21 105.5q0 59 16 118t47 107.5t76 77.5t103 29q26 0 53 -10t48 -33.5t28 -66.5l23 100h230l-116 -500h-210l17 95q-25 -49 -65.5 -77t-90.5 -28zM284 152q18 0 32 14.5t23.5 37.5t14 47.5t4.5 43.5q0 17 -4.5 28.5t-13 17.5t-21.5 6
q-21 0 -35.5 -15.5t-23.5 -38t-13.5 -46t-4.5 -38.5q0 -17 4.5 -30t13.5 -20t24 -7zM176 540q14 81 63.5 127t143.5 46q80 0 122 -35.5t42 -94.5q0 -10 -1.5 -21t-3.5 -22h-139q2 6 2.5 11.5t0.5 10.5q0 15 -10 24t-28 9q-21 0 -35.5 -13t-17.5 -42h-139z" />
    <glyph glyph-name="uni0204" unicode="&#x204;" horiz-adv-x="626" 
d="M-8 0l153 660h554l-40 -171h-321l-19 -82h254l-36 -158h-254l-18 -78h327l-40 -171h-560zM374 876l26 -167h-148l-69 167h191zM599 876l26 -167h-148l-69 167h191z" />
    <glyph glyph-name="uni0205" unicode="&#x205;" horiz-adv-x="588" 
d="M286 -9q-77 0 -137.5 27t-94.5 78.5t-34 122.5q0 88 36.5 153.5t103 101.5t155.5 36q81 0 138 -28.5t86.5 -78.5t29.5 -116q0 -19 -2 -40t-8 -41h-382l-1 85h224l-55 -21q5 14 5.5 23t0.5 17q0 19 -5.5 29.5t-14.5 15t-20 4.5q-26 0 -42.5 -15t-25 -39t-11.5 -51t-3 -50
t8 -37t22.5 -20t32.5 -6q26 0 40.5 13.5t20.5 31.5l192 -62q-15 -42 -53 -72t-91 -45.5t-115 -15.5zM291 730l41 -177h-149l-73 177h181zM513 730l39 -177h-149l-71 177h181z" />
    <glyph glyph-name="uni0206" unicode="&#x206;" horiz-adv-x="626" 
d="M-8 0l153 660h554l-40 -171h-321l-19 -82h254l-36 -158h-254l-18 -78h327l-40 -171h-560zM242 700q14 81 63.5 127t143.5 46q80 0 122 -35.5t42 -94.5q0 -10 -1.5 -21t-3.5 -22h-139q2 6 2.5 11.5t0.5 10.5q0 15 -10 24t-28 9q-21 0 -35.5 -13t-17.5 -42h-139z" />
    <glyph glyph-name="uni0207" unicode="&#x207;" horiz-adv-x="588" 
d="M286 -9q-77 0 -137.5 27t-94.5 78.5t-34 122.5q0 88 36.5 153.5t103 101.5t155.5 36q81 0 138 -28.5t86.5 -78.5t29.5 -116q0 -19 -2 -40t-8 -41h-382l-1 85h224l-55 -21q5 14 5.5 23t0.5 17q0 19 -5.5 29.5t-14.5 15t-20 4.5q-26 0 -42.5 -15t-25 -39t-11.5 -51t-3 -50
t8 -37t22.5 -20t32.5 -6q26 0 40.5 13.5t20.5 31.5l192 -62q-15 -42 -53 -72t-91 -45.5t-115 -15.5zM161 540q14 81 63.5 127t143.5 46q80 0 122 -35.5t42 -94.5q0 -10 -1.5 -21t-3.5 -22h-139q2 6 2.5 11.5t0.5 10.5q0 15 -10 24t-28 9q-21 0 -35.5 -13t-17.5 -42h-139z
" />
    <glyph glyph-name="uni0208" unicode="&#x208;" horiz-adv-x="333" 
d="M378 660l-153 -660h-233l153 660h233zM216 876l26 -167h-148l-69 167h191zM441 876l26 -167h-148l-69 167h191z" />
    <glyph glyph-name="uni0209" unicode="&#x209;" horiz-adv-x="308" 
d="M327 500l-116 -500h-230l116 500h230zM165 730l41 -177h-149l-73 177h181zM387 730l39 -177h-149l-71 177h181z" />
    <glyph glyph-name="uni020A" unicode="&#x20a;" horiz-adv-x="333" 
d="M378 660l-153 -660h-233l153 660h233zM84 700q14 81 63.5 127t143.5 46q80 0 122 -35.5t42 -94.5q0 -10 -1.5 -21t-3.5 -22h-139q2 6 2.5 11.5t0.5 10.5q0 15 -10 24t-28 9q-21 0 -35.5 -13t-17.5 -42h-139z" />
    <glyph glyph-name="uni020B" unicode="&#x20b;" horiz-adv-x="308" 
d="M327 500l-116 -500h-230l116 500h230zM35 540q14 81 63.5 127t143.5 46q80 0 122 -35.5t42 -94.5q0 -10 -1.5 -21t-3.5 -22h-139q2 6 2.5 11.5t0.5 10.5q0 15 -10 24t-28 9q-21 0 -35.5 -13t-17.5 -42h-139z" />
    <glyph glyph-name="uni020C" unicode="&#x20c;" horiz-adv-x="725" 
d="M351 -10q-88 0 -158 34.5t-110 100t-40 156.5q0 86 25 157.5t72.5 123.5t116 80t154.5 28q89 0 158.5 -34.5t109.5 -99.5t40 -157q0 -86 -25 -157.5t-72.5 -123.5t-116 -80t-154.5 -28zM355 165q34 0 58.5 22.5t41 58.5t24.5 77.5t8 78.5q0 31 -8.5 51.5t-26 31
t-45.5 10.5q-34 0 -58.5 -22.5t-41 -58.5t-24.5 -77.5t-8 -78.5q0 -30 8.5 -51t26.5 -31.5t45 -10.5zM392 876l26 -167h-148l-69 167h191zM617 876l26 -167h-148l-69 167h191z" />
    <glyph glyph-name="uni020D" unicode="&#x20d;" horiz-adv-x="603" 
d="M280 -10q-79 0 -137.5 29t-91 80.5t-32.5 118.5q0 78 34 144.5t101.5 107t168.5 40.5q79 0 137.5 -29t91 -80.5t32.5 -118.5q0 -77 -34 -144t-101.5 -107.5t-168.5 -40.5zM282 144q19 0 33.5 17t24.5 43.5t15 54t5 48.5q0 19 -5.5 29.5t-14.5 15t-20 4.5q-19 0 -33.5 -17
t-24.5 -43.5t-15 -54t-5 -48.5q0 -18 5.5 -29t14.5 -15.5t20 -4.5zM308 730l41 -177h-149l-73 177h181zM530 730l39 -177h-149l-71 177h181z" />
    <glyph glyph-name="uni020E" unicode="&#x20e;" horiz-adv-x="725" 
d="M351 -10q-88 0 -158 34.5t-110 100t-40 156.5q0 86 25 157.5t72.5 123.5t116 80t154.5 28q89 0 158.5 -34.5t109.5 -99.5t40 -157q0 -86 -25 -157.5t-72.5 -123.5t-116 -80t-154.5 -28zM355 165q34 0 58.5 22.5t41 58.5t24.5 77.5t8 78.5q0 31 -8.5 51.5t-26 31
t-45.5 10.5q-34 0 -58.5 -22.5t-41 -58.5t-24.5 -77.5t-8 -78.5q0 -30 8.5 -51t26.5 -31.5t45 -10.5zM260 700q14 81 63.5 127t143.5 46q80 0 122 -35.5t42 -94.5q0 -10 -1.5 -21t-3.5 -22h-139q2 6 2.5 11.5t0.5 10.5q0 15 -10 24t-28 9q-21 0 -35.5 -13t-17.5 -42h-139z
" />
    <glyph glyph-name="uni020F" unicode="&#x20f;" horiz-adv-x="603" 
d="M280 -10q-79 0 -137.5 29t-91 80.5t-32.5 118.5q0 78 34 144.5t101.5 107t168.5 40.5q79 0 137.5 -29t91 -80.5t32.5 -118.5q0 -77 -34 -144t-101.5 -107.5t-168.5 -40.5zM282 144q19 0 33.5 17t24.5 43.5t15 54t5 48.5q0 19 -5.5 29.5t-14.5 15t-20 4.5q-19 0 -33.5 -17
t-24.5 -43.5t-15 -54t-5 -48.5q0 -18 5.5 -29t14.5 -15.5t20 -4.5zM178 540q14 81 63.5 127t143.5 46q80 0 122 -35.5t42 -94.5q0 -10 -1.5 -21t-3.5 -22h-139q2 6 2.5 11.5t0.5 10.5q0 15 -10 24t-28 9q-21 0 -35.5 -13t-17.5 -42h-139z" />
    <glyph glyph-name="uni0210" unicode="&#x210;" horiz-adv-x="704" 
d="M-8 0l153 660h328q110 0 174 -51t64 -143q0 -82 -38.5 -136.5t-106 -81.5t-155.5 -27l-29 -10h-127l35 153h99q29 0 50 9t33 26t12 39q0 31 -20.5 43.5t-49.5 12.5h-80l-114 -494h-228zM423 0l-105 289l205 34l131 -323h-231zM384 876l26 -167h-148l-69 167h191zM609 876
l26 -167h-148l-69 167h191z" />
    <glyph glyph-name="uni0211" unicode="&#x211;" horiz-adv-x="447" 
d="M-20 0l116 500h207l-43 -226l-5 23q16 63 41 111t64.5 75t96.5 27q17 0 28 -2.5t18 -6.5l-53 -188q-10 5 -24 8t-37 3q-27 0 -53.5 -11.5t-47 -37.5t-31.5 -71l-47 -204h-230zM257 730l41 -177h-149l-73 177h181zM479 730l39 -177h-149l-71 177h181z" />
    <glyph glyph-name="uni0212" unicode="&#x212;" horiz-adv-x="704" 
d="M-8 0l153 660h328q110 0 174 -51t64 -143q0 -82 -38.5 -136.5t-106 -81.5t-155.5 -27l-29 -10h-127l35 153h99q29 0 50 9t33 26t12 39q0 31 -20.5 43.5t-49.5 12.5h-80l-114 -494h-228zM423 0l-105 289l205 34l131 -323h-231zM252 700q14 81 63.5 127t143.5 46
q80 0 122 -35.5t42 -94.5q0 -10 -1.5 -21t-3.5 -22h-139q2 6 2.5 11.5t0.5 10.5q0 15 -10 24t-28 9q-21 0 -35.5 -13t-17.5 -42h-139z" />
    <glyph glyph-name="uni0213" unicode="&#x213;" horiz-adv-x="447" 
d="M-20 0l116 500h207l-43 -226l-5 23q16 63 41 111t64.5 75t96.5 27q17 0 28 -2.5t18 -6.5l-53 -188q-10 5 -24 8t-37 3q-27 0 -53.5 -11.5t-47 -37.5t-31.5 -71l-47 -204h-230zM127 540q14 81 63.5 127t143.5 46q80 0 122 -35.5t42 -94.5q0 -10 -1.5 -21t-3.5 -22h-139
q2 6 2.5 11.5t0.5 10.5q0 15 -10 24t-28 9q-21 0 -35.5 -13t-17.5 -42h-139z" />
    <glyph glyph-name="uni0214" unicode="&#x214;" horiz-adv-x="711" 
d="M332 -10q-107 0 -178.5 37t-100 106t-6.5 164l85 363h234l-89 -390q-7 -33 0 -56.5t26.5 -36t49.5 -12.5q38 0 59 22t32 72l93 401h233l-92 -394q-34 -143 -115 -209.5t-231 -66.5zM406 876l26 -167h-148l-69 167h191zM631 876l26 -167h-148l-69 167h191z" />
    <glyph glyph-name="uni0215" unicode="&#x215;" horiz-adv-x="618" 
d="M153 -10q-52 0 -86.5 22t-47.5 62t-1 95l77 331h230l-67 -290q-6 -25 4 -37.5t30 -12.5q15 0 24.5 7.5t16.5 22.5t12 36l63 274h230l-116 -500h-205l30 191l8 -22q-22 -85 -74.5 -132t-127.5 -47zM314 730l41 -177h-149l-73 177h181zM536 730l39 -177h-149l-71 177h181z
" />
    <glyph glyph-name="uni0216" unicode="&#x216;" horiz-adv-x="711" 
d="M332 -10q-107 0 -178.5 37t-100 106t-6.5 164l85 363h234l-89 -390q-7 -33 0 -56.5t26.5 -36t49.5 -12.5q38 0 59 22t32 72l93 401h233l-92 -394q-34 -143 -115 -209.5t-231 -66.5zM274 700q14 81 63.5 127t143.5 46q80 0 122 -35.5t42 -94.5q0 -10 -1.5 -21t-3.5 -22
h-139q2 6 2.5 11.5t0.5 10.5q0 15 -10 24t-28 9q-21 0 -35.5 -13t-17.5 -42h-139z" />
    <glyph glyph-name="uni0217" unicode="&#x217;" horiz-adv-x="618" 
d="M153 -10q-52 0 -86.5 22t-47.5 62t-1 95l77 331h230l-67 -290q-6 -25 4 -37.5t30 -12.5q15 0 24.5 7.5t16.5 22.5t12 36l63 274h230l-116 -500h-205l30 191l8 -22q-22 -85 -74.5 -132t-127.5 -47zM184 540q14 81 63.5 127t143.5 46q80 0 122 -35.5t42 -94.5
q0 -10 -1.5 -21t-3.5 -22h-139q2 6 2.5 11.5t0.5 10.5q0 15 -10 24t-28 9q-21 0 -35.5 -13t-17.5 -42h-139z" />
    <glyph glyph-name="uni0218" unicode="&#x218;" horiz-adv-x="640" 
d="M328 -13q-67 0 -130.5 15.5t-118.5 47.5t-99 81l116 138q28 -32 67 -57t81 -39.5t79 -14.5q19 0 29.5 4.5t15.5 11.5t5 16q0 11 -10.5 18.5t-34.5 15.5l-93 33q-41 15 -78 39.5t-60 62.5t-23 91q0 75 38 123.5t103 72.5t146 24q108 0 183 -34.5t133 -90.5l-123 -134
q-25 25 -56 44.5t-65 30.5t-69 11q-16 0 -26.5 -3t-15.5 -9t-5 -15q0 -12 15 -20.5t40 -17.5l85 -30q77 -27 118.5 -70.5t41.5 -117.5q0 -72 -38 -123t-103 -77.5t-148 -26.5zM383 -50l-120 -193h-147l69 193h198z" />
    <glyph glyph-name="uni0219" unicode="&#x219;" horiz-adv-x="527" 
d="M255 -10q-51 0 -105 13t-100 37.5t-77 60.5l96 106q31 -31 74.5 -54t80.5 -23q17 0 25.5 4.5t8.5 12.5q0 7 -5.5 12.5t-19.5 9.5l-42 14q-83 28 -117 63t-34 92t30.5 95t83.5 57.5t120 19.5q83 0 147 -25t107 -66l-89 -110q-16 16 -41 30t-53 22.5t-56 8.5q-13 0 -19 -4
t-6 -11t5.5 -12t18.5 -9l90 -29q54 -17 83.5 -51t29.5 -85q0 -55 -27.5 -95t-80 -62t-128.5 -22zM327 -50l-120 -193h-147l69 193h198z" />
    <glyph glyph-name="uni021A" unicode="&#x21a;" horiz-adv-x="686" 
d="M761 660l-40 -171h-206l-113 -489h-233l113 489h-207l40 171h646zM376 -50l-120 -193h-147l69 193h198z" />
    <glyph glyph-name="uni021B" unicode="&#x21b;" horiz-adv-x="458" 
d="M270 -10q-71 0 -120 23.5t-68.5 71t-3.5 119.5l93 402l245 64l-106 -457q-10 -34 7.5 -53.5t57.5 -19.5q22 0 33.5 2t21.5 5l-28 -138q-28 -10 -62.5 -14.5t-69.5 -4.5zM24 345l36 155h441l-36 -155h-441zM332 -50l-120 -193h-147l69 193h198z" />
    <glyph glyph-name="uni022A" unicode="&#x22a;" horiz-adv-x="725" 
d="M351 -10q-88 0 -158 34.5t-110 100t-40 156.5q0 86 25 157.5t72.5 123.5t116 80t154.5 28q89 0 158.5 -34.5t109.5 -99.5t40 -157q0 -86 -25 -157.5t-72.5 -123.5t-116 -80t-154.5 -28zM355 165q34 0 58.5 22.5t41 58.5t24.5 77.5t8 78.5q0 31 -8.5 51.5t-26 31
t-45.5 10.5q-34 0 -58.5 -22.5t-41 -58.5t-24.5 -77.5t-8 -78.5q0 -30 8.5 -51t26.5 -31.5t45 -10.5zM570 697q-44 0 -71 16.5t-27 55.5q0 59 31.5 83.5t86.5 24.5q44 0 70 -16.5t26 -54.5q0 -60 -31 -84.5t-85 -24.5zM329 697q-44 0 -71 16.5t-27 55.5q0 59 31.5 83.5
t86.5 24.5q44 0 70 -16.5t26 -54.5q0 -60 -31 -84.5t-85 -24.5zM714 1045l-31 -130h-388l31 130h388z" />
    <glyph glyph-name="uni022B" unicode="&#x22b;" horiz-adv-x="603" 
d="M280 -10q-79 0 -137.5 29t-91 80.5t-32.5 118.5q0 78 34 144.5t101.5 107t168.5 40.5q79 0 137.5 -29t91 -80.5t32.5 -118.5q0 -77 -34 -144t-101.5 -107.5t-168.5 -40.5zM282 144q19 0 33.5 17t24.5 43.5t15 54t5 48.5q0 19 -5.5 29.5t-14.5 15t-20 4.5q-19 0 -33.5 -17
t-24.5 -43.5t-15 -54t-5 -48.5q0 -18 5.5 -29t14.5 -15.5t20 -4.5zM488 537q-44 0 -71 16.5t-27 55.5q0 59 31.5 83.5t86.5 24.5q44 0 70 -16.5t26 -54.5q0 -60 -31 -84.5t-85 -24.5zM247 537q-44 0 -71 16.5t-27 55.5q0 59 31.5 83.5t86.5 24.5q44 0 70 -16.5t26 -54.5
q0 -60 -31 -84.5t-85 -24.5zM632 885l-31 -130h-388l31 130h388z" />
    <glyph glyph-name="uni022C" unicode="&#x22c;" horiz-adv-x="725" 
d="M351 -10q-88 0 -158 34.5t-110 100t-40 156.5q0 86 25 157.5t72.5 123.5t116 80t154.5 28q89 0 158.5 -34.5t109.5 -99.5t40 -157q0 -86 -25 -157.5t-72.5 -123.5t-116 -80t-154.5 -28zM355 165q34 0 58.5 22.5t41 58.5t24.5 77.5t8 78.5q0 31 -8.5 51.5t-26 31
t-45.5 10.5q-34 0 -58.5 -22.5t-41 -58.5t-24.5 -77.5t-8 -78.5q0 -30 8.5 -51t26.5 -31.5t45 -10.5zM678 879q-13 -90 -56.5 -133t-97.5 -43q-27 0 -45.5 8t-32.5 18t-26.5 18t-26.5 8t-23 -13.5t-14 -36.5h-116q14 90 54 133t98 43q21 0 39 -8t33.5 -18t30 -18t28.5 -8
t23.5 12.5t15.5 37.5h116zM718 1052l-31 -130h-388l31 130h388z" />
    <glyph glyph-name="uni022D" unicode="&#x22d;" horiz-adv-x="603" 
d="M280 -10q-79 0 -137.5 29t-91 80.5t-32.5 118.5q0 78 34 144.5t101.5 107t168.5 40.5q79 0 137.5 -29t91 -80.5t32.5 -118.5q0 -77 -34 -144t-101.5 -107.5t-168.5 -40.5zM282 144q19 0 33.5 17t24.5 43.5t15 54t5 48.5q0 19 -5.5 29.5t-14.5 15t-20 4.5q-19 0 -33.5 -17
t-24.5 -43.5t-15 -54t-5 -48.5q0 -18 5.5 -29t14.5 -15.5t20 -4.5zM596 719q-13 -90 -56.5 -133t-97.5 -43q-27 0 -45.5 8t-32.5 18t-26.5 18t-26.5 8t-23 -13.5t-14 -36.5h-116q14 90 54 133t98 43q21 0 39 -8t33.5 -18t30 -18t28.5 -8t23.5 12.5t15.5 37.5h116zM636 892
l-31 -130h-388l31 130h388z" />
    <glyph glyph-name="uni0230" unicode="&#x230;" horiz-adv-x="725" 
d="M351 -10q-88 0 -158 34.5t-110 100t-40 156.5q0 86 25 157.5t72.5 123.5t116 80t154.5 28q89 0 158.5 -34.5t109.5 -99.5t40 -157q0 -86 -25 -157.5t-72.5 -123.5t-116 -80t-154.5 -28zM355 165q34 0 58.5 22.5t41 58.5t24.5 77.5t8 78.5q0 31 -8.5 51.5t-26 31
t-45.5 10.5q-34 0 -58.5 -22.5t-41 -58.5t-24.5 -77.5t-8 -78.5q0 -30 8.5 -51t26.5 -31.5t45 -10.5zM446 698q-48 0 -76.5 17t-28.5 57q0 62 34 88t92 26q51 0 79 -17.5t28 -55.5q0 -64 -34 -89.5t-94 -25.5zM710 1045l-31 -130h-388l31 130h388z" />
    <glyph glyph-name="uni0231" unicode="&#x231;" horiz-adv-x="603" 
d="M280 -10q-79 0 -137.5 29t-91 80.5t-32.5 118.5q0 78 34 144.5t101.5 107t168.5 40.5q79 0 137.5 -29t91 -80.5t32.5 -118.5q0 -77 -34 -144t-101.5 -107.5t-168.5 -40.5zM282 144q19 0 33.5 17t24.5 43.5t15 54t5 48.5q0 19 -5.5 29.5t-14.5 15t-20 4.5q-19 0 -33.5 -17
t-24.5 -43.5t-15 -54t-5 -48.5q0 -18 5.5 -29t14.5 -15.5t20 -4.5zM364 538q-48 0 -76.5 17t-28.5 57q0 62 34 88t92 26q51 0 79 -17.5t28 -55.5q0 -64 -34 -89.5t-94 -25.5zM628 885l-31 -130h-388l31 130h388z" />
    <glyph glyph-name="uni0232" unicode="&#x232;" horiz-adv-x="713" 
d="M182 0l55 237l-133 423h219l41 -151l25 -117l68 117l99 151h243l-333 -439l-51 -221h-233zM671 841l-31 -130h-388l31 130h388z" />
    <glyph glyph-name="uni0233" unicode="&#x233;" horiz-adv-x="594" 
d="M66 -215q-47 0 -88.5 10t-64.5 25l57 155q35 -29 92 -29q25 0 44.5 7t28.5 21l3 5l-88 521h234l-6 -258l-6 -120l47 121l103 257h240l-284 -504q-43 -77 -87.5 -123.5t-98.5 -67t-126 -20.5zM619 681l-31 -130h-388l31 130h388z" />
    <glyph glyph-name="uni0237" unicode="&#x237;" horiz-adv-x="308" 
d="M-16 -215q-42 0 -83.5 7t-70.5 26l45 135q11 -6 22 -9.5t23 -3.5q31 0 42.5 15.5t20.5 53.5l114 491h230l-119 -513q-25 -106 -76.5 -154t-147.5 -48z" />
    <glyph glyph-name="uni0241" unicode="&#x241;" horiz-adv-x="644" 
d="M395 670q79 0 142 -25t99.5 -74.5t36.5 -121.5q0 -74 -31 -131t-88 -92.5t-136 -45.5l-42 -180h-223l70 297q70 8 114 28t64.5 50t20.5 66q0 16 -5.5 27t-16.5 16.5t-27 5.5q-34 0 -59 -26t-42 -82l-210 67q28 108 113 164.5t220 56.5z" />
    <glyph glyph-name="uni0242" unicode="&#x242;" horiz-adv-x="594" 
d="M115 0l50 216q53 1 96 7.5t68.5 24t25.5 49.5q0 18 -12 28t-35 10q-27 0 -43.5 -18t-26.5 -56l-216 70q14 48 50.5 89t101 66t163.5 25q80 0 138.5 -21.5t91 -62t32.5 -96.5q0 -62 -25 -106t-75 -69.5t-126 -34.5l-28 -121h-230z" />
    <glyph glyph-name="uni0259" unicode="&#x259;" horiz-adv-x="587" 
d="M278 -10q-82 0 -140 29t-88.5 77.5t-30.5 105.5q0 19 2 40t8 41h382l1 -83h-224l55 30q-4 -13 -5 -22.5t-1 -17.5q0 -16 6 -27t16.5 -16.5t24.5 -5.5q24 0 38.5 15t22.5 39t11 51t3 50t-7 37t-20.5 20t-31.5 6q-26 0 -42.5 -16.5t-22.5 -34.5l-195 54q32 65 101 106
t171 41q75 0 133 -28t90.5 -79t32.5 -121q0 -88 -37.5 -153.5t-102.5 -101.5t-150 -36z" />
    <glyph glyph-name="uni02B9" unicode="&#x2b9;" horiz-adv-x="600" 
d="M367 670l-163 -297h-154l126 297h191z" />
    <glyph glyph-name="uni02BA" unicode="&#x2ba;" horiz-adv-x="506" 
d="M601 670l-163 -297h-154l126 297h191zM367 670l-163 -297h-154l126 297h191z" />
    <glyph glyph-name="uni02BB" unicode="&#x2bb;" horiz-adv-x="596" 
d="M201 768l-83 -221h-182l122 221h143z" />
    <glyph glyph-name="uni02BC" unicode="&#x2bc;" horiz-adv-x="600" 
d="M232 683q67 0 94 -32.5t27 -80.5q0 -57 -30 -110t-83.5 -92.5t-125.5 -56.5l-49 77q37 10 69.5 25.5t56.5 33.5t37 34l-3 4q-7 -3 -13.5 -4.5t-17.5 -1.5q-33 0 -60 25.5t-27 64.5q0 53 34.5 83.5t90.5 30.5z" />
    <glyph glyph-name="uni02BE" unicode="&#x2be;" horiz-adv-x="415" 
d="M239 700q47 0 78.5 -19.5t47.5 -50t16 -63.5q0 -71 -48 -114t-122 -43h-63l22 93h51q28 0 43 15t15 40q0 24 -16 36.5t-37 12.5h-33l21 93h25z" />
    <glyph glyph-name="uni02BF" unicode="&#x2bf;" horiz-adv-x="414" 
d="M316 410q-46 0 -78 19.5t-48 50t-16 63.5q0 71 48 114t122 43h63l-22 -93h-51q-28 0 -43 -15t-15 -40q0 -24 16 -36.5t37 -12.5h33l-21 -93h-25z" />
    <glyph glyph-name="circumflex" unicode="&#x2c6;" horiz-adv-x="500" 
d="M106 547l147 177h214l65 -177h-150l-41 71l-73 -71h-162z" />
    <glyph glyph-name="caron" unicode="&#x2c7;" horiz-adv-x="500" 
d="M213 553l-65 177h145l42 -74l77 74h162l-147 -177h-214z" />
    <glyph glyph-name="uni02C8" unicode="&#x2c8;" horiz-adv-x="275" 
d="M169 700h145l-62 -270h-145z" />
    <glyph glyph-name="uni02C9" unicode="&#x2c9;" horiz-adv-x="500" 
d="M544 681l-31 -130h-388l31 130h388z" />
    <glyph glyph-name="uni02CA" unicode="&#x2ca;" horiz-adv-x="595" 
d="M323 730h209l-150 -177h-161z" />
    <glyph glyph-name="uni02CB" unicode="&#x2cb;" horiz-adv-x="598" 
d="M466 730l19 -177h-154l-72 177h207z" />
    <glyph glyph-name="uni02CC" unicode="&#x2cc;" horiz-adv-x="275" 
d="M21 60h145l-62 -270h-145z" />
    <glyph glyph-name="breve" unicode="&#x2d8;" horiz-adv-x="500" 
d="M540 713q-14 -79 -70.5 -126t-142.5 -47q-76 0 -117 35t-41 95q0 10 1.5 21t3.5 22h139q-1 -6 -2 -11.5t-1 -10.5q0 -15 10 -24t28 -9q21 0 34.5 14.5t18.5 40.5h139z" />
    <glyph glyph-name="dotaccent" unicode="&#x2d9;" horiz-adv-x="500" 
d="M327 538q-48 0 -76.5 17t-28.5 57q0 62 34 88t92 26q51 0 79 -17.5t28 -55.5q0 -64 -34 -89.5t-94 -25.5z" />
    <glyph glyph-name="ring" unicode="&#x2da;" horiz-adv-x="500" 
d="M351 796q68 0 106.5 -32t38.5 -85q0 -63 -43.5 -103.5t-111.5 -40.5q-67 0 -106 31.5t-39 84.5q0 63 43.5 104t111.5 41zM348 707q-18 0 -31.5 -12.5t-13.5 -35.5q0 -16 11 -25.5t30 -9.5q18 0 31 12.5t13 34.5q0 17 -10.5 26.5t-29.5 9.5z" />
    <glyph glyph-name="ogonek" unicode="&#x2db;" horiz-adv-x="550" 
d="M222 -219q-40 0 -74.5 12.5t-55.5 38.5t-21 68q0 47 26 77t70.5 45t98.5 15l73 -24q-31 -12 -57 -21.5t-41.5 -22t-15.5 -33.5q0 -20 15 -28.5t34 -8.5q9 0 16.5 2t13.5 4l-6 -109q-19 -8 -39 -11.5t-37 -3.5z" />
    <glyph glyph-name="tilde" unicode="&#x2dc;" horiz-adv-x="500" 
d="M557 719q-13 -90 -56.5 -133t-97.5 -43q-27 0 -45.5 8t-32.5 18t-26.5 18t-26.5 8t-23 -13.5t-14 -36.5h-116q14 90 54 133t98 43q21 0 39 -8t33.5 -18t30 -18t28.5 -8t23.5 12.5t15.5 37.5h116z" />
    <glyph glyph-name="hungarumlaut" unicode="&#x2dd;" horiz-adv-x="500" 
d="M308 553l112 177h187l-149 -177h-150zM74 553l112 177h187l-149 -177h-150z" />
    <glyph glyph-name="gravecomb" unicode="&#x300;" horiz-adv-x="0" 
d="M126 730l19 -177h-154l-72 177h207z" />
    <glyph glyph-name="acutecomb" unicode="&#x301;" horiz-adv-x="0" 
d="M69 730h209l-150 -177h-161z" />
    <glyph glyph-name="uni0302" unicode="&#x302;" horiz-adv-x="0" 
d="M-150 547l147 177h214l65 -177h-150l-41 71l-73 -71h-162z" />
    <glyph glyph-name="tildecomb" unicode="&#x303;" horiz-adv-x="0" 
d="M299 719q-13 -90 -56.5 -133t-97.5 -43q-27 0 -45.5 8t-32.5 18t-26.5 18t-26.5 8t-23 -13.5t-14 -36.5h-116q14 90 54 133t98 43q21 0 39 -8t33.5 -18t30 -18t28.5 -8t23.5 12.5t15.5 37.5h116z" />
    <glyph glyph-name="uni0304" unicode="&#x304;" horiz-adv-x="0" 
d="M296 681l-31 -130h-388l31 130h388z" />
    <glyph glyph-name="uni0306" unicode="&#x306;" horiz-adv-x="0" 
d="M280 713q-14 -79 -70.5 -126t-142.5 -47q-76 0 -117 35t-41 95q0 10 1.5 21t3.5 22h139q-1 -6 -2 -11.5t-1 -10.5q0 -15 10 -24t28 -9q21 0 34.5 14.5t18.5 40.5h139z" />
    <glyph glyph-name="uni0307" unicode="&#x307;" horiz-adv-x="0" 
d="M67 538q-48 0 -76.5 17t-28.5 57q0 62 34 88t92 26q51 0 79 -17.5t28 -55.5q0 -64 -34 -89.5t-94 -25.5z" />
    <glyph glyph-name="uni0308" unicode="&#x308;" horiz-adv-x="0" 
d="M191 537q-44 0 -71 16.5t-27 55.5q0 59 31.5 83.5t86.5 24.5q44 0 70 -16.5t26 -54.5q0 -60 -31 -84.5t-85 -24.5zM-50 537q-44 0 -71 16.5t-27 55.5q0 59 31.5 83.5t86.5 24.5q44 0 70 -16.5t26 -54.5q0 -60 -31 -84.5t-85 -24.5z" />
    <glyph glyph-name="hookabovecomb" unicode="&#x309;" horiz-adv-x="0" 
d="M339 540l-24 62q40 9 51 24.5t11 27.5q0 10 -7 16.5t-20 6.5q-12 0 -20.5 -5.5t-15.5 -14.5l-80 61q15 30 50.5 50.5t87.5 20.5q50 0 87 -27.5t37 -79.5q0 -47 -22.5 -77t-58 -45t-76.5 -20z" />
    <glyph glyph-name="uni030A" unicode="&#x30a;" horiz-adv-x="0" 
d="M84 796q68 0 106.5 -32t38.5 -85q0 -63 -43.5 -103.5t-111.5 -40.5q-67 0 -106 31.5t-39 84.5q0 63 43.5 104t111.5 41zM81 707q-18 0 -31.5 -12.5t-13.5 -35.5q0 -16 11 -25.5t30 -9.5q18 0 31 12.5t13 34.5q0 17 -10.5 26.5t-29.5 9.5z" />
    <glyph glyph-name="uni030B" unicode="&#x30b;" horiz-adv-x="0" 
d="M103 553l112 177h187l-149 -177h-150zM-131 553l112 177h187l-149 -177h-150z" />
    <glyph glyph-name="uni030C" unicode="&#x30c;" horiz-adv-x="0" 
d="M-59 553l-65 177h145l42 -74l77 74h162l-147 -177h-214z" />
    <glyph glyph-name="uni030F" unicode="&#x30f;" horiz-adv-x="0" 
d="M11 730l41 -177h-149l-73 177h181zM233 730l39 -177h-149l-71 177h181z" />
    <glyph glyph-name="uni0311" unicode="&#x311;" horiz-adv-x="0" 
d="M-119 540q14 81 63.5 127t143.5 46q80 0 122 -35.5t42 -94.5q0 -10 -1.5 -21t-3.5 -22h-139q2 6 2.5 11.5t0.5 10.5q0 15 -10 24t-28 9q-21 0 -35.5 -13t-17.5 -42h-139z" />
    <glyph glyph-name="uni0312" unicode="&#x312;" horiz-adv-x="0" 
d="M511 768l-83 -221h-182l122 221h143z" />
    <glyph glyph-name="uni031B" unicode="&#x31b;" horiz-adv-x="0" 
d="M368 398l-28 102q23 0 40 23t27 82h147q-12 -79 -39 -124t-64.5 -63.5t-82.5 -19.5z" />
    <glyph glyph-name="dotbelowcomb" unicode="&#x323;" horiz-adv-x="0" 
d="M-97 -226q-48 0 -76.5 17t-28.5 57q0 62 34 88t92 26q51 0 79 -17.5t28 -55.5q0 -64 -34 -89.5t-94 -25.5z" />
    <glyph glyph-name="uni0324" unicode="&#x324;" horiz-adv-x="0" 
d="M17 -221q-44 0 -71 16.5t-27 55.5q0 59 31.5 83.5t86.5 24.5q44 0 70 -16.5t26 -54.5q0 -60 -31 -84.5t-85 -24.5zM-224 -221q-44 0 -71 16.5t-27 55.5q0 59 31.5 83.5t86.5 24.5q44 0 70 -16.5t26 -54.5q0 -60 -31 -84.5t-85 -24.5z" />
    <glyph glyph-name="uni0326" unicode="&#x326;" horiz-adv-x="0" 
d="M50 -50l-120 -193h-147l69 193h198z" />
    <glyph glyph-name="uni0327" unicode="&#x327;" horiz-adv-x="0" 
d="M-132 6l46 23q63 -6 97.5 -35t34.5 -75q0 -41 -19 -72t-52.5 -48t-78.5 -17q-40 0 -69.5 10t-52.5 30l52 89q11 -9 28 -13.5t28 -4.5q23 0 38.5 16t15.5 36q0 18 -16.5 34.5t-51.5 26.5z" />
    <glyph glyph-name="uni0328" unicode="&#x328;" horiz-adv-x="0" 
d="M-176 -219q-40 0 -74.5 12.5t-55.5 38.5t-21 68q0 47 26 77t70.5 45t98.5 15l73 -24q-31 -12 -57 -21.5t-41.5 -22t-15.5 -33.5q0 -20 15 -28.5t34 -8.5q9 0 16.5 2t13.5 4l-6 -109q-19 -8 -39 -11.5t-37 -3.5z" />
    <glyph glyph-name="uni032E" unicode="&#x32e;" horiz-adv-x="0" 
d="M116 -40q-14 -79 -70.5 -126t-142.5 -47q-76 0 -117 35t-41 95q0 10 1.5 21t3.5 22h139q-1 -6 -2 -11.5t-1 -10.5q0 -15 10 -24t28 -9q21 0 34.5 14.5t18.5 40.5h139z" />
    <glyph glyph-name="uni0331" unicode="&#x331;" horiz-adv-x="0" 
d="M125 -51l-31 -130h-388l31 130h388z" />
    <glyph glyph-name="uni0335" unicode="&#x335;" horiz-adv-x="0" 
d="M292 391l-28 -121h-518l28 121h518z" />
    <glyph glyph-name="uni0338" unicode="&#x338;" horiz-adv-x="0" 
d="M-22 -21l571 541h76l-571 -541h-76z" />
    <glyph glyph-name="uni03A9" unicode="&#x3a9;" horiz-adv-x="767" 
d="M0 0l38 168h221l-28 -28q-58 19 -92.5 53.5t-49 78t-14.5 87.5q0 72 27 129.5t75 98t113.5 61.5t141.5 21q87 0 158.5 -28t114 -82t42.5 -133q0 -80 -37 -142t-101 -96.5t-147 -35.5l-8 16h242l-38 -168h-301l38 168q26 0 47 23.5t36 61t23 78.5t8 75q0 28 -10 49
t-29 32.5t-46 11.5q-39 0 -66 -20.5t-43.5 -55.5t-24 -78.5t-7.5 -89.5q0 -18 4.5 -37t17 -33t34.5 -17l-38 -168h-301z" />
    <glyph glyph-name="uni03BC" unicode="&#x3bc;" horiz-adv-x="619" 
d="M-67 -210l163 710h230l-67 -290q-5 -22 2.5 -36t31.5 -14q15 0 24.5 7.5t16.5 22.5t12 36l63 274h230l-116 -500h-205l18 112q-28 -57 -72.5 -89t-105.5 -32q-22 0 -46 4t-50 14l174 89l-73 -308h-230z" />
    <glyph glyph-name="pi" unicode="&#x3c0;" horiz-adv-x="824" 
d="M70 0l81 348h-114l35 152h784l-35 -152h-119l-31 -132q-6 -26 -3.5 -43t19.5 -24.5t56 -6.5l-50 -147q-111 -13 -173.5 5.5t-82 65t-3.5 118.5l38 164h-91l-81 -348h-230z" />
    <glyph glyph-name="uni1E08" unicode="&#x1e08;" horiz-adv-x="698" 
d="M352 -10q-91 0 -160.5 35.5t-109 100t-39.5 150.5q0 91 25.5 163.5t73.5 124t117 79t156 27.5q82 0 145.5 -28t103 -80.5t48.5 -126.5l-220 -43q2 50 -16.5 76.5t-62.5 26.5q-37 0 -63.5 -23t-43.5 -58.5t-24.5 -75.5t-7.5 -75q0 -30 9.5 -52t29.5 -34t53 -12
q41 0 64.5 26t39.5 67l205 -75q-44 -91 -123.5 -142t-199.5 -51zM235 6l46 23q63 -6 97.5 -35t34.5 -75q0 -41 -19 -72t-52.5 -48t-78.5 -17q-40 0 -69.5 10t-52.5 30l52 89q11 -9 28 -13.5t28 -4.5q23 0 38.5 16t15.5 36q0 18 -16.5 34.5t-51.5 26.5zM458 876h200
l-130 -167h-167z" />
    <glyph glyph-name="uni1E09" unicode="&#x1e09;" horiz-adv-x="579" 
d="M292 -10q-85 0 -146.5 28.5t-94 80t-32.5 119.5q0 78 34 144.5t101.5 107t168.5 40.5q77 0 134.5 -24.5t89 -69.5t28.5 -108l-216 -30q7 36 0 56t-36 20q-21 0 -36 -17t-25 -42.5t-15 -53t-5 -48.5q0 -18 6 -29t16.5 -15.5t23.5 -4.5q20 0 35.5 17t22.5 43l201 -63
q-30 -69 -95.5 -110t-159.5 -41zM201 9l46 23q63 -6 97.5 -35t34.5 -75q0 -41 -19 -72t-52.5 -48t-78.5 -17q-40 0 -69.5 10t-52.5 30l52 89q11 -9 28 -13.5t28 -4.5q23 0 38.5 16t15.5 36q0 18 -16.5 34.5t-51.5 26.5zM366 730h209l-150 -177h-161z" />
    <glyph glyph-name="uni1E0C" unicode="&#x1e0c;" horiz-adv-x="709" 
d="M-8 0l153 660h261q100 0 166 -33.5t99 -94t33 -142.5q0 -89 -24 -161t-71.5 -123t-115.5 -78.5t-157 -27.5h-344zM264 166h55q41 0 70.5 21t47.5 55t26.5 74.5t8.5 79.5q0 32 -10 54t-30 33t-51 11h-42zM234 -226q-48 0 -76.5 17t-28.5 57q0 62 34 88t92 26
q51 0 79 -17.5t28 -55.5q0 -64 -34 -89.5t-94 -25.5z" />
    <glyph glyph-name="uni1E0D" unicode="&#x1e0d;" horiz-adv-x="619" 
d="M174 -10q-44 0 -80.5 20.5t-57.5 62t-21 105.5q0 59 16 118t47 107.5t76 77.5t103 29q26 0 53 -10t48 -33.5t28 -66.5l69 300h230l-162 -700h-210l17 95q-25 -49 -65.5 -77t-90.5 -28zM284 152q18 0 32 14.5t23.5 37.5t14 47.5t4.5 43.5q0 17 -4.5 28.5t-13 17.5t-21.5 6
q-21 0 -35.5 -15.5t-23.5 -38t-13.5 -46t-4.5 -38.5q0 -17 4.5 -30t13.5 -20t24 -7zM226 -226q-48 0 -76.5 17t-28.5 57q0 62 34 88t92 26q51 0 79 -17.5t28 -55.5q0 -64 -34 -89.5t-94 -25.5z" />
    <glyph glyph-name="uni1E0E" unicode="&#x1e0e;" horiz-adv-x="709" 
d="M-8 0l153 660h261q100 0 166 -33.5t99 -94t33 -142.5q0 -89 -24 -161t-71.5 -123t-115.5 -78.5t-157 -27.5h-344zM264 166h55q41 0 70.5 21t47.5 55t26.5 74.5t8.5 79.5q0 32 -10 54t-30 33t-51 11h-42zM456 -51l-31 -130h-388l31 130h388z" />
    <glyph glyph-name="uni1E0F" unicode="&#x1e0f;" horiz-adv-x="619" 
d="M174 -10q-44 0 -80.5 20.5t-57.5 62t-21 105.5q0 59 16 118t47 107.5t76 77.5t103 29q26 0 53 -10t48 -33.5t28 -66.5l69 300h230l-162 -700h-210l17 95q-25 -49 -65.5 -77t-90.5 -28zM284 152q18 0 32 14.5t23.5 37.5t14 47.5t4.5 43.5q0 17 -4.5 28.5t-13 17.5t-21.5 6
q-21 0 -35.5 -15.5t-23.5 -38t-13.5 -46t-4.5 -38.5q0 -17 4.5 -30t13.5 -20t24 -7zM448 -51l-31 -130h-388l31 130h388z" />
    <glyph glyph-name="uni1E14" unicode="&#x1e14;" horiz-adv-x="626" 
d="M-8 0l153 660h554l-40 -171h-321l-19 -82h254l-36 -158h-254l-18 -78h327l-40 -171h-560zM657 841l-31 -130h-388l31 130h388zM520 1055l26 -167h-148l-69 167h191z" />
    <glyph glyph-name="uni1E15" unicode="&#x1e15;" horiz-adv-x="588" 
d="M286 -9q-77 0 -137.5 27t-94.5 78.5t-34 122.5q0 88 36.5 153.5t103 101.5t155.5 36q81 0 138 -28.5t86.5 -78.5t29.5 -116q0 -19 -2 -40t-8 -41h-382l-1 85h224l-55 -21q5 14 5.5 23t0.5 17q0 19 -5.5 29.5t-14.5 15t-20 4.5q-26 0 -42.5 -15t-25 -39t-11.5 -51t-3 -50
t8 -37t22.5 -20t32.5 -6q26 0 40.5 13.5t20.5 31.5l192 -62q-15 -42 -53 -72t-91 -45.5t-115 -15.5zM576 681l-31 -130h-388l31 130h388zM439 895l26 -167h-148l-69 167h191z" />
    <glyph glyph-name="uni1E16" unicode="&#x1e16;" horiz-adv-x="626" 
d="M-8 0l153 660h554l-40 -171h-321l-19 -82h254l-36 -158h-254l-18 -78h327l-40 -171h-560zM657 841l-31 -130h-388l31 130h388zM481 1055h200l-130 -167h-167z" />
    <glyph glyph-name="uni1E17" unicode="&#x1e17;" horiz-adv-x="588" 
d="M286 -9q-77 0 -137.5 27t-94.5 78.5t-34 122.5q0 88 36.5 153.5t103 101.5t155.5 36q81 0 138 -28.5t86.5 -78.5t29.5 -116q0 -19 -2 -40t-8 -41h-382l-1 85h224l-55 -21q5 14 5.5 23t0.5 17q0 19 -5.5 29.5t-14.5 15t-20 4.5q-26 0 -42.5 -15t-25 -39t-11.5 -51t-3 -50
t8 -37t22.5 -20t32.5 -6q26 0 40.5 13.5t20.5 31.5l192 -62q-15 -42 -53 -72t-91 -45.5t-115 -15.5zM576 681l-31 -130h-388l31 130h388zM400 895h200l-130 -167h-167z" />
    <glyph glyph-name="uni1E1C" unicode="&#x1e1c;" horiz-adv-x="626" 
d="M-8 0l153 660h554l-40 -171h-321l-19 -82h254l-36 -158h-254l-18 -78h327l-40 -171h-560zM209 6l46 23q63 -6 97.5 -35t34.5 -75q0 -41 -19 -72t-52.5 -48t-78.5 -17q-40 0 -69.5 10t-52.5 30l52 89q11 -9 28 -13.5t28 -4.5q23 0 38.5 16t15.5 36q0 18 -16.5 34.5
t-51.5 26.5zM640 873q-14 -79 -70.5 -126t-142.5 -47q-76 0 -117 35t-41 95q0 10 1.5 21t3.5 22h139q-1 -6 -2 -11.5t-1 -10.5q0 -15 10 -24t28 -9q21 0 34.5 14.5t18.5 40.5h139z" />
    <glyph glyph-name="uni1E1D" unicode="&#x1e1d;" horiz-adv-x="588" 
d="M286 -9q-77 0 -137.5 27t-94.5 78.5t-34 122.5q0 88 36.5 153.5t103 101.5t155.5 36q81 0 138 -28.5t86.5 -78.5t29.5 -116q0 -19 -2 -40t-8 -41h-382l-1 85h224l-55 -21q5 14 5.5 23t0.5 17q0 19 -5.5 29.5t-14.5 15t-20 4.5q-26 0 -42.5 -15t-25 -39t-11.5 -51t-3 -50
t8 -37t22.5 -20t32.5 -6q26 0 40.5 13.5t20.5 31.5l192 -62q-15 -42 -53 -72t-91 -45.5t-115 -15.5zM209 6l46 23q63 -6 97.5 -35t34.5 -75q0 -41 -19 -72t-52.5 -48t-78.5 -17q-40 0 -69.5 10t-52.5 30l52 89q11 -9 28 -13.5t28 -4.5q23 0 38.5 16t15.5 36q0 18 -16.5 34.5
t-51.5 26.5zM560 713q-14 -79 -70.5 -126t-142.5 -47q-76 0 -117 35t-41 95q0 10 1.5 21t3.5 22h139q-1 -6 -2 -11.5t-1 -10.5q0 -15 10 -24t28 -9q21 0 34.5 14.5t18.5 40.5h139z" />
    <glyph glyph-name="uni1E20" unicode="&#x1e20;" horiz-adv-x="720" 
d="M308 -10q-76 0 -136 35t-95 99.5t-35 153.5q0 82 25 153t73 125t118 84t160 30q82 0 145 -27.5t101.5 -78.5t44.5 -120l-216 -32q0 35 -18.5 59t-59.5 24q-29 0 -54.5 -14.5t-45 -41t-30.5 -63.5t-11 -82q0 -41 11 -72t36 -48t67 -17q26 0 45 7t32 19.5t20 27.5l8 17
h-126l32 140h306l-94 -368h-148l38 171l19 -20q-17 -52 -44.5 -88t-68.5 -54.5t-99 -18.5zM674 841l-31 -130h-388l31 130h388z" />
    <glyph glyph-name="uni1E21" unicode="&#x1e21;" horiz-adv-x="613" 
d="M208 -215q-46 0 -90 11t-79 35t-54 61.5t-16 89.5l231 12q-4 -33 2 -52.5t36 -19.5q15 0 26.5 9.5t20 28.5t15.5 50l45 192l6 -9q-16 -89 -59 -134t-113 -45q-44 0 -80 20t-57 61t-21 104q0 57 16 112.5t47 100.5t75 71.5t101 26.5q31 0 61.5 -15t50.5 -50.5t17 -95.5
l-23 -36l43 187h230l-106 -460q-22 -97 -64 -152.5t-106.5 -79t-154.5 -23.5zM290 173q24 0 39 20t22.5 48.5t7.5 54.5q0 16 -5 27.5t-14 17.5t-21 6q-26 0 -42 -21.5t-23 -49t-7 -46.5q0 -26 9.5 -41.5t33.5 -15.5zM564 681l-31 -130h-388l31 130h388z" />
    <glyph glyph-name="uni1E24" unicode="&#x1e24;" horiz-adv-x="747" 
d="M792 660l-153 -660h-233l153 660h233zM378 660l-153 -660h-233l153 660h233zM632 417l-40 -171h-431l40 171h431zM277 -226q-48 0 -76.5 17t-28.5 57q0 62 34 88t92 26q51 0 79 -17.5t28 -55.5q0 -64 -34 -89.5t-94 -25.5z" />
    <glyph glyph-name="uni1E25" unicode="&#x1e25;" horiz-adv-x="618" 
d="M-20 0l162 700h230l-75 -324l-17 -34q12 43 36 81t64 62.5t97 24.5q45 0 77.5 -22t45.5 -61t1 -91l-78 -336h-230l68 290q5 23 -3.5 36.5t-28.5 13.5q-14 0 -25 -7.5t-18.5 -22t-12.5 -36.5l-63 -274h-230zM210 -226q-48 0 -76.5 17t-28.5 57q0 62 34 88t92 26
q51 0 79 -17.5t28 -55.5q0 -64 -34 -89.5t-94 -25.5z" />
    <glyph glyph-name="uni1E2A" unicode="&#x1e2a;" horiz-adv-x="747" 
d="M792 660l-153 -660h-233l153 660h233zM378 660l-153 -660h-233l153 660h233zM632 417l-40 -171h-431l40 171h431zM490 -40q-14 -79 -70.5 -126t-142.5 -47q-76 0 -117 35t-41 95q0 10 1.5 21t3.5 22h139q-1 -6 -2 -11.5t-1 -10.5q0 -15 10 -24t28 -9q21 0 34.5 14.5
t18.5 40.5h139z" />
    <glyph glyph-name="uni1E2B" unicode="&#x1e2b;" horiz-adv-x="618" 
d="M-20 0l162 700h230l-75 -324l-17 -34q12 43 36 81t64 62.5t97 24.5q45 0 77.5 -22t45.5 -61t1 -91l-78 -336h-230l68 290q5 23 -3.5 36.5t-28.5 13.5q-14 0 -25 -7.5t-18.5 -22t-12.5 -36.5l-63 -274h-230zM423 -40q-14 -79 -70.5 -126t-142.5 -47q-76 0 -117 35t-41 95
q0 10 1.5 21t3.5 22h139q-1 -6 -2 -11.5t-1 -10.5q0 -15 10 -24t28 -9q21 0 34.5 14.5t18.5 40.5h139z" />
    <glyph glyph-name="uni1E2E" unicode="&#x1e2e;" horiz-adv-x="333" 
d="M378 660l-153 -660h-233l153 660h233zM394 697q-44 0 -71 16.5t-27 55.5q0 59 31.5 83.5t86.5 24.5q44 0 70 -16.5t26 -54.5q0 -60 -31 -84.5t-85 -24.5zM153 697q-44 0 -71 16.5t-27 55.5q0 59 31.5 83.5t86.5 24.5q44 0 70 -16.5t26 -54.5q0 -60 -31 -84.5t-85 -24.5z
M322 1080h200l-130 -167h-167z" />
    <glyph glyph-name="uni1E2F" unicode="&#x1e2f;" horiz-adv-x="308" 
d="M327 500l-116 -500h-230l116 500h230zM345 537q-44 0 -71 16.5t-27 55.5q0 59 31.5 83.5t86.5 24.5q44 0 70 -16.5t26 -54.5q0 -60 -31 -84.5t-85 -24.5zM104 537q-44 0 -71 16.5t-27 55.5q0 59 31.5 83.5t86.5 24.5q44 0 70 -16.5t26 -54.5q0 -60 -31 -84.5t-85 -24.5z
M273 920h200l-130 -167h-167z" />
    <glyph glyph-name="uni1E36" unicode="&#x1e36;" horiz-adv-x="615" 
d="M265 171h309l-40 -171h-542l153 660h233zM232 -226q-48 0 -76.5 17t-28.5 57q0 62 34 88t92 26q51 0 79 -17.5t28 -55.5q0 -64 -34 -89.5t-94 -25.5z" />
    <glyph glyph-name="uni1E37" unicode="&#x1e37;" horiz-adv-x="345" 
d="M191 -10q-103 0 -146 54.5t-21 148.5l118 507h230l-116 -501q-7 -29 2 -44t36 -15q10 0 17.5 1t11.5 2l-37 -140q-16 -7 -39 -10t-56 -3zM94 -226q-48 0 -76.5 17t-28.5 57q0 62 34 88t92 26q51 0 79 -17.5t28 -55.5q0 -64 -34 -89.5t-94 -25.5z" />
    <glyph glyph-name="uni1E3A" unicode="&#x1e3a;" horiz-adv-x="615" 
d="M265 171h309l-40 -171h-542l153 660h233zM454 -51l-31 -130h-388l31 130h388z" />
    <glyph glyph-name="uni1E3B" unicode="&#x1e3b;" horiz-adv-x="345" 
d="M-48 -181l30 130h301l-29 -130h-302zM191 -10q-103 0 -146 54.5t-21 148.5l118 507h230l-116 -501q-7 -29 2 -44t36 -15q10 0 17.5 1t11.5 2l-37 -140q-16 -7 -39 -10t-56 -3z" />
    <glyph glyph-name="uni1E42" unicode="&#x1e42;" horiz-adv-x="948" 
d="M-8 0l153 660h285l21 -260l5 -169h1l80 170l132 259h324l-153 -660h-203l53 229l48 208h-2l-231 -437h-175l-42 430h-2l-38 -201l-53 -229h-203zM377 -226q-48 0 -76.5 17t-28.5 57q0 62 34 88t92 26q51 0 79 -17.5t28 -55.5q0 -64 -34 -89.5t-94 -25.5z" />
    <glyph glyph-name="uni1E43" unicode="&#x1e43;" horiz-adv-x="932" 
d="M-20 0l116 500h205l-30 -191l-8 20q21 86 74 133.5t130 47.5q51 0 85 -22.5t47 -63.5t0 -98l-76 -326h-230l68 290q5 23 -3.5 36.5t-28.5 13.5q-14 0 -25 -7.5t-18.5 -22t-12.5 -36.5l-63 -274h-230zM607 0l68 290q5 23 -3.5 36.5t-28.5 13.5q-14 0 -25 -7.5t-18.5 -22
t-12.5 -36.5l-10 55q21 86 73 133.5t126 47.5q53 0 88 -22.5t48.5 -63.5t0.5 -98l-76 -326h-230zM370 -226q-48 0 -76.5 17t-28.5 57q0 62 34 88t92 26q51 0 79 -17.5t28 -55.5q0 -64 -34 -89.5t-94 -25.5z" />
    <glyph glyph-name="uni1E44" unicode="&#x1e44;" horiz-adv-x="746" 
d="M-8 0l153 660h242l89 -311l23 -93h2l31 159l57 245h202l-153 -660h-239l-93 300l-25 94h-2l-28 -149l-57 -245h-202zM477 698q-48 0 -76.5 17t-28.5 57q0 62 34 88t92 26q51 0 79 -17.5t28 -55.5q0 -64 -34 -89.5t-94 -25.5z" />
    <glyph glyph-name="uni1E45" unicode="&#x1e45;" horiz-adv-x="618" 
d="M-20 0l116 500h205l-30 -191l-8 20q21 86 74 133.5t130 47.5q51 0 85 -22.5t47 -63.5t0 -98l-76 -326h-230l68 290q5 23 -3.5 36.5t-28.5 13.5q-14 0 -25 -7.5t-18.5 -22t-12.5 -36.5l-63 -274h-230zM375 538q-48 0 -76.5 17t-28.5 57q0 62 34 88t92 26q51 0 79 -17.5
t28 -55.5q0 -64 -34 -89.5t-94 -25.5z" />
    <glyph glyph-name="uni1E46" unicode="&#x1e46;" horiz-adv-x="746" 
d="M-8 0l153 660h242l89 -311l23 -93h2l31 159l57 245h202l-153 -660h-239l-93 300l-25 94h-2l-28 -149l-57 -245h-202zM292 -226q-48 0 -76.5 17t-28.5 57q0 62 34 88t92 26q51 0 79 -17.5t28 -55.5q0 -64 -34 -89.5t-94 -25.5z" />
    <glyph glyph-name="uni1E47" unicode="&#x1e47;" horiz-adv-x="618" 
d="M-20 0l116 500h205l-30 -191l-8 20q21 86 74 133.5t130 47.5q51 0 85 -22.5t47 -63.5t0 -98l-76 -326h-230l68 290q5 23 -3.5 36.5t-28.5 13.5q-14 0 -25 -7.5t-18.5 -22t-12.5 -36.5l-63 -274h-230zM215 -226q-48 0 -76.5 17t-28.5 57q0 62 34 88t92 26q51 0 79 -17.5
t28 -55.5q0 -64 -34 -89.5t-94 -25.5z" />
    <glyph glyph-name="uni1E48" unicode="&#x1e48;" horiz-adv-x="746" 
d="M-8 0l153 660h242l89 -311l23 -93h2l31 159l57 245h202l-153 -660h-239l-93 300l-25 94h-2l-28 -149l-57 -245h-202zM514 -51l-31 -130h-388l31 130h388z" />
    <glyph glyph-name="uni1E49" unicode="&#x1e49;" horiz-adv-x="618" 
d="M-20 0l116 500h205l-30 -191l-8 20q21 86 74 133.5t130 47.5q51 0 85 -22.5t47 -63.5t0 -98l-76 -326h-230l68 290q5 23 -3.5 36.5t-28.5 13.5q-14 0 -25 -7.5t-18.5 -22t-12.5 -36.5l-63 -274h-230zM437 -51l-31 -130h-388l31 130h388z" />
    <glyph glyph-name="uni1E4C" unicode="&#x1e4c;" horiz-adv-x="725" 
d="M351 -10q-88 0 -158 34.5t-110 100t-40 156.5q0 86 25 157.5t72.5 123.5t116 80t154.5 28q89 0 158.5 -34.5t109.5 -99.5t40 -157q0 -86 -25 -157.5t-72.5 -123.5t-116 -80t-154.5 -28zM355 165q34 0 58.5 22.5t41 58.5t24.5 77.5t8 78.5q0 31 -8.5 51.5t-26 31
t-45.5 10.5q-34 0 -58.5 -22.5t-41 -58.5t-24.5 -77.5t-8 -78.5q0 -30 8.5 -51t26.5 -31.5t45 -10.5zM678 879q-13 -90 -56.5 -133t-97.5 -43q-27 0 -45.5 8t-32.5 18t-26.5 18t-26.5 8t-23 -13.5t-14 -36.5h-116q14 90 54 133t98 43q21 0 39 -8t33.5 -18t30 -18t28.5 -8
t23.5 12.5t15.5 37.5h116zM502 1087h200l-130 -167h-167z" />
    <glyph glyph-name="uni1E4D" unicode="&#x1e4d;" horiz-adv-x="603" 
d="M280 -10q-79 0 -137.5 29t-91 80.5t-32.5 118.5q0 78 34 144.5t101.5 107t168.5 40.5q79 0 137.5 -29t91 -80.5t32.5 -118.5q0 -77 -34 -144t-101.5 -107.5t-168.5 -40.5zM282 144q19 0 33.5 17t24.5 43.5t15 54t5 48.5q0 19 -5.5 29.5t-14.5 15t-20 4.5q-19 0 -33.5 -17
t-24.5 -43.5t-15 -54t-5 -48.5q0 -18 5.5 -29t14.5 -15.5t20 -4.5zM596 719q-13 -90 -56.5 -133t-97.5 -43q-27 0 -45.5 8t-32.5 18t-26.5 18t-26.5 8t-23 -13.5t-14 -36.5h-116q14 90 54 133t98 43q21 0 39 -8t33.5 -18t30 -18t28.5 -8t23.5 12.5t15.5 37.5h116zM420 927
h200l-130 -167h-167z" />
    <glyph glyph-name="uni1E4E" unicode="&#x1e4e;" horiz-adv-x="725" 
d="M351 -10q-88 0 -158 34.5t-110 100t-40 156.5q0 86 25 157.5t72.5 123.5t116 80t154.5 28q89 0 158.5 -34.5t109.5 -99.5t40 -157q0 -86 -25 -157.5t-72.5 -123.5t-116 -80t-154.5 -28zM355 165q34 0 58.5 22.5t41 58.5t24.5 77.5t8 78.5q0 31 -8.5 51.5t-26 31
t-45.5 10.5q-34 0 -58.5 -22.5t-41 -58.5t-24.5 -77.5t-8 -78.5q0 -30 8.5 -51t26.5 -31.5t45 -10.5zM678 879q-13 -90 -56.5 -133t-97.5 -43q-27 0 -45.5 8t-32.5 18t-26.5 18t-26.5 8t-23 -13.5t-14 -36.5h-116q14 90 54 133t98 43q21 0 39 -8t33.5 -18t30 -18t28.5 -8
t23.5 12.5t15.5 37.5h116zM613 908q-44 0 -71 16.5t-27 55.5q0 59 31.5 83.5t86.5 24.5q44 0 70 -16.5t26 -54.5q0 -60 -31 -84.5t-85 -24.5zM372 908q-44 0 -71 16.5t-27 55.5q0 59 31.5 83.5t86.5 24.5q44 0 70 -16.5t26 -54.5q0 -60 -31 -84.5t-85 -24.5z" />
    <glyph glyph-name="uni1E4F" unicode="&#x1e4f;" horiz-adv-x="603" 
d="M280 -10q-79 0 -137.5 29t-91 80.5t-32.5 118.5q0 78 34 144.5t101.5 107t168.5 40.5q79 0 137.5 -29t91 -80.5t32.5 -118.5q0 -77 -34 -144t-101.5 -107.5t-168.5 -40.5zM282 144q19 0 33.5 17t24.5 43.5t15 54t5 48.5q0 19 -5.5 29.5t-14.5 15t-20 4.5q-19 0 -33.5 -17
t-24.5 -43.5t-15 -54t-5 -48.5q0 -18 5.5 -29t14.5 -15.5t20 -4.5zM596 719q-13 -90 -56.5 -133t-97.5 -43q-27 0 -45.5 8t-32.5 18t-26.5 18t-26.5 8t-23 -13.5t-14 -36.5h-116q14 90 54 133t98 43q21 0 39 -8t33.5 -18t30 -18t28.5 -8t23.5 12.5t15.5 37.5h116zM531 748
q-44 0 -71 16.5t-27 55.5q0 59 31.5 83.5t86.5 24.5q44 0 70 -16.5t26 -54.5q0 -60 -31 -84.5t-85 -24.5zM290 748q-44 0 -71 16.5t-27 55.5q0 59 31.5 83.5t86.5 24.5q44 0 70 -16.5t26 -54.5q0 -60 -31 -84.5t-85 -24.5z" />
    <glyph glyph-name="uni1E50" unicode="&#x1e50;" horiz-adv-x="725" 
d="M351 -10q-88 0 -158 34.5t-110 100t-40 156.5q0 86 25 157.5t72.5 123.5t116 80t154.5 28q89 0 158.5 -34.5t109.5 -99.5t40 -157q0 -86 -25 -157.5t-72.5 -123.5t-116 -80t-154.5 -28zM355 165q34 0 58.5 22.5t41 58.5t24.5 77.5t8 78.5q0 31 -8.5 51.5t-26 31
t-45.5 10.5q-34 0 -58.5 -22.5t-41 -58.5t-24.5 -77.5t-8 -78.5q0 -30 8.5 -51t26.5 -31.5t45 -10.5zM675 841l-31 -130h-388l31 130h388zM538 1055l26 -167h-148l-69 167h191z" />
    <glyph glyph-name="uni1E51" unicode="&#x1e51;" horiz-adv-x="603" 
d="M280 -10q-79 0 -137.5 29t-91 80.5t-32.5 118.5q0 78 34 144.5t101.5 107t168.5 40.5q79 0 137.5 -29t91 -80.5t32.5 -118.5q0 -77 -34 -144t-101.5 -107.5t-168.5 -40.5zM282 144q19 0 33.5 17t24.5 43.5t15 54t5 48.5q0 19 -5.5 29.5t-14.5 15t-20 4.5q-19 0 -33.5 -17
t-24.5 -43.5t-15 -54t-5 -48.5q0 -18 5.5 -29t14.5 -15.5t20 -4.5zM593 681l-31 -130h-388l31 130h388zM456 895l26 -167h-148l-69 167h191z" />
    <glyph glyph-name="uni1E52" unicode="&#x1e52;" horiz-adv-x="725" 
d="M351 -10q-88 0 -158 34.5t-110 100t-40 156.5q0 86 25 157.5t72.5 123.5t116 80t154.5 28q89 0 158.5 -34.5t109.5 -99.5t40 -157q0 -86 -25 -157.5t-72.5 -123.5t-116 -80t-154.5 -28zM355 165q34 0 58.5 22.5t41 58.5t24.5 77.5t8 78.5q0 31 -8.5 51.5t-26 31
t-45.5 10.5q-34 0 -58.5 -22.5t-41 -58.5t-24.5 -77.5t-8 -78.5q0 -30 8.5 -51t26.5 -31.5t45 -10.5zM675 841l-31 -130h-388l31 130h388zM499 1055h200l-130 -167h-167z" />
    <glyph glyph-name="uni1E53" unicode="&#x1e53;" horiz-adv-x="603" 
d="M280 -10q-79 0 -137.5 29t-91 80.5t-32.5 118.5q0 78 34 144.5t101.5 107t168.5 40.5q79 0 137.5 -29t91 -80.5t32.5 -118.5q0 -77 -34 -144t-101.5 -107.5t-168.5 -40.5zM282 144q19 0 33.5 17t24.5 43.5t15 54t5 48.5q0 19 -5.5 29.5t-14.5 15t-20 4.5q-19 0 -33.5 -17
t-24.5 -43.5t-15 -54t-5 -48.5q0 -18 5.5 -29t14.5 -15.5t20 -4.5zM593 681l-31 -130h-388l31 130h388zM417 895h200l-130 -167h-167z" />
    <glyph glyph-name="uni1E5A" unicode="&#x1e5a;" horiz-adv-x="704" 
d="M-8 0l153 660h328q110 0 174 -51t64 -143q0 -82 -38.5 -136.5t-106 -81.5t-155.5 -27l-29 -10h-127l35 153h99q29 0 50 9t33 26t12 39q0 31 -20.5 43.5t-49.5 12.5h-80l-114 -494h-228zM423 0l-105 289l205 34l131 -323h-231zM277 -226q-48 0 -76.5 17t-28.5 57
q0 62 34 88t92 26q51 0 79 -17.5t28 -55.5q0 -64 -34 -89.5t-94 -25.5z" />
    <glyph glyph-name="uni1E5B" unicode="&#x1e5b;" horiz-adv-x="447" 
d="M-20 0l116 500h207l-43 -226l-5 23q16 63 41 111t64.5 75t96.5 27q17 0 28 -2.5t18 -6.5l-53 -188q-10 5 -24 8t-37 3q-27 0 -53.5 -11.5t-47 -37.5t-31.5 -71l-47 -204h-230zM56 -226q-48 0 -76.5 17t-28.5 57q0 62 34 88t92 26q51 0 79 -17.5t28 -55.5q0 -64 -34 -89.5
t-94 -25.5z" />
    <glyph glyph-name="uni1E5E" unicode="&#x1e5e;" horiz-adv-x="704" 
d="M-8 0l153 660h328q110 0 174 -51t64 -143q0 -82 -38.5 -136.5t-106 -81.5t-155.5 -27l-29 -10h-127l35 153h99q29 0 50 9t33 26t12 39q0 31 -20.5 43.5t-49.5 12.5h-80l-114 -494h-228zM423 0l-105 289l205 34l131 -323h-231zM499 -51l-31 -130h-388l31 130h388z" />
    <glyph glyph-name="uni1E5F" unicode="&#x1e5f;" horiz-adv-x="447" 
d="M-103 -181l31 130h320l-31 -130h-320zM-20 0l116 500h207l-43 -226l-5 23q16 63 41 111t64.5 75t96.5 27q17 0 28 -2.5t18 -6.5l-53 -188q-10 5 -24 8t-37 3q-27 0 -53.5 -11.5t-47 -37.5t-31.5 -71l-47 -204h-230z" />
    <glyph glyph-name="uni1E60" unicode="&#x1e60;" horiz-adv-x="640" 
d="M328 -13q-67 0 -130.5 15.5t-118.5 47.5t-99 81l116 138q28 -32 67 -57t81 -39.5t79 -14.5q19 0 29.5 4.5t15.5 11.5t5 16q0 11 -10.5 18.5t-34.5 15.5l-93 33q-41 15 -78 39.5t-60 62.5t-23 91q0 75 38 123.5t103 72.5t146 24q108 0 183 -34.5t133 -90.5l-123 -134
q-25 25 -56 44.5t-65 30.5t-69 11q-16 0 -26.5 -3t-15.5 -9t-5 -15q0 -12 15 -20.5t40 -17.5l85 -30q77 -27 118.5 -70.5t41.5 -117.5q0 -72 -38 -123t-103 -77.5t-148 -26.5zM408 698q-48 0 -76.5 17t-28.5 57q0 62 34 88t92 26q51 0 79 -17.5t28 -55.5q0 -64 -34 -89.5
t-94 -25.5z" />
    <glyph glyph-name="uni1E61" unicode="&#x1e61;" horiz-adv-x="527" 
d="M255 -10q-51 0 -105 13t-100 37.5t-77 60.5l96 106q31 -31 74.5 -54t80.5 -23q17 0 25.5 4.5t8.5 12.5q0 7 -5.5 12.5t-19.5 9.5l-42 14q-83 28 -117 63t-34 92t30.5 95t83.5 57.5t120 19.5q83 0 147 -25t107 -66l-89 -110q-16 16 -41 30t-53 22.5t-56 8.5q-13 0 -19 -4
t-6 -11t5.5 -12t18.5 -9l90 -29q54 -17 83.5 -51t29.5 -85q0 -55 -27.5 -95t-80 -62t-128.5 -22zM333 538q-48 0 -76.5 17t-28.5 57q0 62 34 88t92 26q51 0 79 -17.5t28 -55.5q0 -64 -34 -89.5t-94 -25.5z" />
    <glyph glyph-name="uni1E62" unicode="&#x1e62;" horiz-adv-x="640" 
d="M328 -13q-67 0 -130.5 15.5t-118.5 47.5t-99 81l116 138q28 -32 67 -57t81 -39.5t79 -14.5q19 0 29.5 4.5t15.5 11.5t5 16q0 11 -10.5 18.5t-34.5 15.5l-93 33q-41 15 -78 39.5t-60 62.5t-23 91q0 75 38 123.5t103 72.5t146 24q108 0 183 -34.5t133 -90.5l-123 -134
q-25 25 -56 44.5t-65 30.5t-69 11q-16 0 -26.5 -3t-15.5 -9t-5 -15q0 -12 15 -20.5t40 -17.5l85 -30q77 -27 118.5 -70.5t41.5 -117.5q0 -72 -38 -123t-103 -77.5t-148 -26.5zM236 -226q-48 0 -76.5 17t-28.5 57q0 62 34 88t92 26q51 0 79 -17.5t28 -55.5q0 -64 -34 -89.5
t-94 -25.5z" />
    <glyph glyph-name="uni1E63" unicode="&#x1e63;" horiz-adv-x="527" 
d="M255 -10q-51 0 -105 13t-100 37.5t-77 60.5l96 106q31 -31 74.5 -54t80.5 -23q17 0 25.5 4.5t8.5 12.5q0 7 -5.5 12.5t-19.5 9.5l-42 14q-83 28 -117 63t-34 92t30.5 95t83.5 57.5t120 19.5q83 0 147 -25t107 -66l-89 -110q-16 16 -41 30t-53 22.5t-56 8.5q-13 0 -19 -4
t-6 -11t5.5 -12t18.5 -9l90 -29q54 -17 83.5 -51t29.5 -85q0 -55 -27.5 -95t-80 -62t-128.5 -22zM180 -226q-48 0 -76.5 17t-28.5 57q0 62 34 88t92 26q51 0 79 -17.5t28 -55.5q0 -64 -34 -89.5t-94 -25.5z" />
    <glyph glyph-name="uni1E64" unicode="&#x1e64;" horiz-adv-x="640" 
d="M328 -13q-67 0 -130.5 15.5t-118.5 47.5t-99 81l116 138q28 -32 67 -57t81 -39.5t79 -14.5q19 0 29.5 4.5t15.5 11.5t5 16q0 11 -10.5 18.5t-34.5 15.5l-93 33q-41 15 -78 39.5t-60 62.5t-23 91q0 75 38 123.5t103 72.5t146 24q108 0 183 -34.5t133 -90.5l-123 -134
q-25 25 -56 44.5t-65 30.5t-69 11q-16 0 -26.5 -3t-15.5 -9t-5 -15q0 -12 15 -20.5t40 -17.5l85 -30q77 -27 118.5 -70.5t41.5 -117.5q0 -72 -38 -123t-103 -77.5t-148 -26.5zM421 876h200l-130 -167h-167zM468 917q-48 0 -76.5 17t-28.5 57q0 62 34 88t92 26q51 0 79 -17.5
t28 -55.5q0 -64 -34 -89.5t-94 -25.5z" />
    <glyph glyph-name="uni1E65" unicode="&#x1e65;" horiz-adv-x="527" 
d="M255 -10q-51 0 -105 13t-100 37.5t-77 60.5l96 106q31 -31 74.5 -54t80.5 -23q17 0 25.5 4.5t8.5 12.5q0 7 -5.5 12.5t-19.5 9.5l-42 14q-83 28 -117 63t-34 92t30.5 95t83.5 57.5t120 19.5q83 0 147 -25t107 -66l-89 -110q-16 16 -41 30t-53 22.5t-56 8.5q-13 0 -19 -4
t-6 -11t5.5 -12t18.5 -9l90 -29q54 -17 83.5 -51t29.5 -85q0 -55 -27.5 -95t-80 -62t-128.5 -22zM335 730h209l-150 -177h-161zM417 771q-48 0 -76.5 17t-28.5 57q0 62 34 88t92 26q51 0 79 -17.5t28 -55.5q0 -64 -34 -89.5t-94 -25.5z" />
    <glyph glyph-name="uni1E66" unicode="&#x1e66;" horiz-adv-x="640" 
d="M328 -13q-67 0 -130.5 15.5t-118.5 47.5t-99 81l116 138q28 -32 67 -57t81 -39.5t79 -14.5q19 0 29.5 4.5t15.5 11.5t5 16q0 11 -10.5 18.5t-34.5 15.5l-93 33q-41 15 -78 39.5t-60 62.5t-23 91q0 75 38 123.5t103 72.5t146 24q108 0 183 -34.5t133 -90.5l-123 -134
q-25 25 -56 44.5t-65 30.5t-69 11q-16 0 -26.5 -3t-15.5 -9t-5 -15q0 -12 15 -20.5t40 -17.5l85 -30q77 -27 118.5 -70.5t41.5 -117.5q0 -72 -38 -123t-103 -77.5t-148 -26.5zM290 709l-55 167h142l37 -82l73 82h154l-133 -167h-218zM440 906q-48 0 -76.5 17t-28.5 57
q0 62 34 88t92 26q51 0 79 -17.5t28 -55.5q0 -64 -34 -89.5t-94 -25.5z" />
    <glyph glyph-name="uni1E67" unicode="&#x1e67;" horiz-adv-x="527" 
d="M255 -10q-51 0 -105 13t-100 37.5t-77 60.5l96 106q31 -31 74.5 -54t80.5 -23q17 0 25.5 4.5t8.5 12.5q0 7 -5.5 12.5t-19.5 9.5l-42 14q-83 28 -117 63t-34 92t30.5 95t83.5 57.5t120 19.5q83 0 147 -25t107 -66l-89 -110q-16 16 -41 30t-53 22.5t-56 8.5q-13 0 -19 -4
t-6 -11t5.5 -12t18.5 -9l90 -29q54 -17 83.5 -51t29.5 -85q0 -55 -27.5 -95t-80 -62t-128.5 -22zM207 553l-65 177h145l42 -74l77 74h162l-147 -177h-214zM356 761q-48 0 -76.5 17t-28.5 57q0 62 34 88t92 26q51 0 79 -17.5t28 -55.5q0 -64 -34 -89.5t-94 -25.5z" />
    <glyph glyph-name="uni1E68" unicode="&#x1e68;" horiz-adv-x="640" 
d="M328 -13q-67 0 -130.5 15.5t-118.5 47.5t-99 81l116 138q28 -32 67 -57t81 -39.5t79 -14.5q19 0 29.5 4.5t15.5 11.5t5 16q0 11 -10.5 18.5t-34.5 15.5l-93 33q-41 15 -78 39.5t-60 62.5t-23 91q0 75 38 123.5t103 72.5t146 24q108 0 183 -34.5t133 -90.5l-123 -134
q-25 25 -56 44.5t-65 30.5t-69 11q-16 0 -26.5 -3t-15.5 -9t-5 -15q0 -12 15 -20.5t40 -17.5l85 -30q77 -27 118.5 -70.5t41.5 -117.5q0 -72 -38 -123t-103 -77.5t-148 -26.5zM408 698q-48 0 -76.5 17t-28.5 57q0 62 34 88t92 26q51 0 79 -17.5t28 -55.5q0 -64 -34 -89.5
t-94 -25.5zM236 -226q-48 0 -76.5 17t-28.5 57q0 62 34 88t92 26q51 0 79 -17.5t28 -55.5q0 -64 -34 -89.5t-94 -25.5z" />
    <glyph glyph-name="uni1E69" unicode="&#x1e69;" horiz-adv-x="527" 
d="M255 -10q-51 0 -105 13t-100 37.5t-77 60.5l96 106q31 -31 74.5 -54t80.5 -23q17 0 25.5 4.5t8.5 12.5q0 7 -5.5 12.5t-19.5 9.5l-42 14q-83 28 -117 63t-34 92t30.5 95t83.5 57.5t120 19.5q83 0 147 -25t107 -66l-89 -110q-16 16 -41 30t-53 22.5t-56 8.5q-13 0 -19 -4
t-6 -11t5.5 -12t18.5 -9l90 -29q54 -17 83.5 -51t29.5 -85q0 -55 -27.5 -95t-80 -62t-128.5 -22zM333 538q-48 0 -76.5 17t-28.5 57q0 62 34 88t92 26q51 0 79 -17.5t28 -55.5q0 -64 -34 -89.5t-94 -25.5zM180 -226q-48 0 -76.5 17t-28.5 57q0 62 34 88t92 26q51 0 79 -17.5
t28 -55.5q0 -64 -34 -89.5t-94 -25.5z" />
    <glyph glyph-name="uni1E6C" unicode="&#x1e6c;" horiz-adv-x="686" 
d="M761 660l-40 -171h-206l-113 -489h-233l113 489h-207l40 171h646zM246 -226q-48 0 -76.5 17t-28.5 57q0 62 34 88t92 26q51 0 79 -17.5t28 -55.5q0 -64 -34 -89.5t-94 -25.5z" />
    <glyph glyph-name="uni1E6D" unicode="&#x1e6d;" horiz-adv-x="458" 
d="M270 -10q-71 0 -120 23.5t-68.5 71t-3.5 119.5l93 402l245 64l-106 -457q-10 -34 7.5 -53.5t57.5 -19.5q22 0 33.5 2t21.5 5l-28 -138q-28 -10 -62.5 -14.5t-69.5 -4.5zM24 345l36 155h441l-36 -155h-441zM185 -226q-48 0 -76.5 17t-28.5 57q0 62 34 88t92 26
q51 0 79 -17.5t28 -55.5q0 -64 -34 -89.5t-94 -25.5z" />
    <glyph glyph-name="uni1E6E" unicode="&#x1e6e;" horiz-adv-x="686" 
d="M761 660l-40 -171h-206l-113 -489h-233l113 489h-207l40 171h646zM468 -51l-31 -130h-388l31 130h388z" />
    <glyph glyph-name="uni1E6F" unicode="&#x1e6f;" horiz-adv-x="458" 
d="M270 -10q-71 0 -120 23.5t-68.5 71t-3.5 119.5l93 402l245 64l-106 -457q-10 -34 7.5 -53.5t57.5 -19.5q22 0 33.5 2t21.5 5l-28 -138q-28 -10 -62.5 -14.5t-69.5 -4.5zM24 345l36 155h441l-36 -155h-441zM407 -51l-31 -130h-388l31 130h388z" />
    <glyph glyph-name="uni1E78" unicode="&#x1e78;" horiz-adv-x="711" 
d="M332 -10q-107 0 -178.5 37t-100 106t-6.5 164l85 363h234l-89 -390q-7 -33 0 -56.5t26.5 -36t49.5 -12.5q38 0 59 22t32 72l93 401h233l-92 -394q-34 -143 -115 -209.5t-231 -66.5zM692 879q-13 -90 -56.5 -133t-97.5 -43q-27 0 -45.5 8t-32.5 18t-26.5 18t-26.5 8
t-23 -13.5t-14 -36.5h-116q14 90 54 133t98 43q21 0 39 -8t33.5 -18t30 -18t28.5 -8t23.5 12.5t15.5 37.5h116zM516 1087h200l-130 -167h-167z" />
    <glyph glyph-name="uni1E79" unicode="&#x1e79;" horiz-adv-x="618" 
d="M153 -10q-52 0 -86.5 22t-47.5 62t-1 95l77 331h230l-67 -290q-6 -25 4 -37.5t30 -12.5q15 0 24.5 7.5t16.5 22.5t12 36l63 274h230l-116 -500h-205l30 191l8 -22q-22 -85 -74.5 -132t-127.5 -47zM602 719q-13 -90 -56.5 -133t-97.5 -43q-27 0 -45.5 8t-32.5 18t-26.5 18
t-26.5 8t-23 -13.5t-14 -36.5h-116q14 90 54 133t98 43q21 0 39 -8t33.5 -18t30 -18t28.5 -8t23.5 12.5t15.5 37.5h116zM426 927h200l-130 -167h-167z" />
    <glyph glyph-name="uni1E7A" unicode="&#x1e7a;" horiz-adv-x="711" 
d="M332 -10q-107 0 -178.5 37t-100 106t-6.5 164l85 363h234l-89 -390q-7 -33 0 -56.5t26.5 -36t49.5 -12.5q38 0 59 22t32 72l93 401h233l-92 -394q-34 -143 -115 -209.5t-231 -66.5zM689 841l-31 -130h-388l31 130h388zM624 876q-44 0 -71 16.5t-27 55.5q0 59 31.5 83.5
t86.5 24.5q44 0 70 -16.5t26 -54.5q0 -60 -31 -84.5t-85 -24.5zM383 876q-44 0 -71 16.5t-27 55.5q0 59 31.5 83.5t86.5 24.5q44 0 70 -16.5t26 -54.5q0 -60 -31 -84.5t-85 -24.5z" />
    <glyph glyph-name="uni1E7B" unicode="&#x1e7b;" horiz-adv-x="618" 
d="M153 -10q-52 0 -86.5 22t-47.5 62t-1 95l77 331h230l-67 -290q-6 -25 4 -37.5t30 -12.5q15 0 24.5 7.5t16.5 22.5t12 36l63 274h230l-116 -500h-205l30 191l8 -22q-22 -85 -74.5 -132t-127.5 -47zM599 681l-31 -130h-388l31 130h388zM534 716q-44 0 -71 16.5t-27 55.5
q0 59 31.5 83.5t86.5 24.5q44 0 70 -16.5t26 -54.5q0 -60 -31 -84.5t-85 -24.5zM293 716q-44 0 -71 16.5t-27 55.5q0 59 31.5 83.5t86.5 24.5q44 0 70 -16.5t26 -54.5q0 -60 -31 -84.5t-85 -24.5z" />
    <glyph glyph-name="Wgrave" unicode="&#x1e80;" horiz-adv-x="1021" 
d="M121 0l-34 660h230l-17 -473l190 473h200l1 -473l176 473h256l-341 -660h-252l4 248l15 177h-3l-70 -177l-102 -248h-253zM655 876l26 -167h-148l-69 167h191z" />
    <glyph glyph-name="wgrave" unicode="&#x1e81;" horiz-adv-x="932" 
d="M58 0l-9 500h225l-20 -335l148 335h226v-335l128 335h243l-248 -500h-283v248l-118 -248h-292zM587 730l19 -177h-154l-72 177h207z" />
    <glyph glyph-name="Wacute" unicode="&#x1e82;" horiz-adv-x="1021" 
d="M121 0l-34 660h230l-17 -473l190 473h200l1 -473l176 473h256l-341 -660h-252l4 248l15 177h-3l-70 -177l-102 -248h-253zM616 876h200l-130 -167h-167z" />
    <glyph glyph-name="wacute" unicode="&#x1e83;" horiz-adv-x="932" 
d="M58 0l-9 500h225l-20 -335l148 335h226v-335l128 335h243l-248 -500h-283v248l-118 -248h-292zM530 730h209l-150 -177h-161z" />
    <glyph glyph-name="Wdieresis" unicode="&#x1e84;" horiz-adv-x="1021" 
d="M121 0l-34 660h230l-17 -473l190 473h200l1 -473l176 473h256l-341 -660h-252l4 248l15 177h-3l-70 -177l-102 -248h-253zM727 697q-44 0 -71 16.5t-27 55.5q0 59 31.5 83.5t86.5 24.5q44 0 70 -16.5t26 -54.5q0 -60 -31 -84.5t-85 -24.5zM486 697q-44 0 -71 16.5
t-27 55.5q0 59 31.5 83.5t86.5 24.5q44 0 70 -16.5t26 -54.5q0 -60 -31 -84.5t-85 -24.5z" />
    <glyph glyph-name="wdieresis" unicode="&#x1e85;" horiz-adv-x="932" 
d="M58 0l-9 500h225l-20 -335l148 335h226v-335l128 335h243l-248 -500h-283v248l-118 -248h-292zM652 537q-44 0 -71 16.5t-27 55.5q0 59 31.5 83.5t86.5 24.5q44 0 70 -16.5t26 -54.5q0 -60 -31 -84.5t-85 -24.5zM411 537q-44 0 -71 16.5t-27 55.5q0 59 31.5 83.5
t86.5 24.5q44 0 70 -16.5t26 -54.5q0 -60 -31 -84.5t-85 -24.5z" />
    <glyph glyph-name="uni1E8E" unicode="&#x1e8e;" horiz-adv-x="713" 
d="M182 0l55 237l-133 423h219l41 -151l25 -117l68 117l99 151h243l-333 -439l-51 -221h-233zM442 698q-48 0 -76.5 17t-28.5 57q0 62 34 88t92 26q51 0 79 -17.5t28 -55.5q0 -64 -34 -89.5t-94 -25.5z" />
    <glyph glyph-name="uni1E8F" unicode="&#x1e8f;" horiz-adv-x="594" 
d="M66 -215q-47 0 -88.5 10t-64.5 25l57 155q35 -29 92 -29q25 0 44.5 7t28.5 21l3 5l-88 521h234l-6 -258l-6 -120l47 121l103 257h240l-284 -504q-43 -77 -87.5 -123.5t-98.5 -67t-126 -20.5zM390 538q-48 0 -76.5 17t-28.5 57q0 62 34 88t92 26q51 0 79 -17.5t28 -55.5
q0 -64 -34 -89.5t-94 -25.5z" />
    <glyph glyph-name="uni1E92" unicode="&#x1e92;" horiz-adv-x="644" 
d="M-26 0l39 169l401 325h-337l39 166h590l-39 -169l-400 -325h342l-39 -166h-596zM245 -226q-48 0 -76.5 17t-28.5 57q0 62 34 88t92 26q51 0 79 -17.5t28 -55.5q0 -64 -34 -89.5t-94 -25.5z" />
    <glyph glyph-name="uni1E93" unicode="&#x1e93;" horiz-adv-x="511" 
d="M-30 0l31 132l183 172l58 48l-73 -4h-122l35 152h457l-31 -132l-180 -170l-60 -50l82 4h122l-35 -152h-467zM157 -226q-48 0 -76.5 17t-28.5 57q0 62 34 88t92 26q51 0 79 -17.5t28 -55.5q0 -64 -34 -89.5t-94 -25.5z" />
    <glyph glyph-name="uni1E97" unicode="&#x1e97;" horiz-adv-x="458" 
d="M270 -10q-71 0 -120 23.5t-68.5 71t-3.5 119.5l93 402l245 64l-106 -457q-10 -34 7.5 -53.5t57.5 -19.5q22 0 33.5 2t21.5 5l-28 -138q-28 -10 -62.5 -14.5t-69.5 -4.5zM24 345l36 155h441l-36 -155h-441zM446 697q-44 0 -71 16.5t-27 55.5q0 59 31.5 83.5t86.5 24.5
q44 0 70 -16.5t26 -54.5q0 -60 -31 -84.5t-85 -24.5zM205 697q-44 0 -71 16.5t-27 55.5q0 59 31.5 83.5t86.5 24.5q44 0 70 -16.5t26 -54.5q0 -60 -31 -84.5t-85 -24.5z" />
    <glyph glyph-name="uni1E9E" unicode="&#x1e9e;" horiz-adv-x="738" 
d="M467 -5q-67 0 -114 14t-91 41l71 125q20 -12 45.5 -18t41.5 -6q19 0 34.5 5.5t25 17.5t9.5 31q0 20 -16 28.5t-51 8.5h-81l26 113l164 139h-99q-31 0 -58.5 -13t-47 -39t-28.5 -64l-86 -378h-233l90 390q20 88 70.5 148t121 91t150.5 31h383l-34 -146l-189 -163v0
q34 0 64.5 -17.5t50 -49.5t19.5 -79q0 -68 -30.5 -115t-84 -71t-123.5 -24z" />
    <glyph glyph-name="uni1EA0" unicode="&#x1ea0;" horiz-adv-x="689" 
d="M-68 0l369 660h280l60 -660h-219l-3 132h-184l-65 -132h-238zM307 277h108l-3 220zM262 -226q-48 0 -76.5 17t-28.5 57q0 62 34 88t92 26q51 0 79 -17.5t28 -55.5q0 -64 -34 -89.5t-94 -25.5z" />
    <glyph glyph-name="uni1EA1" unicode="&#x1ea1;" horiz-adv-x="619" 
d="M174 -10q-44 0 -80.5 20.5t-57.5 62t-21 105.5q0 59 16 118t47 107.5t76 77.5t103 29q26 0 53 -10t48 -33.5t28 -66.5l23 100h230l-116 -500h-210l17 95q-25 -49 -65.5 -77t-90.5 -28zM284 152q18 0 32 14.5t23.5 37.5t14 47.5t4.5 43.5q0 17 -4.5 28.5t-13 17.5t-21.5 6
q-21 0 -35.5 -15.5t-23.5 -38t-13.5 -46t-4.5 -38.5q0 -17 4.5 -30t13.5 -20t24 -7zM222 -226q-48 0 -76.5 17t-28.5 57q0 62 34 88t92 26q51 0 79 -17.5t28 -55.5q0 -64 -34 -89.5t-94 -25.5z" />
    <glyph glyph-name="uni1EA2" unicode="&#x1ea2;" horiz-adv-x="689" 
d="M-68 0l369 660h280l60 -660h-219l-3 132h-184l-65 -132h-238zM307 277h108l-3 220zM432 690l-24 62q40 9 51 24.5t11 27.5q0 10 -7 16.5t-20 6.5q-12 0 -20.5 -5.5t-15.5 -14.5l-80 61q15 30 50.5 50.5t87.5 20.5q50 0 87 -27.5t37 -79.5q0 -47 -22.5 -77t-58 -45
t-76.5 -20z" />
    <glyph glyph-name="uni1EA3" unicode="&#x1ea3;" horiz-adv-x="619" 
d="M174 -10q-44 0 -80.5 20.5t-57.5 62t-21 105.5q0 59 16 118t47 107.5t76 77.5t103 29q26 0 53 -10t48 -33.5t28 -66.5l23 100h230l-116 -500h-210l17 95q-25 -49 -65.5 -77t-90.5 -28zM284 152q18 0 32 14.5t23.5 37.5t14 47.5t4.5 43.5q0 17 -4.5 28.5t-13 17.5t-21.5 6
q-21 0 -35.5 -15.5t-23.5 -38t-13.5 -46t-4.5 -38.5q0 -17 4.5 -30t13.5 -20t24 -7zM350 540l-24 62q40 9 51 24.5t11 27.5q0 10 -7 16.5t-20 6.5q-12 0 -20.5 -5.5t-15.5 -14.5l-80 61q15 30 50.5 50.5t87.5 20.5q50 0 87 -27.5t37 -79.5q0 -47 -22.5 -77t-58 -45
t-76.5 -20z" />
    <glyph glyph-name="uni1EA4" unicode="&#x1ea4;" horiz-adv-x="689" 
d="M249 707l132 160h193l58 -160h-135l-36 64l-66 -64h-146zM710 952h180l-117 -150h-150zM-68 0l369 660h280l60 -660h-219l-3 132h-184l-65 -132h-238zM307 277h108l-3 220z" />
    <glyph glyph-name="uni1EA5" unicode="&#x1ea5;" horiz-adv-x="619" 
d="M168 547l132 160h193l58 -160h-135l-36 64l-66 -64h-146zM629 792h180l-117 -150h-150zM174 -10q-44 0 -80.5 20.5t-57.5 62t-21 105.5q0 59 16 118t47 107.5t76 77.5t103 29q26 0 53 -10t48 -33.5t28 -66.5l23 100h230l-116 -500h-210l17 95q-25 -49 -65.5 -77
t-90.5 -28zM284 152q18 0 32 14.5t23.5 37.5t14 47.5t4.5 43.5q0 17 -4.5 28.5t-13 17.5t-21.5 6q-21 0 -35.5 -15.5t-23.5 -38t-13.5 -46t-4.5 -38.5q0 -17 4.5 -30t13.5 -20t24 -7z" />
    <glyph glyph-name="uni1EA6" unicode="&#x1ea6;" horiz-adv-x="689" 
d="M249 707l132 160h193l58 -160h-135l-36 64l-66 -64h-146zM751 952l24 -150h-133l-62 150h171zM-68 0l369 660h280l60 -660h-219l-3 132h-184l-65 -132h-238zM307 277h108l-3 220z" />
    <glyph glyph-name="uni1EA7" unicode="&#x1ea7;" horiz-adv-x="619" 
d="M168 547l132 160h193l58 -160h-135l-36 64l-66 -64h-146zM670 792l24 -150h-133l-62 150h171zM174 -10q-44 0 -80.5 20.5t-57.5 62t-21 105.5q0 59 16 118t47 107.5t76 77.5t103 29q26 0 53 -10t48 -33.5t28 -66.5l23 100h230l-116 -500h-210l17 95q-25 -49 -65.5 -77
t-90.5 -28zM284 152q18 0 32 14.5t23.5 37.5t14 47.5t4.5 43.5q0 17 -4.5 28.5t-13 17.5t-21.5 6q-21 0 -35.5 -15.5t-23.5 -38t-13.5 -46t-4.5 -38.5q0 -17 4.5 -30t13.5 -20t24 -7z" />
    <glyph glyph-name="uni1EA8" unicode="&#x1ea8;" horiz-adv-x="689" 
d="M249 707l132 160h193l58 -160h-135l-36 64l-66 -64h-146zM639 788l-24 62q40 9 51 24.5t11 27.5q0 10 -7 16.5t-20 6.5q-12 0 -20.5 -5.5t-15.5 -14.5l-80 61q15 30 50.5 50.5t87.5 20.5q50 0 87 -27.5t37 -79.5q0 -47 -22.5 -77t-58 -45t-76.5 -20zM-68 0l369 660h280
l60 -660h-219l-3 132h-184l-65 -132h-238zM307 277h108l-3 220z" />
    <glyph glyph-name="uni1EA9" unicode="&#x1ea9;" horiz-adv-x="619" 
d="M168 547l132 160h193l58 -160h-135l-36 64l-66 -64h-146zM558 628l-24 62q40 9 51 24.5t11 27.5q0 10 -7 16.5t-20 6.5q-12 0 -20.5 -5.5t-15.5 -14.5l-80 61q15 30 50.5 50.5t87.5 20.5q50 0 87 -27.5t37 -79.5q0 -47 -22.5 -77t-58 -45t-76.5 -20zM174 -10
q-44 0 -80.5 20.5t-57.5 62t-21 105.5q0 59 16 118t47 107.5t76 77.5t103 29q26 0 53 -10t48 -33.5t28 -66.5l23 100h230l-116 -500h-210l17 95q-25 -49 -65.5 -77t-90.5 -28zM284 152q18 0 32 14.5t23.5 37.5t14 47.5t4.5 43.5q0 17 -4.5 28.5t-13 17.5t-21.5 6
q-21 0 -35.5 -15.5t-23.5 -38t-13.5 -46t-4.5 -38.5q0 -17 4.5 -30t13.5 -20t24 -7z" />
    <glyph glyph-name="uni1EAA" unicode="&#x1eaa;" horiz-adv-x="689" 
d="M249 707l132 160h193l58 -160h-135l-36 64l-66 -64h-146zM690 1047q-11 -81 -50.5 -119.5t-87.5 -38.5q-24 0 -41 7t-29.5 16.5t-23.5 16.5t-24 7t-21 -12.5t-13 -32.5h-104q12 81 48.5 119.5t88.5 38.5q19 0 35 -7t30 -16.5t27 -16.5t26 -7t21.5 11.5t13.5 33.5h104z
M-68 0l369 660h280l60 -660h-219l-3 132h-184l-65 -132h-238zM307 277h108l-3 220z" />
    <glyph glyph-name="uni1EAB" unicode="&#x1eab;" horiz-adv-x="619" 
d="M168 547l132 160h193l58 -160h-135l-36 64l-66 -64h-146zM609 887q-11 -81 -50.5 -119.5t-87.5 -38.5q-24 0 -41 7t-29.5 16.5t-23.5 16.5t-24 7t-21 -12.5t-13 -32.5h-104q12 81 48.5 119.5t88.5 38.5q19 0 35 -7t30 -16.5t27 -16.5t26 -7t21.5 11.5t13.5 33.5h104z
M174 -10q-44 0 -80.5 20.5t-57.5 62t-21 105.5q0 59 16 118t47 107.5t76 77.5t103 29q26 0 53 -10t48 -33.5t28 -66.5l23 100h230l-116 -500h-210l17 95q-25 -49 -65.5 -77t-90.5 -28zM284 152q18 0 32 14.5t23.5 37.5t14 47.5t4.5 43.5q0 17 -4.5 28.5t-13 17.5t-21.5 6
q-21 0 -35.5 -15.5t-23.5 -38t-13.5 -46t-4.5 -38.5q0 -17 4.5 -30t13.5 -20t24 -7z" />
    <glyph glyph-name="uni1EAC" unicode="&#x1eac;" horiz-adv-x="689" 
d="M-68 0l369 660h280l60 -660h-219l-3 132h-184l-65 -132h-238zM307 277h108l-3 220zM262 -226q-48 0 -76.5 17t-28.5 57q0 62 34 88t92 26q51 0 79 -17.5t28 -55.5q0 -64 -34 -89.5t-94 -25.5zM600 876l55 -167h-142l-37 82l-73 -82h-154l133 167h218z" />
    <glyph glyph-name="uni1EAD" unicode="&#x1ead;" horiz-adv-x="619" 
d="M174 -10q-44 0 -80.5 20.5t-57.5 62t-21 105.5q0 59 16 118t47 107.5t76 77.5t103 29q26 0 53 -10t48 -33.5t28 -66.5l23 100h230l-116 -500h-210l17 95q-25 -49 -65.5 -77t-90.5 -28zM284 152q18 0 32 14.5t23.5 37.5t14 47.5t4.5 43.5q0 17 -4.5 28.5t-13 17.5t-21.5 6
q-21 0 -35.5 -15.5t-23.5 -38t-13.5 -46t-4.5 -38.5q0 -17 4.5 -30t13.5 -20t24 -7zM222 -226q-48 0 -76.5 17t-28.5 57q0 62 34 88t92 26q51 0 79 -17.5t28 -55.5q0 -64 -34 -89.5t-94 -25.5zM145 547l147 177h214l65 -177h-150l-41 71l-73 -71h-162z" />
    <glyph glyph-name="uni1EAE" unicode="&#x1eae;" horiz-adv-x="689" 
d="M630 856q-13 -72 -63.5 -114t-128.5 -42q-69 0 -105.5 31.5t-36.5 85.5q0 16 5 39h125q-2 -6 -2.5 -10.5t-0.5 -9.5q0 -14 9 -22t25 -8q19 0 31 13t17 37h125zM400 880l88 151h180l-117 -151h-151zM-68 0l369 660h280l60 -660h-219l-3 132h-184l-65 -132h-238zM307 277
h108l-3 220z" />
    <glyph glyph-name="uni1EAF" unicode="&#x1eaf;" horiz-adv-x="619" 
d="M554 696q-13 -72 -63.5 -114t-128.5 -42q-69 0 -105.5 31.5t-36.5 85.5q0 16 5 39h125q-2 -6 -2.5 -10.5t-0.5 -9.5q0 -14 9 -22t25 -8q19 0 31 13t17 37h125zM324 720l88 151h180l-117 -151h-151zM174 -10q-44 0 -80.5 20.5t-57.5 62t-21 105.5q0 59 16 118t47 107.5
t76 77.5t103 29q26 0 53 -10t48 -33.5t28 -66.5l23 100h230l-116 -500h-210l17 95q-25 -49 -65.5 -77t-90.5 -28zM284 152q18 0 32 14.5t23.5 37.5t14 47.5t4.5 43.5q0 17 -4.5 28.5t-13 17.5t-21.5 6q-21 0 -35.5 -15.5t-23.5 -38t-13.5 -46t-4.5 -38.5q0 -17 4.5 -30
t13.5 -20t24 -7z" />
    <glyph glyph-name="uni1EB0" unicode="&#x1eb0;" horiz-adv-x="689" 
d="M635 856q-13 -72 -63.5 -114t-128.5 -42q-69 0 -105.5 31.5t-36.5 85.5q0 16 5 39h125q-2 -6 -2.5 -10.5t-0.5 -9.5q0 -14 9 -22t25 -8q19 0 31 13t17 37h125zM411 880l-62 151h172l23 -151h-133zM-68 0l369 660h280l60 -660h-219l-3 132h-184l-65 -132h-238zM307 277
h108l-3 220z" />
    <glyph glyph-name="uni1EB1" unicode="&#x1eb1;" horiz-adv-x="619" 
d="M554 696q-13 -72 -63.5 -114t-128.5 -42q-69 0 -105.5 31.5t-36.5 85.5q0 16 5 39h125q-2 -6 -2.5 -10.5t-0.5 -9.5q0 -14 9 -22t25 -8q19 0 31 13t17 37h125zM330 720l-62 151h172l23 -151h-133zM174 -10q-44 0 -80.5 20.5t-57.5 62t-21 105.5q0 59 16 118t47 107.5
t76 77.5t103 29q26 0 53 -10t48 -33.5t28 -66.5l23 100h230l-116 -500h-210l17 95q-25 -49 -65.5 -77t-90.5 -28zM284 152q18 0 32 14.5t23.5 37.5t14 47.5t4.5 43.5q0 17 -4.5 28.5t-13 17.5t-21.5 6q-21 0 -35.5 -15.5t-23.5 -38t-13.5 -46t-4.5 -38.5q0 -17 4.5 -30
t13.5 -20t24 -7z" />
    <glyph glyph-name="uni1EB2" unicode="&#x1eb2;" horiz-adv-x="689" 
d="M636 857q-13 -72 -63.5 -114t-128.5 -42q-69 0 -105.5 31.5t-36.5 85.5q0 16 5 39h125q-2 -6 -2.5 -10.5t-0.5 -9.5q0 -14 9 -22t25 -8q19 0 31 13t17 37h125zM467 864l-22 57q36 8 46.5 22t10.5 25q0 9 -6.5 15t-18.5 6q-11 0 -18.5 -5t-14.5 -13l-72 55q13 27 45 46
t80 19q46 0 79.5 -25.5t33.5 -72.5q0 -43 -20.5 -70t-53 -41t-69.5 -18zM-68 0l369 660h280l60 -660h-219l-3 132h-184l-65 -132h-238zM307 277h108l-3 220z" />
    <glyph glyph-name="uni1EB3" unicode="&#x1eb3;" horiz-adv-x="619" 
d="M555 697q-13 -72 -63.5 -114t-128.5 -42q-69 0 -105.5 31.5t-36.5 85.5q0 16 5 39h125q-2 -6 -2.5 -10.5t-0.5 -9.5q0 -14 9 -22t25 -8q19 0 31 13t17 37h125zM386 704l-22 57q36 8 46.5 22t10.5 25q0 9 -6.5 15t-18.5 6q-11 0 -18.5 -5t-14.5 -13l-72 55q13 27 45 46
t80 19q46 0 79.5 -25.5t33.5 -72.5q0 -43 -20.5 -70t-53 -41t-69.5 -18zM174 -10q-44 0 -80.5 20.5t-57.5 62t-21 105.5q0 59 16 118t47 107.5t76 77.5t103 29q26 0 53 -10t48 -33.5t28 -66.5l23 100h230l-116 -500h-210l17 95q-25 -49 -65.5 -77t-90.5 -28zM284 152
q18 0 32 14.5t23.5 37.5t14 47.5t4.5 43.5q0 17 -4.5 28.5t-13 17.5t-21.5 6q-21 0 -35.5 -15.5t-23.5 -38t-13.5 -46t-4.5 -38.5q0 -17 4.5 -30t13.5 -20t24 -7z" />
    <glyph glyph-name="uni1EB4" unicode="&#x1eb4;" horiz-adv-x="689" 
d="M638 856q-13 -72 -63.5 -114t-128.5 -42q-69 0 -105.5 31.5t-36.5 85.5q0 16 5 39h125q-2 -6 -2.5 -10.5t-0.5 -9.5q0 -14 9 -22t25 -8q19 0 31 13t17 37h125zM690 1035q-11 -81 -50.5 -119.5t-87.5 -38.5q-24 0 -41 7t-29.5 16.5t-23.5 16.5t-24 7t-21 -12.5t-13 -32.5
h-104q12 81 48.5 119.5t88.5 38.5q19 0 35 -7t30 -16.5t27 -16.5t26 -7t21.5 11.5t13.5 33.5h104zM-68 0l369 660h280l60 -660h-219l-3 132h-184l-65 -132h-238zM307 277h108l-3 220z" />
    <glyph glyph-name="uni1EB5" unicode="&#x1eb5;" horiz-adv-x="619" 
d="M553 696q-13 -72 -63.5 -114t-128.5 -42q-69 0 -105.5 31.5t-36.5 85.5q0 16 5 39h125q-2 -6 -2.5 -10.5t-0.5 -9.5q0 -14 9 -22t25 -8q19 0 31 13t17 37h125zM605 875q-11 -81 -50.5 -119.5t-87.5 -38.5q-24 0 -41 7t-29.5 16.5t-23.5 16.5t-24 7t-21 -12.5t-13 -32.5
h-104q12 81 48.5 119.5t88.5 38.5q19 0 35 -7t30 -16.5t27 -16.5t26 -7t21.5 11.5t13.5 33.5h104zM174 -10q-44 0 -80.5 20.5t-57.5 62t-21 105.5q0 59 16 118t47 107.5t76 77.5t103 29q26 0 53 -10t48 -33.5t28 -66.5l23 100h230l-116 -500h-210l17 95q-25 -49 -65.5 -77
t-90.5 -28zM284 152q18 0 32 14.5t23.5 37.5t14 47.5t4.5 43.5q0 17 -4.5 28.5t-13 17.5t-21.5 6q-21 0 -35.5 -15.5t-23.5 -38t-13.5 -46t-4.5 -38.5q0 -17 4.5 -30t13.5 -20t24 -7z" />
    <glyph glyph-name="uni1EB6" unicode="&#x1eb6;" horiz-adv-x="689" 
d="M-68 0l369 660h280l60 -660h-219l-3 132h-184l-65 -132h-238zM307 277h108l-3 220zM262 -226q-48 0 -76.5 17t-28.5 57q0 62 34 88t92 26q51 0 79 -17.5t28 -55.5q0 -64 -34 -89.5t-94 -25.5zM662 873q-14 -79 -70.5 -126t-142.5 -47q-76 0 -117 35t-41 95q0 10 1.5 21
t3.5 22h139q-1 -6 -2 -11.5t-1 -10.5q0 -15 10 -24t28 -9q21 0 34.5 14.5t18.5 40.5h139z" />
    <glyph glyph-name="uni1EB7" unicode="&#x1eb7;" horiz-adv-x="619" 
d="M174 -10q-44 0 -80.5 20.5t-57.5 62t-21 105.5q0 59 16 118t47 107.5t76 77.5t103 29q26 0 53 -10t48 -33.5t28 -66.5l23 100h230l-116 -500h-210l17 95q-25 -49 -65.5 -77t-90.5 -28zM284 152q18 0 32 14.5t23.5 37.5t14 47.5t4.5 43.5q0 17 -4.5 28.5t-13 17.5t-21.5 6
q-21 0 -35.5 -15.5t-23.5 -38t-13.5 -46t-4.5 -38.5q0 -17 4.5 -30t13.5 -20t24 -7zM222 -226q-48 0 -76.5 17t-28.5 57q0 62 34 88t92 26q51 0 79 -17.5t28 -55.5q0 -64 -34 -89.5t-94 -25.5zM575 713q-14 -79 -70.5 -126t-142.5 -47q-76 0 -117 35t-41 95q0 10 1.5 21
t3.5 22h139q-1 -6 -2 -11.5t-1 -10.5q0 -15 10 -24t28 -9q21 0 34.5 14.5t18.5 40.5h139z" />
    <glyph glyph-name="uni1EB8" unicode="&#x1eb8;" horiz-adv-x="626" 
d="M-8 0l153 660h554l-40 -171h-321l-19 -82h254l-36 -158h-254l-18 -78h327l-40 -171h-560zM232 -226q-48 0 -76.5 17t-28.5 57q0 62 34 88t92 26q51 0 79 -17.5t28 -55.5q0 -64 -34 -89.5t-94 -25.5z" />
    <glyph glyph-name="uni1EB9" unicode="&#x1eb9;" horiz-adv-x="588" 
d="M286 -9q-77 0 -137.5 27t-94.5 78.5t-34 122.5q0 88 36.5 153.5t103 101.5t155.5 36q81 0 138 -28.5t86.5 -78.5t29.5 -116q0 -19 -2 -40t-8 -41h-382l-1 85h224l-55 -21q5 14 5.5 23t0.5 17q0 19 -5.5 29.5t-14.5 15t-20 4.5q-26 0 -42.5 -15t-25 -39t-11.5 -51t-3 -50
t8 -37t22.5 -20t32.5 -6q26 0 40.5 13.5t20.5 31.5l192 -62q-15 -42 -53 -72t-91 -45.5t-115 -15.5zM232 -226q-48 0 -76.5 17t-28.5 57q0 62 34 88t92 26q51 0 79 -17.5t28 -55.5q0 -64 -34 -89.5t-94 -25.5z" />
    <glyph glyph-name="uni1EBA" unicode="&#x1eba;" horiz-adv-x="626" 
d="M-8 0l153 660h554l-40 -171h-321l-19 -82h254l-36 -158h-254l-18 -78h327l-40 -171h-560zM410 690l-24 62q40 9 51 24.5t11 27.5q0 10 -7 16.5t-20 6.5q-12 0 -20.5 -5.5t-15.5 -14.5l-80 61q15 30 50.5 50.5t87.5 20.5q50 0 87 -27.5t37 -79.5q0 -47 -22.5 -77t-58 -45
t-76.5 -20z" />
    <glyph glyph-name="uni1EBB" unicode="&#x1ebb;" horiz-adv-x="588" 
d="M286 -9q-77 0 -137.5 27t-94.5 78.5t-34 122.5q0 88 36.5 153.5t103 101.5t155.5 36q81 0 138 -28.5t86.5 -78.5t29.5 -116q0 -19 -2 -40t-8 -41h-382l-1 85h224l-55 -21q5 14 5.5 23t0.5 17q0 19 -5.5 29.5t-14.5 15t-20 4.5q-26 0 -42.5 -15t-25 -39t-11.5 -51t-3 -50
t8 -37t22.5 -20t32.5 -6q26 0 40.5 13.5t20.5 31.5l192 -62q-15 -42 -53 -72t-91 -45.5t-115 -15.5zM335 540l-24 62q40 9 51 24.5t11 27.5q0 10 -7 16.5t-20 6.5q-12 0 -20.5 -5.5t-15.5 -14.5l-80 61q15 30 50.5 50.5t87.5 20.5q50 0 87 -27.5t37 -79.5q0 -47 -22.5 -77
t-58 -45t-76.5 -20z" />
    <glyph glyph-name="uni1EBC" unicode="&#x1ebc;" horiz-adv-x="626" 
d="M-8 0l153 660h554l-40 -171h-321l-19 -82h254l-36 -158h-254l-18 -78h327l-40 -171h-560zM660 879q-13 -90 -56.5 -133t-97.5 -43q-27 0 -45.5 8t-32.5 18t-26.5 18t-26.5 8t-23 -13.5t-14 -36.5h-116q14 90 54 133t98 43q21 0 39 -8t33.5 -18t30 -18t28.5 -8t23.5 12.5
t15.5 37.5h116z" />
    <glyph glyph-name="uni1EBD" unicode="&#x1ebd;" horiz-adv-x="588" 
d="M286 -9q-77 0 -137.5 27t-94.5 78.5t-34 122.5q0 88 36.5 153.5t103 101.5t155.5 36q81 0 138 -28.5t86.5 -78.5t29.5 -116q0 -19 -2 -40t-8 -41h-382l-1 85h224l-55 -21q5 14 5.5 23t0.5 17q0 19 -5.5 29.5t-14.5 15t-20 4.5q-26 0 -42.5 -15t-25 -39t-11.5 -51t-3 -50
t8 -37t22.5 -20t32.5 -6q26 0 40.5 13.5t20.5 31.5l192 -62q-15 -42 -53 -72t-91 -45.5t-115 -15.5zM579 719q-13 -90 -56.5 -133t-97.5 -43q-27 0 -45.5 8t-32.5 18t-26.5 18t-26.5 8t-23 -13.5t-14 -36.5h-116q14 90 54 133t98 43q21 0 39 -8t33.5 -18t30 -18t28.5 -8
t23.5 12.5t15.5 37.5h116z" />
    <glyph glyph-name="uni1EBE" unicode="&#x1ebe;" horiz-adv-x="626" 
d="M227 707l132 160h193l58 -160h-135l-36 64l-66 -64h-146zM688 952h180l-117 -150h-150zM-8 0l153 660h554l-40 -171h-321l-19 -82h254l-36 -158h-254l-18 -78h327l-40 -171h-560z" />
    <glyph glyph-name="uni1EBF" unicode="&#x1ebf;" horiz-adv-x="588" 
d="M614 792h180l-117 -150h-150zM153 547l132 160h193l58 -160h-135l-36 64l-66 -64h-146zM286 -9q-77 0 -137.5 27t-94.5 78.5t-34 122.5q0 88 36.5 153.5t103 101.5t155.5 36q81 0 138 -28.5t86.5 -78.5t29.5 -116q0 -19 -2 -40t-8 -41h-382l-1 85h224l-55 -21
q5 14 5.5 23t0.5 17q0 19 -5.5 29.5t-14.5 15t-20 4.5q-26 0 -42.5 -15t-25 -39t-11.5 -51t-3 -50t8 -37t22.5 -20t32.5 -6q26 0 40.5 13.5t20.5 31.5l192 -62q-15 -42 -53 -72t-91 -45.5t-115 -15.5z" />
    <glyph glyph-name="uni1EC0" unicode="&#x1ec0;" horiz-adv-x="626" 
d="M227 707l132 160h193l58 -160h-135l-36 64l-66 -64h-146zM729 952l24 -150h-133l-62 150h171zM-8 0l153 660h554l-40 -171h-321l-19 -82h254l-36 -158h-254l-18 -78h327l-40 -171h-560z" />
    <glyph glyph-name="uni1EC1" unicode="&#x1ec1;" horiz-adv-x="588" 
d="M655 792l24 -150h-133l-62 150h171zM153 547l132 160h193l58 -160h-135l-36 64l-66 -64h-146zM286 -9q-77 0 -137.5 27t-94.5 78.5t-34 122.5q0 88 36.5 153.5t103 101.5t155.5 36q81 0 138 -28.5t86.5 -78.5t29.5 -116q0 -19 -2 -40t-8 -41h-382l-1 85h224l-55 -21
q5 14 5.5 23t0.5 17q0 19 -5.5 29.5t-14.5 15t-20 4.5q-26 0 -42.5 -15t-25 -39t-11.5 -51t-3 -50t8 -37t22.5 -20t32.5 -6q26 0 40.5 13.5t20.5 31.5l192 -62q-15 -42 -53 -72t-91 -45.5t-115 -15.5z" />
    <glyph glyph-name="uni1EC2" unicode="&#x1ec2;" horiz-adv-x="626" 
d="M227 707l132 160h193l58 -160h-135l-36 64l-66 -64h-146zM617 788l-24 62q40 9 51 24.5t11 27.5q0 10 -7 16.5t-20 6.5q-12 0 -20.5 -5.5t-15.5 -14.5l-80 61q15 30 50.5 50.5t87.5 20.5q50 0 87 -27.5t37 -79.5q0 -47 -22.5 -77t-58 -45t-76.5 -20zM-8 0l153 660h554
l-40 -171h-321l-19 -82h254l-36 -158h-254l-18 -78h327l-40 -171h-560z" />
    <glyph glyph-name="uni1EC3" unicode="&#x1ec3;" horiz-adv-x="588" 
d="M543 628l-24 62q40 9 51 24.5t11 27.5q0 10 -7 16.5t-20 6.5q-12 0 -20.5 -5.5t-15.5 -14.5l-80 61q15 30 50.5 50.5t87.5 20.5q50 0 87 -27.5t37 -79.5q0 -47 -22.5 -77t-58 -45t-76.5 -20zM153 547l132 160h193l58 -160h-135l-36 64l-66 -64h-146zM286 -9
q-77 0 -137.5 27t-94.5 78.5t-34 122.5q0 88 36.5 153.5t103 101.5t155.5 36q81 0 138 -28.5t86.5 -78.5t29.5 -116q0 -19 -2 -40t-8 -41h-382l-1 85h224l-55 -21q5 14 5.5 23t0.5 17q0 19 -5.5 29.5t-14.5 15t-20 4.5q-26 0 -42.5 -15t-25 -39t-11.5 -51t-3 -50t8 -37
t22.5 -20t32.5 -6q26 0 40.5 13.5t20.5 31.5l192 -62q-15 -42 -53 -72t-91 -45.5t-115 -15.5z" />
    <glyph glyph-name="uni1EC4" unicode="&#x1ec4;" horiz-adv-x="626" 
d="M227 707l132 160h193l58 -160h-135l-36 64l-66 -64h-146zM668 1047q-11 -81 -50.5 -119.5t-87.5 -38.5q-24 0 -41 7t-29.5 16.5t-23.5 16.5t-24 7t-21 -12.5t-13 -32.5h-104q12 81 48.5 119.5t88.5 38.5q19 0 35 -7t30 -16.5t27 -16.5t26 -7t21.5 11.5t13.5 33.5h104z
M-8 0l153 660h554l-40 -171h-321l-19 -82h254l-36 -158h-254l-18 -78h327l-40 -171h-560z" />
    <glyph glyph-name="uni1EC5" unicode="&#x1ec5;" horiz-adv-x="588" 
d="M153 547l132 160h193l58 -160h-135l-36 64l-66 -64h-146zM594 887q-11 -81 -50.5 -119.5t-87.5 -38.5q-24 0 -41 7t-29.5 16.5t-23.5 16.5t-24 7t-21 -12.5t-13 -32.5h-104q12 81 48.5 119.5t88.5 38.5q19 0 35 -7t30 -16.5t27 -16.5t26 -7t21.5 11.5t13.5 33.5h104z
M286 -9q-77 0 -137.5 27t-94.5 78.5t-34 122.5q0 88 36.5 153.5t103 101.5t155.5 36q81 0 138 -28.5t86.5 -78.5t29.5 -116q0 -19 -2 -40t-8 -41h-382l-1 85h224l-55 -21q5 14 5.5 23t0.5 17q0 19 -5.5 29.5t-14.5 15t-20 4.5q-26 0 -42.5 -15t-25 -39t-11.5 -51t-3 -50
t8 -37t22.5 -20t32.5 -6q26 0 40.5 13.5t20.5 31.5l192 -62q-15 -42 -53 -72t-91 -45.5t-115 -15.5z" />
    <glyph glyph-name="uni1EC6" unicode="&#x1ec6;" horiz-adv-x="626" 
d="M-8 0l153 660h554l-40 -171h-321l-19 -82h254l-36 -158h-254l-18 -78h327l-40 -171h-560zM232 -226q-48 0 -76.5 17t-28.5 57q0 62 34 88t92 26q51 0 79 -17.5t28 -55.5q0 -64 -34 -89.5t-94 -25.5zM578 876l55 -167h-142l-37 82l-73 -82h-154l133 167h218z" />
    <glyph glyph-name="uni1EC7" unicode="&#x1ec7;" horiz-adv-x="588" 
d="M286 -9q-77 0 -137.5 27t-94.5 78.5t-34 122.5q0 88 36.5 153.5t103 101.5t155.5 36q81 0 138 -28.5t86.5 -78.5t29.5 -116q0 -19 -2 -40t-8 -41h-382l-1 85h224l-55 -21q5 14 5.5 23t0.5 17q0 19 -5.5 29.5t-14.5 15t-20 4.5q-26 0 -42.5 -15t-25 -39t-11.5 -51t-3 -50
t8 -37t22.5 -20t32.5 -6q26 0 40.5 13.5t20.5 31.5l192 -62q-15 -42 -53 -72t-91 -45.5t-115 -15.5zM232 -226q-48 0 -76.5 17t-28.5 57q0 62 34 88t92 26q51 0 79 -17.5t28 -55.5q0 -64 -34 -89.5t-94 -25.5zM130 547l147 177h214l65 -177h-150l-41 71l-73 -71h-162z" />
    <glyph glyph-name="uni1EC8" unicode="&#x1ec8;" horiz-adv-x="333" 
d="M378 660l-153 -660h-233l153 660h233zM252 690l-24 62q40 9 51 24.5t11 27.5q0 10 -7 16.5t-20 6.5q-12 0 -20.5 -5.5t-15.5 -14.5l-80 61q15 30 50.5 50.5t87.5 20.5q50 0 87 -27.5t37 -79.5q0 -47 -22.5 -77t-58 -45t-76.5 -20z" />
    <glyph glyph-name="uni1EC9" unicode="&#x1ec9;" horiz-adv-x="308" 
d="M327 500l-116 -500h-230l116 500h230zM209 540l-24 62q40 9 51 24.5t11 27.5q0 10 -7 16.5t-20 6.5q-12 0 -20.5 -5.5t-15.5 -14.5l-80 61q15 30 50.5 50.5t87.5 20.5q50 0 87 -27.5t37 -79.5q0 -47 -22.5 -77t-58 -45t-76.5 -20z" />
    <glyph glyph-name="uni1ECA" unicode="&#x1eca;" horiz-adv-x="333" 
d="M378 660l-153 -660h-233l153 660h233zM70 -226q-48 0 -76.5 17t-28.5 57q0 62 34 88t92 26q51 0 79 -17.5t28 -55.5q0 -64 -34 -89.5t-94 -25.5z" />
    <glyph glyph-name="uni1ECB" unicode="&#x1ecb;" horiz-adv-x="308" 
d="M229 532q-57 0 -87.5 21t-22.5 72q8 56 39.5 77.5t92.5 21.5q59 0 89.5 -21.5t22.5 -68.5q-8 -61 -40.5 -81.5t-93.5 -20.5zM327 500l-116 -500h-230l116 500h230zM57 -226q-48 0 -76.5 17t-28.5 57q0 62 34 88t92 26q51 0 79 -17.5t28 -55.5q0 -64 -34 -89.5t-94 -25.5z
" />
    <glyph glyph-name="uni1ECC" unicode="&#x1ecc;" horiz-adv-x="725" 
d="M351 -10q-88 0 -158 34.5t-110 100t-40 156.5q0 86 25 157.5t72.5 123.5t116 80t154.5 28q89 0 158.5 -34.5t109.5 -99.5t40 -157q0 -86 -25 -157.5t-72.5 -123.5t-116 -80t-154.5 -28zM355 165q34 0 58.5 22.5t41 58.5t24.5 77.5t8 78.5q0 31 -8.5 51.5t-26 31
t-45.5 10.5q-34 0 -58.5 -22.5t-41 -58.5t-24.5 -77.5t-8 -78.5q0 -30 8.5 -51t26.5 -31.5t45 -10.5zM287 -226q-48 0 -76.5 17t-28.5 57q0 62 34 88t92 26q51 0 79 -17.5t28 -55.5q0 -64 -34 -89.5t-94 -25.5z" />
    <glyph glyph-name="uni1ECD" unicode="&#x1ecd;" horiz-adv-x="603" 
d="M280 -10q-79 0 -137.5 29t-91 80.5t-32.5 118.5q0 78 34 144.5t101.5 107t168.5 40.5q79 0 137.5 -29t91 -80.5t32.5 -118.5q0 -77 -34 -144t-101.5 -107.5t-168.5 -40.5zM282 144q19 0 33.5 17t24.5 43.5t15 54t5 48.5q0 19 -5.5 29.5t-14.5 15t-20 4.5q-19 0 -33.5 -17
t-24.5 -43.5t-15 -54t-5 -48.5q0 -18 5.5 -29t14.5 -15.5t20 -4.5zM204 -226q-48 0 -76.5 17t-28.5 57q0 62 34 88t92 26q51 0 79 -17.5t28 -55.5q0 -64 -34 -89.5t-94 -25.5z" />
    <glyph glyph-name="uni1ECE" unicode="&#x1ece;" horiz-adv-x="725" 
d="M351 -10q-88 0 -158 34.5t-110 100t-40 156.5q0 86 25 157.5t72.5 123.5t116 80t154.5 28q89 0 158.5 -34.5t109.5 -99.5t40 -157q0 -86 -25 -157.5t-72.5 -123.5t-116 -80t-154.5 -28zM355 165q34 0 58.5 22.5t41 58.5t24.5 77.5t8 78.5q0 31 -8.5 51.5t-26 31
t-45.5 10.5q-34 0 -58.5 -22.5t-41 -58.5t-24.5 -77.5t-8 -78.5q0 -30 8.5 -51t26.5 -31.5t45 -10.5zM428 690l-24 62q40 9 51 24.5t11 27.5q0 10 -7 16.5t-20 6.5q-12 0 -20.5 -5.5t-15.5 -14.5l-80 61q15 30 50.5 50.5t87.5 20.5q50 0 87 -27.5t37 -79.5q0 -47 -22.5 -77
t-58 -45t-76.5 -20z" />
    </font>
</defs>
</svg>
