<?xml version="1.0" standalone="no"?>
<!DOCTYPE svg PUBLIC "-//W3C//DTD SVG 1.1//EN" "http://www.w3.org/Graphics/SVG/1.1/DTD/svg11.dtd" >
<svg xmlns="http://www.w3.org/2000/svg" xmlns:xlink="http://www.w3.org/1999/xlink" version="1.1">
<metadata>
Created by FontForge 20170731 at Fri Mar 20 11:53:20 2009
 By Aleksey,,,
(c) 2008 Microsoft Corporation. All Rights Reserved. Portions (c) 2008 DynaComware Corp. All Rights Reserved. Portions (c) 2008 Ascender Corp. All Rights Reserved.
</metadata>
<defs>
<font id="MicrosoftPhagsPa" horiz-adv-x="1900" >
  <font-face 
    font-family="Microsoft PhagsPa"
    font-weight="400"
    font-stretch="normal"
    units-per-em="2048"
    panose-1="2 11 5 2 4 2 4 2 2 3"
    ascent="1638"
    descent="-410"
    x-height="1024"
    cap-height="1434"
    bbox="-701 -482 3197 2138"
    underline-thickness="200"
    underline-position="-400"
    unicode-range="U+0009-FE00"
  />
<missing-glyph horiz-adv-x="1600" 
d="M300 1600h1000q200 0 200 -200v-1400q0 -200 -200 -200h-1000q-200 0 -200 200v1400q0 200 200 200zM1300 0v1400h-1000v-1400h1000z" />
    <glyph glyph-name="uniA856FE00" unicode="&#xfe00;" horiz-adv-x="1600" 
d="M100 -200v1800h1400v-170h-1230v-1460h445v815h785v-985h-170v815h-445v-815h-785z" />
    <glyph glyph-name="uniA85CFE00" unicode="&#xfe00;" horiz-adv-x="2000" 
d="M1259 -31q94 0 170.5 15.5t132.5 34.5q65 22 117 49q18 -19 42 -36.5t51.5 -31t56.5 -22t56 -8.5h15v-170h-15q-63 0 -117.5 25t-93.5 63q-21 -10 -68 -25t-108.5 -29t-131 -24t-134.5 -10q-125 0 -221 24.5t-167.5 66.5t-119.5 97.5t-77.5 116.5t-42 124.5t-12.5 121.5
q0 92 20 176.5t71 173t138 185.5t221 214l-209 271l-563 -286v-1285h-170v1800h170v-325l612 309l394 -509l-142 -125q-82 -72 -142 -133t-101 -113t-66 -97.5t-39 -88t-18.5 -83.5t-4.5 -84q0 -61 22.5 -128t78.5 -123.5t152 -93.5t243 -37z" />
    <glyph glyph-name="uniA85EFE00" unicode="&#xfe00;" horiz-adv-x="1600" 
d="M1178 668q33 39 60.5 84t47.5 96t31 108.5t11 123.5q0 75 -19.5 139t-58.5 111t-97.5 73.5t-137.5 26.5q-80 0 -139.5 -24.5t-98.5 -69t-58 -105.5t-19 -133q0 -78 23 -154.5t68.5 -157t114.5 -167t161 -185.5l433 -463l-1 -1h1v-170h-1400v1800h170v-1630h1007l-378 407
q-109 118 -181 217t-114.5 186t-59.5 165.5t-17 154.5q0 114 35 206t98.5 157.5t153.5 101t199 35.5q113 0 203 -39.5t153 -109t97 -164.5t34 -207q0 -79 -14 -150t-39 -134t-59.5 -119t-75.5 -105z" />
    <glyph glyph-name="uniA85FFE00" unicode="&#xfe00;" horiz-adv-x="1788" 
d="M904 1078q59 0 97 -4t61 -10l1 -163q-10 3 -22 5.5t-28.5 4.5t-39.5 3t-55 1q-56 0 -100.5 -18.5t-76 -58t-48.5 -101.5t-17 -149q0 -93 25.5 -172.5t75 -138t124 -92t171.5 -33.5q93 0 174 25.5t141 86t94.5 160t34.5 246.5q0 159 -31 286.5t-94 217.5t-159.5 138.5
t-228.5 48.5h-177v170h182q162 0 288.5 -63t213.5 -177t132.5 -271.5t45.5 -346.5q0 -174 -43 -304t-122.5 -216t-193.5 -128.5t-257 -42.5t-250 49.5t-178.5 135t-106.5 201t-34 247.5h-233v-815h-170v1800h170v-815h255q14 72 49 127t85 92t112.5 55.5t132.5 18.5z" />
    <glyph glyph-name="uniA860FE00" unicode="&#xfe00;" horiz-adv-x="1498" 
d="M1167 1146l-202 225v-1401h433v-170h-1298v1799h170v-1629h525v1630h178l407 -454h-213z" />
    <glyph glyph-name="uniA868FE00" unicode="&#xfe00;" horiz-adv-x="1300" 
d="M102 -200q51 106 85 209.5t54 206.5t28 205t8 205q0 252 -45.5 492.5t-131.5 481.5q143 -30 272.5 -84.5t241 -133.5t202 -183t154.5 -234t98.5 -285.5t34.5 -336.5v-543h-171v543q0 154 -28 284t-75 236.5t-108 190t-128.5 145t-136 101t-129.5 57.5q17 -40 38 -114.5
t39.5 -172.5t31.5 -214.5t13 -239.5q0 -103 -8 -203.5t-26.5 -201t-48.5 -203t-74 -208.5h-190z" />
    <glyph glyph-name=".notdef" horiz-adv-x="1600" 
d="M300 1600h1000q200 0 200 -200v-1400q0 -200 -200 -200h-1000q-200 0 -200 200v1400q0 200 200 200zM1300 0v1400h-1000v-1400h1000z" />
    <glyph glyph-name=".null" horiz-adv-x="569" 
 />
    <glyph glyph-name="nonmarkingreturn" horiz-adv-x="0" 
 />
    <glyph glyph-name="space" unicode="&#x9;" horiz-adv-x="561" 
 />
    <glyph glyph-name="space" unicode="&#xa0;" horiz-adv-x="561" 
 />
    <glyph glyph-name="space" unicode=" " horiz-adv-x="561" 
 />
    <glyph glyph-name="exclam" unicode="!" horiz-adv-x="582" 
d="M375 1434l-19 -1030h-135l-18 1030h172zM291 -18q-46 0 -78.5 32t-32.5 78t32.5 78.5t78.5 32.5q45 0 78 -32.5t33 -78.5t-33 -78t-78 -32z" />
    <glyph glyph-name="quotedbl" unicode="&#x22;" horiz-adv-x="803" 
d="M323 1434l-30 -447h-115l-30 447h175zM655 1434l-30 -447h-115l-30 447h175z" />
    <glyph glyph-name="numbersign" unicode="#" horiz-adv-x="1210" 
d="M1166 1032l-23 -106h-261l-63 -300h281l-27 -106h-275l-88 -397h-126l86 397h-250l-84 -397h-125l84 397h-262l20 106h265l61 300h-277l21 106h277l84 402h126l-84 -402h252l86 402h123l-84 -402h263zM758 926h-252l-66 -300h254z" />
    <glyph glyph-name="dollar" unicode="$" horiz-adv-x="1104" 
d="M616 8v-217h-104v209q-213 0 -346 86v174q58 -51 158.5 -85.5t187.5 -34.5v512q-220 106 -285 195.5t-65 211.5q0 145 99 250.5t251 126.5v180h104v-176q196 -6 271 -56v-170q-102 80 -271 86v-528q208 -99 284.5 -191.5t76.5 -210.5q0 -142 -95.5 -238.5t-265.5 -123.5z
M512 828v466q-84 -17 -133 -74.5t-49 -139.5q0 -86 40 -141t142 -111zM616 600v-452q193 42 193 208q0 138 -193 244z" />
    <glyph glyph-name="percent" unicode="%" horiz-adv-x="1676" 
d="M404 715q-148 0 -236 97.5t-88 260.5q0 178 93 280.5t251 102.5q153 0 237.5 -95t84.5 -267t-94.5 -275.5t-247.5 -103.5zM418 1346q-95 0 -150 -70.5t-55 -193.5q0 -121 54 -188.5t147 -67.5q94 0 147 70t53 194q0 121 -52.5 188.5t-143.5 67.5zM1364 1434l-920 -1444
h-143l919 1444h144zM1258 -22q-148 0 -236 98t-88 260q0 178 94 281.5t250 103.5q152 0 237 -96t85 -269q0 -171 -94.5 -274.5t-247.5 -103.5zM1272 608q-96 0 -150.5 -70t-54.5 -194q0 -119 54 -186.5t147 -67.5q94 0 147 70.5t53 193.5q0 122 -52.5 188t-143.5 66z" />
    <glyph glyph-name="ampersand" unicode="&#x26;" horiz-adv-x="1639" 
d="M1445 -23q-57 0 -100.5 15.5t-80.5 44t-71.5 69.5t-72.5 93q-40 -43 -92.5 -83t-116.5 -71t-140 -49.5t-165 -18.5q-108 0 -198 27t-154 79.5t-99.5 129.5t-35.5 177q0 153 87 261.5t246 177.5q-30 22 -60 51.5t-53.5 67t-38 83t-14.5 99.5q0 79 28.5 140t78.5 103
t118 63.5t147 21.5q78 0 142.5 -21.5t111 -61.5t72.5 -96t26 -125q0 -120 -68.5 -199.5t-205.5 -135.5q69 -27 125 -66t103.5 -87t88.5 -103t81 -114q81 113 122 249t41 285q0 38 -4.5 71.5t-12.5 66.5h159q8 -33 9.5 -62.5t3.5 -70.5q0 -91 -19 -183t-51 -178.5
t-74.5 -164.5t-89.5 -143q35 -48 64 -83.5t58.5 -59.5t61 -35.5t71.5 -11.5q30 0 61 8t64 20v-152q-36 -14 -75.5 -21t-77.5 -7zM606 119q76 0 140 16.5t118 44t98 64t80 76.5q-61 95 -112.5 162.5t-104 116.5t-112 84t-137.5 65q-63 -25 -116 -55.5t-91.5 -72t-60.5 -96.5
t-22 -129q0 -68 25 -120t68.5 -86.5t101.5 -52t125 -17.5zM856 1140q0 50 -18.5 85t-47 58t-63.5 33.5t-69 10.5q-98 0 -156.5 -53t-59.5 -144q0 -41 12.5 -77t35 -67t52.5 -55t64 -41q126 44 188 102.5t62 147.5z" />
    <glyph glyph-name="quotesingle" unicode="'" horiz-adv-x="471" 
d="M323 1434l-30 -447h-115l-30 447h175z" />
    <glyph glyph-name="parenleft" unicode="(" horiz-adv-x="618" 
d="M596 -326h-146q-310 354 -310 873q0 521 310 887h148q-314 -380 -314 -885q0 -501 312 -875z" />
    <glyph glyph-name="parenright" unicode=")" horiz-adv-x="618" 
d="M170 -326h-146q312 374 312 875q0 505 -314 885h148q312 -366 312 -887q0 -519 -312 -873z" />
    <glyph glyph-name="asterisk" unicode="*" horiz-adv-x="854" 
d="M780 1104l-274 -56l190 -243l-110 -76l-156 265l-158 -265l-110 76l190 243l-276 56l45 125l262 -99l-23 304h138l-23 -304l263 99z" />
    <glyph glyph-name="plus" unicode="+" horiz-adv-x="1401" 
d="M1172 530h-404v-403h-133v403h-403v134h403v403h133v-403h404v-134z" />
    <glyph glyph-name="comma" unicode="," horiz-adv-x="444" 
d="M316 228l-160 -492h-117l117 492h160z" />
    <glyph glyph-name="hyphen" unicode="-" horiz-adv-x="819" 
d="M690 506h-546v129h546v-129z" />
    <glyph glyph-name="period" unicode="." horiz-adv-x="444" 
d="M223 -22q-46 0 -78.5 33t-32.5 79t32.5 79.5t78.5 33.5q47 0 80 -33.5t33 -79.5t-33 -79t-80 -33z" />
    <glyph glyph-name="slash" unicode="/" horiz-adv-x="798" 
d="M813 1434l-688 -1672h-153l686 1672h155z" />
    <glyph glyph-name="zero" unicode="0" horiz-adv-x="1104" 
d="M538 -24q-213 0 -332.5 183t-119.5 529q0 380 124.5 575t359.5 195q450 0 450 -735q0 -364 -127 -555.5t-355 -191.5zM561 1319q-307 0 -307 -623q0 -582 301 -582q297 0 297 592q0 613 -291 613z" />
    <glyph glyph-name="one" unicode="1" horiz-adv-x="1104" 
d="M987 0h-811v144h324v1114l-332 -99v156l496 151v-1322h323v-144z" />
    <glyph glyph-name="two" unicode="2" horiz-adv-x="1104" 
d="M960 0h-864v146l418 419q160 160 228.5 266.5t68.5 227.5q0 124 -71 192t-202 68q-192 0 -368 -164v172q168 131 391 131q192 0 302 -104t110 -279q0 -138 -76 -269.5t-273 -326.5l-331 -327v-4h667v-148z" />
    <glyph glyph-name="three" unicode="3" horiz-adv-x="1104" 
d="M131 53v177q147 -116 332 -116q150 0 239.5 75t89.5 202q0 281 -399 281h-119v139h113q355 0 355 264q0 244 -271 244q-151 0 -285 -103v160q138 82 326 82q181 0 289.5 -96t108.5 -246q0 -283 -288 -364v-4q155 -15 246.5 -108.5t91.5 -233.5q0 -193 -138.5 -311.5
t-365.5 -118.5q-204 0 -325 77z" />
    <glyph glyph-name="four" unicode="4" horiz-adv-x="1104" 
d="M1034 381h-184v-381h-162v381h-674v107l638 946h198v-920h184v-133zM688 514v620q0 66 4 148h-4q-14 -36 -55 -110l-441 -658h496z" />
    <glyph glyph-name="five" unicode="5" horiz-adv-x="1104" 
d="M164 35v174q147 -95 299 -95t245 86t93 228q0 141 -95 220t-272 79q-60 0 -225 -12v719h694v-148h-539v-420q66 4 122 4q230 0 356 -115.5t126 -316.5q0 -208 -135.5 -335t-371.5 -127q-199 0 -297 59z" />
    <glyph glyph-name="six" unicode="6" horiz-adv-x="1104" 
d="M934 1417v-155q-111 57 -234 57q-191 0 -305.5 -170t-114.5 -455h4q100 203 328 203q188 0 299 -120.5t111 -322.5q0 -211 -127 -344.5t-323 -133.5q-216 0 -339 172t-123 483q0 377 161 602t425 225q150 0 238 -41zM576 758q-127 0 -206 -86t-79 -203q0 -147 78.5 -251
t208.5 -104q124 0 200 90.5t76 229.5q0 152 -73 238t-205 86z" />
    <glyph glyph-name="seven" unicode="7" horiz-adv-x="1104" 
d="M1010 1382l-568 -1382h-170l537 1286h-723v148h924v-52z" />
    <glyph glyph-name="eight" unicode="8" horiz-adv-x="1104" 
d="M410 752v4q-258 120 -258 348q0 155 118 254.5t304 99.5q168 0 276 -93t108 -239q0 -238 -266 -370v-4q314 -112 314 -388q0 -178 -128 -283t-356 -105q-184 0 -303 104t-119 270q0 276 310 402zM790 1106q0 99 -62 156t-169 57q-100 0 -169.5 -59.5t-69.5 -151.5
q0 -187 233 -282q237 98 237 280zM542 674q-274 -109 -274 -316q0 -107 79.5 -175.5t209.5 -68.5q124 0 202.5 67.5t78.5 170.5q0 216 -296 322z" />
    <glyph glyph-name="nine" unicode="9" horiz-adv-x="1104" 
d="M172 24v158q120 -68 254 -68q195 0 303.5 157t108.5 446q-2 -1 -4 0q-92 -185 -320 -185q-184 0 -302 125t-118 322q0 210 129.5 344.5t331.5 134.5q212 0 330.5 -167.5t118.5 -487.5q0 -397 -154 -612t-428 -215q-144 0 -250 48zM540 1319q-119 0 -198.5 -89.5
t-79.5 -227.5q0 -151 78 -237.5t211 -86.5q116 0 196.5 79t80.5 193q0 163 -80 266t-208 103z" />
    <glyph glyph-name="colon" unicode=":" horiz-adv-x="444" 
d="M223 824q-46 0 -78.5 33t-32.5 79t32.5 78t78.5 32q47 0 80 -32t33 -78t-33 -79t-80 -33zM223 -22q-46 0 -78.5 33t-32.5 79t32.5 79.5t78.5 33.5q47 0 80 -33.5t33 -79.5t-33 -79t-80 -33z" />
    <glyph glyph-name="semicolon" unicode=";" horiz-adv-x="444" 
d="M226 824q-47 0 -79.5 33t-32.5 79t32.5 78t79.5 32q46 0 79 -32t33 -78t-33 -79t-79 -33zM316 228l-160 -492h-117l117 492h160z" />
    <glyph glyph-name="less" unicode="&#x3c;" horiz-adv-x="1401" 
d="M1132 127l-860 432v59l860 482v-150l-642 -356v-4l642 -314v-149z" />
    <glyph glyph-name="equal" unicode="=" horiz-adv-x="1401" 
d="M1172 744h-940v132h940v-132zM1172 318h-940v132h940v-132z" />
    <glyph glyph-name="greater" unicode="&#x3e;" horiz-adv-x="1401" 
d="M1132 559l-860 -432v149l644 312v6l-644 356v150l860 -482v-59z" />
    <glyph glyph-name="question" unicode="?" horiz-adv-x="918" 
d="M335 398q-9 26 -16 67.5t-7 82.5q0 64 25.5 115.5t63.5 96.5t83 86.5t83 84t63.5 89t25.5 102.5q0 48 -18.5 85t-50.5 62t-74 37.5t-89 12.5q-169 0 -293 -133v176q153 96 317 96q76 0 143 -20t117.5 -59.5t79.5 -98.5t29 -137q0 -74 -26 -132t-65.5 -106.5t-85.5 -90.5
t-85.5 -83.5t-65.5 -86.5t-26 -99q0 -46 11 -83.5t22 -63.5h-161zM425 -18q-44 0 -78 32q-33 32 -33 78q0 47 33 78q33 33 78 33t78 -33q33 -31 33 -78q0 -46 -33 -78q-34 -32 -78 -32z" />
    <glyph glyph-name="at" unicode="@" horiz-adv-x="1956" 
d="M1164 420h-5q-73 -238 -287 -238q-137 0 -220.5 101t-83.5 272q0 226 115.5 375.5t303.5 149.5q72 0 128.5 -37t72.5 -93h4q2 28 10 115h125q-47 -551 -47 -561q0 -207 119 -207q108 0 179.5 117t71.5 303q0 275 -174 449t-482 174q-297 0 -491 -208t-194 -520
q0 -307 184.5 -495.5t497.5 -188.5q247 0 422 82v-124q-173 -74 -432 -74q-364 0 -586.5 219.5t-222.5 574.5q0 366 233.5 607t596.5 241q340 0 563 -202t223 -527q0 -238 -117.5 -390.5t-286.5 -152.5q-219 0 -220 238zM985 964q-124 0 -200.5 -118t-76.5 -293
q0 -118 51.5 -186t137.5 -68q124 0 196.5 123.5t72.5 327.5q0 214 -181 214z" />
    <glyph glyph-name="A" unicode="A" horiz-adv-x="1321" 
d="M1298 0h-186l-152 402h-608l-143 -402h-187l550 1434h174zM905 553l-225 611q-11 30 -22 96h-4q-10 -61 -23 -96l-223 -611h497z" />
    <glyph glyph-name="B" unicode="B" horiz-adv-x="1174" 
d="M188 0v1434h408q186 0 295 -91t109 -237q0 -122 -66 -212t-182 -128v-4q145 -17 232 -109.5t87 -240.5q0 -184 -132 -298t-333 -114h-418zM356 1282v-463h172q138 0 217 66.5t79 187.5q0 209 -275 209h-193zM356 668v-516h228q148 0 229.5 70t81.5 192q0 254 -346 254
h-193z" />
    <glyph glyph-name="C" unicode="C" horiz-adv-x="1268" 
d="M1164 60q-159 -84 -396 -84q-306 0 -490 197t-184 517q0 344 207 556t525 212q204 0 338 -59v-179q-154 86 -340 86q-247 0 -400.5 -165t-153.5 -441q0 -262 143.5 -417.5t376.5 -155.5q216 0 374 96v-163z" />
    <glyph glyph-name="D" unicode="D" horiz-adv-x="1436" 
d="M188 0v1434h396q758 0 758 -699q0 -332 -210.5 -533.5t-563.5 -201.5h-380zM356 1282v-1130h214q282 0 439 151t157 428q0 551 -586 551h-224z" />
    <glyph glyph-name="E" unicode="E" horiz-adv-x="1036" 
d="M948 0h-760v1434h728v-152h-560v-477h518v-151h-518v-502h592v-152z" />
    <glyph glyph-name="F" unicode="F" horiz-adv-x="1000" 
d="M916 1282h-560v-496h518v-151h-518v-635h-168v1434h728v-152z" />
    <glyph glyph-name="G" unicode="G" horiz-adv-x="1405" 
d="M1260 98q-216 -122 -480 -122q-307 0 -496.5 198t-189.5 524q0 333 210.5 546.5t533.5 213.5q234 0 393 -76v-186q-174 110 -412 110q-241 0 -395 -166t-154 -430q0 -272 143 -427.5t388 -155.5q168 0 291 67v402h-314v152h482v-650z" />
    <glyph glyph-name="H" unicode="H" horiz-adv-x="1454" 
d="M1266 0h-168v654h-742v-654h-168v1434h168v-629h742v629h168v-1434z" />
    <glyph glyph-name="I" unicode="I" horiz-adv-x="545" 
d="M496 1434v-144h-140v-1146h140v-144h-448v144h140v1146h-140v144h448z" />
    <glyph glyph-name="J" unicode="J" horiz-adv-x="731" 
d="M555 514q0 -255 -108 -396.5t-289 -141.5q-84 0 -138 24v166q54 -39 140 -39q227 0 227 385v922h168v-920z" />
    <glyph glyph-name="K" unicode="K" horiz-adv-x="1188" 
d="M1186 0h-234l-554 656q-31 37 -38 50h-4v-706h-168v1434h168v-674h4q14 22 38 49l536 625h209l-615 -688z" />
    <glyph glyph-name="L" unicode="L" horiz-adv-x="964" 
d="M932 0h-744v1434h168v-1282h576v-152z" />
    <glyph glyph-name="M" unicode="M" horiz-adv-x="1839" 
d="M1650 0h-167v962q0 114 14 279h-4q-24 -97 -43 -139l-490 -1102h-82l-489 1094q-21 48 -43 147h-4q8 -86 8 -281v-960h-162v1434h222l440 -1000q51 -115 66 -172h6q43 118 69 176l449 996h210v-1434z" />
    <glyph glyph-name="N" unicode="N" horiz-adv-x="1532" 
d="M1344 0h-206l-738 1143q-28 43 -46 90h-6q8 -46 8 -197v-1036h-168v1434h218l718 -1125q45 -70 58 -96h4q-10 62 -10 211v1010h168v-1434z" />
    <glyph glyph-name="O" unicode="O" horiz-adv-x="1544" 
d="M766 -24q-305 0 -488.5 201t-183.5 523q0 346 187 552t509 206q297 0 478.5 -200t181.5 -523q0 -351 -186 -555t-498 -204zM778 1306q-226 0 -367 -163t-141 -428t137.5 -426.5t358.5 -161.5q236 0 372 154t136 431q0 284 -132 439t-364 155z" />
    <glyph glyph-name="P" unicode="P" horiz-adv-x="1147" 
d="M356 542v-542h-168v1434h394q230 0 356.5 -112t126.5 -316t-140.5 -334t-379.5 -130h-189zM356 1282v-588h176q174 0 265.5 79.5t91.5 224.5q0 284 -336 284h-197z" />
    <glyph glyph-name="Q" unicode="Q" horiz-adv-x="1544" 
d="M756 -24q-64 0 -130 12.5t-128 38t-118.5 63t-102.5 87.5q-183 200 -183 523q0 347 186 552q188 206 514 206q292 0 474 -200t182 -523q0 -136 -30.5 -256.5t-92.5 -217.5t-156 -164.5t-222 -96.5q52 -56 97.5 -99t91 -72.5t94.5 -44.5t108 -15q16 0 35 1.5t38.5 5
t37.5 8t33 10.5v-162q-16 -5 -36 -8.5t-40.5 -6t-40.5 -4t-37 -1.5q-96 0 -172.5 28.5t-143 78t-128.5 115.5t-130 142zM778 1306q-226 0 -367 -163t-141 -428q0 -264 137 -427q138 -161 359 -161q236 0 372 154t136 431q0 285 -132 439q-132 155 -364 155z" />
    <glyph glyph-name="R" unicode="R" horiz-adv-x="1225" 
d="M1216 0h-200l-240 402q-33 56 -64 95.5t-63.5 64.5t-70 36.5t-84.5 11.5h-138v-610h-168v1434h428q94 0 173.5 -23.5t138 -71.5t91.5 -119.5t33 -167.5q0 -75 -22.5 -137.5t-64 -111.5t-100 -83.5t-131.5 -53.5v-4q36 -16 62.5 -36.5t50.5 -48.5t47.5 -63.5t52.5 -82.5z
M356 1282v-520h228q63 0 116.5 19t92.5 54.5t61 87t22 115.5q0 115 -74.5 179.5t-215.5 64.5h-230z" />
    <glyph glyph-name="S" unicode="S" horiz-adv-x="1088" 
d="M121 58v198q34 -30 81.5 -54t100 -40.5t105.5 -25.5t98 -9q155 0 231.5 57.5t76.5 165.5q0 58 -25.5 101t-70.5 78.5t-106.5 68t-132.5 68.5q-75 38 -140 77t-113 86t-75.5 106.5t-27.5 139.5q0 98 43 170.5t113 119.5t159.5 70t182.5 23q212 0 309 -51v-189
q-127 88 -326 88q-55 0 -110 -11.5t-98 -37.5t-70 -67t-27 -100q0 -55 20.5 -95t60.5 -73t97.5 -64t132.5 -68q77 -38 146 -80t121 -93t82.5 -113t30.5 -142q0 -106 -41.5 -179.5t-112 -119.5t-162.5 -66.5t-194 -20.5q-34 0 -84 5.5t-102 16t-98.5 26t-74.5 34.5z" />
    <glyph glyph-name="T" unicode="T" horiz-adv-x="1073" 
d="M1036 1282h-414v-1282h-168v1282h-413v152h995v-152z" />
    <glyph glyph-name="U" unicode="U" horiz-adv-x="1407" 
d="M1237 580q0 -604 -545 -604q-522 0 -522 581v877h168v-866q0 -441 372 -441q359 0 359 426v881h168v-854z" />
    <glyph glyph-name="V" unicode="V" horiz-adv-x="1272" 
d="M1254 1434l-531 -1434h-185l-520 1434h187l397 -1137q19 -55 29 -127h4q8 60 33 129l405 1135h181z" />
    <glyph glyph-name="W" unicode="W" horiz-adv-x="1913" 
d="M1888 1434l-405 -1434h-197l-295 1048q-19 67 -23 146h-4q-6 -74 -26 -144l-297 -1050h-195l-420 1434h185l305 -1100q19 -69 24 -144h5q5 53 31 144l317 1100h161l304 -1108q16 -57 24 -134h4q4 52 27 138l293 1104h182z" />
    <glyph glyph-name="X" unicode="X" horiz-adv-x="1208" 
d="M1178 0h-205l-330 549q-15 25 -33 71h-4q-10 -23 -34 -71l-340 -549h-206l480 721l-442 713h206l293 -504q29 -50 51 -100h4q32 66 56 104l305 500h193l-451 -711z" />
    <glyph glyph-name="Y" unicode="Y" horiz-adv-x="1132" 
d="M1120 1434l-473 -904v-530h-168v526l-461 908h191l321 -648q6 -12 35 -88h3q10 34 38 88l336 648h178z" />
    <glyph glyph-name="Z" unicode="Z" horiz-adv-x="1168" 
d="M1124 1394l-840 -1242h820v-152h-1071v47l833 1235h-766v152h1024v-40z" />
    <glyph glyph-name="bracketleft" unicode="[" horiz-adv-x="618" 
d="M568 -326h-368v1760h368v-119h-222v-1522h222v-119z" />
    <glyph glyph-name="backslash" unicode="\" horiz-adv-x="776" 
d="M798 -240h-151l-673 1674h155z" />
    <glyph glyph-name="bracketright" unicode="]" horiz-adv-x="618" 
d="M420 -326h-367v119h221v1522h-221v119h367v-1760z" />
    <glyph glyph-name="asciicircum" unicode="^" horiz-adv-x="1401" 
d="M1174 624h-150l-332 619h-6l-309 -619h-147l422 834h65z" />
    <glyph glyph-name="underscore" unicode="_" horiz-adv-x="850" 
d="M850 -297h-850v119h850v-119z" />
    <glyph glyph-name="grave" unicode="`" horiz-adv-x="549" 
d="M471 1218h-127l-262 328h168z" />
    <glyph glyph-name="a" unicode="a" horiz-adv-x="1042" 
d="M899 0h-164v160h-4q-107 -184 -315 -184q-153 0 -239.5 81t-86.5 215q0 287 338 334l307 43q0 261 -211 261q-185 0 -334 -126v168q151 96 348 96q361 0 361 -382v-666zM735 518l-247 -34q-114 -16 -172 -56.5t-58 -143.5q0 -75 53.5 -122.5t142.5 -47.5
q122 0 201.5 85.5t79.5 216.5v102z" />
    <glyph glyph-name="b" unicode="b" horiz-adv-x="1204" 
d="M334 148h-4v-148h-164v1516h164v-672h4q121 204 354 204q197 0 308.5 -137.5t111.5 -368.5q0 -257 -125 -411.5t-342 -154.5q-203 0 -307 172zM330 561v-143q0 -127 82.5 -215.5t209.5 -88.5q149 0 233.5 114t84.5 317q0 171 -79 268t-214 97q-143 0 -230 -99.5
t-87 -249.5z" />
    <glyph glyph-name="c" unicode="c" horiz-adv-x="946" 
d="M864 47q-118 -71 -280 -71q-219 0 -353.5 142.5t-134.5 369.5q0 253 145 406.5t387 153.5q135 0 238 -50v-168q-114 80 -244 80q-157 0 -257.5 -112.5t-100.5 -295.5q0 -180 94.5 -284t253.5 -104q134 0 252 89v-156z" />
    <glyph glyph-name="d" unicode="d" horiz-adv-x="1206" 
d="M1040 0h-164v174h-4q-114 -198 -352 -198q-193 0 -308.5 137.5t-115.5 374.5q0 254 128 407t341 153q211 0 307 -166h4v634h164v-1516zM876 463v151q0 124 -82 210t-208 86q-150 0 -236 -110t-86 -304q0 -177 82.5 -279.5t221.5 -102.5q137 0 222.5 99t85.5 250z" />
    <glyph glyph-name="e" unicode="e" horiz-adv-x="1071" 
d="M989 471h-723q4 -171 92 -264t242 -93q173 0 318 114v-154q-135 -98 -357 -98q-217 0 -341 139.5t-124 392.5q0 239 135.5 389.5t336.5 150.5t311 -130t110 -361v-86zM821 610q-1 142 -68.5 221t-187.5 79q-116 0 -197 -83t-100 -217h553z" />
    <glyph glyph-name="f" unicode="f" horiz-adv-x="641" 
d="M672 1372q-48 27 -109 27q-172 0 -172 -217v-158h240v-140h-240v-884h-163v884h-175v140h175v166q0 161 93 254.5t232 93.5q75 0 119 -18v-148z" />
    <glyph glyph-name="g" unicode="g" horiz-adv-x="1206" 
d="M1040 82q0 -564 -540 -564q-190 0 -332 72v164q173 -96 330 -96q378 0 378 402v112h-4q-117 -196 -352 -196q-191 0 -307.5 136.5t-116.5 366.5q0 261 125.5 415t343.5 154q207 0 307 -166h4v142h164v-942zM876 463v151q0 122 -82.5 209t-205.5 87q-152 0 -238 -110.5
t-86 -309.5q0 -171 82.5 -273.5t218.5 -102.5q138 0 224.5 98t86.5 251z" />
    <glyph glyph-name="h" unicode="h" horiz-adv-x="1159" 
d="M1016 0h-164v590q0 320 -238 320q-120 0 -202 -92.5t-82 -237.5v-580h-164v1516h164v-662h4q118 194 336 194q346 0 346 -417v-631z" />
    <glyph glyph-name="i" unicode="i" horiz-adv-x="496" 
d="M250 1284q-44 0 -75 30t-31 76t31 76.5t75 30.5q45 0 76.5 -30.5t31.5 -76.5q0 -44 -31.5 -75t-76.5 -31zM330 0h-164v1024h164v-1024z" />
    <glyph glyph-name="j" unicode="j" horiz-adv-x="496" 
d="M330 43q0 -252 -101.5 -388.5t-290.5 -136.5q-70 0 -136 32v153q74 -45 140 -45q224 0 224 358v1008h164v-981zM250 1284q-44 0 -75 30t-31 76t31 76.5t75 30.5q45 0 76.5 -30.5t31.5 -76.5q0 -44 -31.5 -75t-76.5 -31z" />
    <glyph glyph-name="k" unicode="k" horiz-adv-x="1018" 
d="M1016 0h-230l-452 492h-4v-492h-164v1516h164v-961h4l430 469h215l-475 -494z" />
    <glyph glyph-name="l" unicode="l" horiz-adv-x="496" 
d="M330 0h-164v1516h164v-1516z" />
    <glyph glyph-name="m" unicode="m" horiz-adv-x="1764" 
d="M1620 0h-164v588q0 170 -52.5 246t-176.5 76q-105 0 -178.5 -96t-73.5 -230v-584h-164v608q0 302 -233 302q-108 0 -178 -90.5t-70 -235.5v-584h-164v1024h164v-162h4q109 186 318 186q105 0 183 -58.5t107 -153.5q114 212 340 212q338 0 338 -417v-631z" />
    <glyph glyph-name="n" unicode="n" horiz-adv-x="1159" 
d="M1016 0h-164v584q0 326 -238 326q-123 0 -203.5 -92.5t-80.5 -233.5v-584h-164v1024h164v-170h4q116 194 336 194q168 0 257 -108.5t89 -313.5v-626z" />
    <glyph glyph-name="o" unicode="o" horiz-adv-x="1200" 
d="M594 -24q-227 0 -362.5 143.5t-135.5 380.5q0 258 141 403t381 145q229 0 357.5 -141t128.5 -391q0 -245 -138.5 -392.5t-371.5 -147.5zM606 910q-158 0 -250 -107.5t-92 -296.5q0 -182 93 -287t249 -105q159 0 244.5 103t85.5 293q0 192 -85.5 296t-244.5 104z" />
    <glyph glyph-name="p" unicode="p" horiz-adv-x="1204" 
d="M334 148h-4v-619h-164v1495h164v-180h4q121 204 354 204q198 0 309 -137.5t111 -368.5q0 -257 -125 -411.5t-342 -154.5q-199 0 -307 172zM330 561v-143q0 -127 82.5 -215.5t209.5 -88.5q149 0 233.5 114t84.5 317q0 171 -79 268t-214 97q-143 0 -230 -99.5t-87 -249.5z
" />
    <glyph glyph-name="q" unicode="q" horiz-adv-x="1206" 
d="M1040 -471h-164v647h-4q-107 -200 -350 -200q-193 0 -309.5 137.5t-116.5 374.5q0 255 128 407.5t344 152.5q210 0 304 -166h4v142h164v-1495zM876 461v149q0 126 -82.5 213t-209.5 87q-148 0 -234 -109.5t-86 -308.5q0 -177 83 -277.5t214 -100.5q144 0 229.5 98.5
t85.5 248.5z" />
    <glyph glyph-name="r" unicode="r" horiz-adv-x="712" 
d="M700 858q-43 33 -124 33q-105 0 -175.5 -99t-70.5 -270v-522h-164v1024h164v-211h4q35 108 107 168.5t161 60.5q64 0 98 -14v-170z" />
    <glyph glyph-name="s" unicode="s" horiz-adv-x="869" 
d="M104 37v176q134 -99 295 -99q216 0 216 144q0 41 -18.5 69.5t-50 50.5t-74 39.5t-91.5 36.5q-68 27 -119.5 54.5t-86 62t-52 78.5t-17.5 103q0 72 33 127.5t88 93t125.5 56.5t145.5 19q133 0 238 -46v-166q-113 74 -260 74q-46 0 -83 -10.5t-63.5 -29.5t-41 -45.5
t-14.5 -58.5q0 -40 14.5 -67t42.5 -48t68 -38t91 -37q68 -26 122 -53.5t92 -62t58.5 -79.5t20.5 -107q0 -76 -33.5 -132t-89.5 -93t-129 -55t-153 -18q-158 0 -274 61z" />
    <glyph glyph-name="t" unicode="t" horiz-adv-x="694" 
d="M641 10q-58 -32 -153 -32q-269 0 -269 300v606h-176v140h176v250l164 53v-303h258v-140h-258v-577q0 -103 35 -147t116 -44q62 0 107 34v-140z" />
    <glyph glyph-name="u" unicode="u" horiz-adv-x="1159" 
d="M994 0h-164v162h-4q-102 -186 -316 -186q-366 0 -366 436v612h163v-586q0 -324 248 -324q120 0 197.5 88.5t77.5 231.5v590h164v-1024z" />
    <glyph glyph-name="v" unicode="v" horiz-adv-x="981" 
d="M971 1024l-408 -1024h-161l-388 1024h180l260 -744q29 -82 36 -143h4q10 77 32 139l272 748h173z" />
    <glyph glyph-name="w" unicode="w" horiz-adv-x="1480" 
d="M1456 1024l-307 -1024h-170l-211 733q-12 42 -16 95h-4q-3 -36 -21 -93l-229 -735h-164l-310 1024h172l212 -770q10 -35 14 -92h8q3 44 18 94l236 768h150l212 -772q10 -37 15 -92h8q2 39 17 92l208 772h162z" />
    <glyph glyph-name="x" unicode="x" horiz-adv-x="940" 
d="M914 1024l-344 -518l338 -506h-191l-201 332q-19 31 -45 78h-4q-5 -9 -47 -78l-205 -332h-189l349 502l-334 522h191l198 -350q22 -39 43 -80h4l256 430h181z" />
    <glyph glyph-name="y" unicode="y" horiz-adv-x="991" 
d="M981 1024l-471 -1188q-126 -318 -354 -318q-64 0 -107 13v147q53 -18 97 -18q124 0 186 148l82 194l-400 1022h182l277 -788q5 -15 21 -78h6q5 24 20 76l291 790h170z" />
    <glyph glyph-name="z" unicode="z" horiz-adv-x="926" 
d="M880 977l-606 -837h600v-140h-841v51l606 833h-549v140h790v-47z" />
    <glyph glyph-name="braceleft" unicode="{" horiz-adv-x="618" 
d="M555 -326q-307 4 -307 310v300q0 202 -156 212v116q156 10 156 216v292q0 310 307 314v-128q-159 -4 -159 -198v-293q0 -210 -150 -258v-4q150 -45 150 -256v-289q0 -111 35.5 -158.5t123.5 -49.5v-126z" />
    <glyph glyph-name="bar" unicode="|" horiz-adv-x="490" 
d="M320 -482h-148v2048h148v-2048z" />
    <glyph glyph-name="braceright" unicode="}" horiz-adv-x="618" 
d="M528 496q-156 -10 -156 -212v-300q0 -306 -306 -310v126q87 2 123.5 50t36.5 158v289q0 211 149 256v4q-149 48 -149 258v293q0 194 -160 198v128q306 -4 306 -314v-292q0 -206 156 -216v-116z" />
    <glyph glyph-name="asciitilde" unicode="~" horiz-adv-x="1401" 
d="M1194 750q-7 -148 -80.5 -229t-199.5 -81q-109 0 -265 109q-97 67 -159 67q-140 0 -146 -176h-135q5 143 79.5 226.5t201.5 83.5q106 0 235 -88q132 -90 197 -90q61 0 98 49t39 129h135z" />
    <glyph glyph-name="exclamdown" unicode="&#xa1;" horiz-adv-x="582" 
d="M291 826q-46 0 -78.5 32t-32.5 78t32.5 78t78.5 32q45 0 78 -32t33 -78t-33 -78t-78 -32zM379 -406h-172l19 1030h134z" />
    <glyph glyph-name="cent" unicode="&#xa2;" horiz-adv-x="1104" 
d="M952 209q-96 -59 -221 -69v-189h-125v191q-193 22 -307.5 161t-114.5 346q0 219 114.5 366.5t307.5 184.5v213h125v-203q123 -2 221 -51v-172q-101 71 -221 78v-785q122 12 221 86v-157zM606 291v761q-119 -31 -186.5 -133.5t-67.5 -252.5t68 -249t186 -126z" />
    <glyph glyph-name="sterling" unicode="&#xa3;" horiz-adv-x="1104" 
d="M1006 0h-900v135q218 69 218 313v187h-197v141h197v254q0 188 109 308t282 120q117 0 213 -41v-155q-100 57 -211 57q-229 0 -229 -307v-236h296v-141h-296v-156q0 -242 -193 -339h711v-140z" />
    <glyph glyph-name="currency" unicode="&#xa4;" horiz-adv-x="1138" 
d="M1038 354l-92 -96l-137 138q-105 -76 -239 -76q-136 0 -240 76l-138 -138l-92 96l138 134q-76 113 -76 237q0 129 76 237l-138 136l92 96l138 -137q110 77 240 77q129 0 237 -77l139 137l92 -96l-137 -136q78 -112 78 -237q0 -121 -78 -237zM570 1002q-116 0 -195.5 -81
t-79.5 -194t80.5 -194t194.5 -81q113 0 194.5 81t81.5 194t-83 194t-193 81z" />
    <glyph glyph-name="yen" unicode="&#xa5;" horiz-adv-x="1104" 
d="M1042 1434l-356 -656h285v-139h-334v-207h334v-139h-334v-293h-164v293h-344v139h344v207h-344v139h291l-352 656h192l250 -514q28 -58 47 -111h4q13 42 49 117l252 508h180z" />
    <glyph glyph-name="brokenbar" unicode="&#xa6;" horiz-adv-x="490" 
d="M320 715h-148v851h148v-851zM320 -482h-148v852h148v-852z" />
    <glyph glyph-name="section" unicode="&#xa7;" horiz-adv-x="918" 
d="M658 416q90 -74 90 -186q0 -132 -100 -214t-255 -82q-131 0 -239 56v158q130 -74 250 -74q84 0 130 39.5t46 99.5q0 53 -35.5 89.5t-180.5 113.5q-233 122 -233 317q0 163 147 244q-106 83 -106 223q0 127 93.5 209t246.5 82q130 0 219 -43v-158q-101 62 -223 62
q-168 0 -168 -144q0 -55 40.5 -100t203.5 -123q223 -107 223 -293q0 -170 -149 -276zM398 905q-101 -51 -101 -159q0 -72 56.5 -126.5t197.5 -117.5q88 68 88 172q0 72 -52.5 122.5t-188.5 108.5z" />
    <glyph glyph-name="dieresis" unicode="&#xa8;" horiz-adv-x="848" 
d="M610 1218q-40 0 -69 28t-29 71q0 42 28 70t68 28q42 0 71 -28.5t29 -69.5t-28 -70t-70 -29zM226 1218q-42 0 -71.5 29.5t-29.5 69.5q0 42 28.5 70t69.5 28t71 -28.5t30 -69.5t-29 -70t-69 -29z" />
    <glyph glyph-name="copyright" unicode="&#xa9;" horiz-adv-x="1823" 
d="M912 -33q-311 0 -530.5 219.5t-219.5 530.5t219.5 530.5t530.5 219.5q310 0 529.5 -219.5t219.5 -530.5t-219.5 -530.5t-529.5 -219.5zM912 1379q-274 0 -468 -194t-194 -468t194 -467.5t468 -193.5t467.5 193.5t193.5 467.5t-193.5 468t-467.5 194zM1213 266
q-114 -69 -269 -69q-209 0 -350 141.5t-141 353.5q0 247 144.5 394t375.5 147q132 0 236 -53v-150q-95 72 -254 72q-156 0 -257.5 -106.5t-101.5 -286.5q0 -174 103.5 -279.5t263.5 -105.5q146 0 250 78v-136z" />
    <glyph glyph-name="ordfeminine" unicode="&#xaa;" horiz-adv-x="803" 
d="M688 717h-129v100h-4q-79 -119 -231 -119q-109 0 -175.5 59.5t-66.5 152.5q0 202 248 235l229 31q0 168 -151 168q-136 0 -254 -86v128q111 70 266 70q126 0 197 -72t71 -202v-465zM559 1075l-180 -25q-168 -23 -168 -134q0 -51 38.5 -83t102.5 -32q82 0 144.5 61
t62.5 146v67z" />
    <glyph glyph-name="guillemotleft" unicode="&#xab;" horiz-adv-x="1036" 
d="M946 200h-168l-299 336l299 344h170l-307 -344zM557 200h-166l-299 336l299 344h166l-303 -344z" />
    <glyph glyph-name="logicalnot" unicode="&#xac;" horiz-adv-x="1401" 
d="M1172 254h-132v430h-808v133h940v-563z" />
    <glyph glyph-name="uni00AD" unicode="&#xad;" horiz-adv-x="819" 
d="M690 506h-546v129h546v-129z" />
    <glyph glyph-name="registered" unicode="&#xae;" horiz-adv-x="1823" 
d="M912 -33q-311 0 -530.5 219.5t-219.5 530.5t219.5 530.5t530.5 219.5q310 0 529.5 -219.5t219.5 -530.5t-219.5 -530.5t-529.5 -219.5zM912 1379q-274 0 -468 -194t-194 -468t194 -467.5t468 -193.5t467.5 193.5t193.5 467.5t-193.5 468t-467.5 194zM1276 248h-162
l-104 229q-79 172 -170 172h-88v-401h-133v954h268q167 0 257.5 -70t90.5 -190q0 -98 -63.5 -167t-177.5 -93v-4q79 -17 157 -176zM752 1088v-326h143q197 0 197 164q0 88 -53 125t-168 37h-119z" />
    <glyph glyph-name="macron" unicode="&#xaf;" horiz-adv-x="850" 
d="M850 1396h-850v120h850v-120z" />
    <glyph glyph-name="degree" unicode="&#xb0;" horiz-adv-x="772" 
d="M385 897q-115 0 -196 81.5t-81 197.5q0 115 80 194.5t195 79.5q116 0 197.5 -80t81.5 -194q0 -116 -81 -197.5t-196 -81.5zM385 1333q-65 0 -111 -46t-46 -111q0 -67 45 -114.5t110 -47.5t112 48t47 114t-46 111.5t-111 45.5z" />
    <glyph glyph-name="plusminus" unicode="&#xb1;" horiz-adv-x="1401" 
d="M1172 652h-404v-404h-131v404h-405v132h405v404h131v-404h404v-132zM1172 0h-940v133h940v-133z" />
    <glyph glyph-name="uni00B2" unicode="&#xb2;" horiz-adv-x="750" 
d="M658 884h-554v114l240 236q104 102 132 156.5t28 109.5q0 58 -38 94.5t-100 36.5q-118 0 -216 -102v149q84 76 235 76q118 0 187 -66t69 -174q0 -153 -205 -348l-164 -156v-4h386v-122z" />
    <glyph glyph-name="uni00B3" unicode="&#xb3;" horiz-adv-x="750" 
d="M129 916v142q103 -76 217 -76q80 0 126 37.5t46 101.5q0 141 -219 141h-84v118h80q197 0 197 134q0 119 -144 119q-94 0 -186 -69v139q87 51 213 51q113 0 180 -59.5t67 -155.5q0 -151 -145 -205v-4q177 -42 177 -202q0 -117 -85 -191t-227 -74q-137 0 -213 53z" />
    <glyph glyph-name="acute" unicode="&#xb4;" horiz-adv-x="578" 
d="M524 1546l-262 -328h-127l223 328h166z" />
    <glyph glyph-name="mu" unicode="&#xb5;" horiz-adv-x="1182" 
d="M1048 0h-170q-23 72 -23 168h-5q-84 -191 -279 -191q-167 0 -238 123h-4v-496h-163v1420h163v-626q0 -127 69 -202t180 -75q121 0 196.5 86t75.5 231v586h166v-759q0 -188 32 -265z" />
    <glyph glyph-name="paragraph" unicode="&#xb6;" horiz-adv-x="938" 
d="M834 1331h-128v-1331h-106v1331h-158v-1331h-108v903q-108 0 -179 76t-71 191q0 117 74.5 190.5t181.5 73.5h494v-103z" />
    <glyph glyph-name="periodcentered" unicode="&#xb7;" horiz-adv-x="444" 
d="M223 510q-46 0 -78.5 33t-32.5 79q0 47 32.5 80t78.5 33q47 0 80 -33t33 -80q0 -46 -33 -79t-80 -33z" />
    <glyph glyph-name="cedilla" unicode="&#xb8;" horiz-adv-x="420" 
d="M391 -256q0 -176 -275 -176q-38 0 -65 2v90q43 -6 70 -6q141 0 141 90q0 78 -129 78q-10 0 -41 -4v182h108v-104q88 0 139.5 -40t51.5 -112z" />
    <glyph glyph-name="uni00B9" unicode="&#xb9;" horiz-adv-x="750" 
d="M668 884h-504v112h185v594l-193 -55v125l323 96v-760h189v-112z" />
    <glyph glyph-name="ordmasculine" unicode="&#xba;" horiz-adv-x="882" 
d="M436 696q-167 0 -262.5 100.5t-95.5 272.5q0 181 102.5 283t271.5 102q163 0 257 -99.5t94 -270.5q0 -178 -99.5 -283t-267.5 -105zM444 1344q-106 0 -168.5 -72t-62.5 -199q0 -124 59.5 -194t169.5 -70q105 0 166.5 71.5t61.5 194.5q0 126 -60.5 197.5t-165.5 71.5z" />
    <glyph glyph-name="guillemotright" unicode="&#xbb;" horiz-adv-x="1036" 
d="M948 538l-301 -338h-165l302 338l-302 342h165zM559 538l-299 -338h-170l308 338l-308 342h170z" />
    <glyph glyph-name="onequarter" unicode="&#xbc;" horiz-adv-x="1856" 
d="M639 584h-504v112h185v594l-193 -55v125l323 96v-760h189v-112zM1393 1434l-858 -1434h-144l859 1434h143zM1699 204h-110v-204h-132v204h-393v92l369 554h156v-537h110v-109zM1461 724h-4q-12 -31 -38 -73l-218 -338h256v323q0 32 4 88z" />
    <glyph glyph-name="onehalf" unicode="&#xbd;" horiz-adv-x="1906" 
d="M639 584h-504v112h185v594l-193 -55v125l323 96v-760h189v-112zM1393 1434l-858 -1434h-144l859 1434h143zM1748 1h-554v114l240 236q104 102 132 156.5t28 109.5q0 58 -38 94.5t-100 36.5q-118 0 -216 -102v149q84 76 235 76q118 0 187 -66t69 -174q0 -153 -205 -348
l-164 -156v-4h386v-122z" />
    <glyph glyph-name="threequarters" unicode="&#xbe;" horiz-adv-x="1950" 
d="M129 616v142q103 -76 217 -76q80 0 126 37.5t46 101.5q0 141 -219 141h-84v118h80q197 0 197 134q0 119 -144 119q-94 0 -186 -69v139q87 51 213 51q113 0 180 -59.5t67 -155.5q0 -151 -145 -205v-4q177 -42 177 -202q0 -117 -85 -191t-227 -74q-137 0 -213 53z
M1464 1434l-858 -1434h-144l859 1434h143zM1764 204h-110v-204h-132v204h-393v92l369 554h156v-537h110v-109zM1526 724h-4q-12 -31 -38 -73l-218 -338h256v323q0 32 4 88z" />
    <glyph glyph-name="questiondown" unicode="&#xbf;" horiz-adv-x="918" 
d="M625 630q9 -26 16 -67.5t7 -82.5q0 -64 -25.5 -115.5t-63.5 -96.5t-83 -86.5t-83 -84t-63.5 -89t-25.5 -102.5q0 -48 18.5 -85t50.5 -62t74 -37.5t89 -12.5q169 0 293 133v-176q-153 -96 -317 -96q-76 0 -143 20t-117 59.5t-79.5 98.5t-29.5 137q0 74 26 132t65.5 106.5
t85.5 90.5t85.5 83.5t65.5 86.5t26 99q0 46 -11 83.5t-22 63.5h161zM535 1046q44 0 78 -32q33 -31 33 -78q0 -46 -33 -78q-33 -33 -78 -33t-78 33q-33 32 -33 78q0 47 33 78q34 32 78 32z" />
    <glyph glyph-name="Agrave" unicode="&#xc0;" horiz-adv-x="1321" 
d="M1298 0h-186l-152 402h-608l-143 -402h-187l550 1434h174zM905 553l-225 611q-11 30 -22 96h-4q-10 -61 -23 -96l-223 -611h497zM758 1566h-127l-262 328h168z" />
    <glyph glyph-name="Aacute" unicode="&#xc1;" horiz-adv-x="1321" 
d="M1298 0h-186l-152 402h-608l-143 -402h-187l550 1434h174zM905 553l-225 611q-11 30 -22 96h-4q-10 -61 -23 -96l-223 -611h497zM867 1894l-262 -328h-127l223 328h166z" />
    <glyph glyph-name="Acircumflex" unicode="&#xc2;" horiz-adv-x="1321" 
d="M1298 0h-186l-152 402h-608l-143 -402h-187l550 1434h174zM905 553l-225 611q-11 30 -22 96h-4q-10 -61 -23 -96l-223 -611h497zM927 1565h-122l-164 230l-165 -230h-113l215 332h133z" />
    <glyph glyph-name="Atilde" unicode="&#xc3;" horiz-adv-x="1321" 
d="M1298 0h-186l-152 402h-608l-143 -402h-187l550 1434h174zM905 553l-225 611q-11 30 -22 96h-4q-10 -61 -23 -96l-223 -611h497zM977 1803q0 -105 -48 -171.5t-130 -66.5q-71 0 -162 52q-77 43 -119 43q-88 0 -88 -113h-94q0 107 48 171.5t134 64.5q65 0 149 -52
q74 -44 128 -44q84 0 84 116h98z" />
    <glyph glyph-name="Adieresis" unicode="&#xc4;" horiz-adv-x="1321" 
d="M1298 0h-186l-152 402h-608l-143 -402h-187l550 1434h174zM905 553l-225 611q-11 30 -22 96h-4q-10 -61 -23 -96l-223 -611h497zM840 1565q-40 0 -69 28t-29 71q0 42 28 70t68 28q42 0 71 -28.5t29 -69.5t-28 -70t-70 -29zM456 1565q-42 0 -71.5 29.5t-29.5 69.5
q0 42 28.5 70t69.5 28t71 -28.5t30 -69.5t-29 -70t-69 -29z" />
    <glyph glyph-name="Aring" unicode="&#xc5;" horiz-adv-x="1321" 
d="M1298 0h-186l-152 402h-608l-143 -402h-187l529 1378q-101 52 -101 164q0 89 60 144t152 55q88 0 144 -54.5t56 -138.5q0 -112 -96 -166zM656 1659q-50 0 -82 -31.5t-32 -79.5q0 -114 114 -114q48 0 81 33t33 81q0 49 -33 80t-81 31zM905 553l-225 611q-11 30 -22 96h-4
q-10 -61 -23 -96l-223 -611h497z" />
    <glyph glyph-name="AE" unicode="&#xc6;" horiz-adv-x="1762" 
d="M1667 0h-759v402h-510l-193 -402h-195l700 1434h924v-152h-559v-477h519v-151h-519v-502h592v-152zM908 553v729h-95l-346 -729h441z" />
    <glyph glyph-name="Ccedilla" unicode="&#xc7;" horiz-adv-x="1268" 
d="M1164 60q-168 -85 -392 -84v-80q86 0 137 -40t51 -112q0 -176 -275 -176q-38 0 -65 2v90q42 -6 70 -6q142 0 142 90q0 78 -130 78q-10 0 -40 -4v164q-260 33 -414 225.5t-154 482.5q0 344 207 556t525 212q204 0 338 -59v-179q-154 86 -340 86q-247 0 -400.5 -165
t-153.5 -441q0 -262 143.5 -417.5t376.5 -155.5q216 0 374 96v-163z" />
    <glyph glyph-name="Egrave" unicode="&#xc8;" horiz-adv-x="1036" 
d="M948 0h-760v1434h728v-152h-560v-477h518v-151h-518v-502h592v-152zM703 1566h-127l-262 328h168z" />
    <glyph glyph-name="Eacute" unicode="&#xc9;" horiz-adv-x="1036" 
d="M948 0h-760v1434h728v-152h-560v-477h518v-151h-518v-502h592v-152zM803 1893l-262 -328h-127l223 328h166z" />
    <glyph glyph-name="Ecircumflex" unicode="&#xca;" horiz-adv-x="1036" 
d="M948 0h-760v1434h728v-152h-560v-477h518v-151h-518v-502h592v-152zM827 1567h-122l-164 230l-165 -230h-113l215 332h133z" />
    <glyph glyph-name="Edieresis" unicode="&#xcb;" horiz-adv-x="1036" 
d="M948 0h-760v1434h728v-152h-560v-477h518v-151h-518v-502h592v-152zM749 1566q-40 0 -69 28t-29 71q0 42 28 70t68 28q42 0 71 -28.5t29 -69.5t-28 -70t-70 -29zM365 1566q-42 0 -71.5 29.5t-29.5 69.5q0 42 28.5 70t69.5 28t71 -28.5t30 -69.5t-29 -70t-69 -29z" />
    <glyph glyph-name="Igrave" unicode="&#xcc;" horiz-adv-x="545" 
d="M496 1434v-144h-140v-1146h140v-144h-448v144h140v1146h-140v144h448zM417 1566h-127l-262 328h168z" />
    <glyph glyph-name="Iacute" unicode="&#xcd;" horiz-adv-x="545" 
d="M496 1434v-144h-140v-1146h140v-144h-448v144h140v1146h-140v144h448zM510 1894l-262 -328h-127l223 328h166z" />
    <glyph glyph-name="Icircumflex" unicode="&#xce;" horiz-adv-x="545" 
d="M496 1434v-144h-140v-1146h140v-144h-448v144h140v1146h-140v144h448zM561 1567h-122l-164 230l-165 -230h-113l215 332h133z" />
    <glyph glyph-name="Idieresis" unicode="&#xcf;" horiz-adv-x="545" 
d="M496 1434v-144h-140v-1146h140v-144h-448v144h140v1146h-140v144h448zM471 1566q-40 0 -69 28t-29 71q0 42 28 70t68 28q42 0 71 -28.5t29 -69.5t-28 -70t-70 -29zM87 1566q-42 0 -71.5 29.5t-29.5 69.5q0 42 28.5 70t69.5 28t71 -28.5t30 -69.5t-29 -70t-69 -29z" />
    <glyph glyph-name="Eth" unicode="&#xd0;" horiz-adv-x="1436" 
d="M188 0v641h-160v155h160v638h396q758 0 758 -699q0 -334 -210.5 -534.5t-563.5 -200.5h-380zM356 1282v-486h336v-155h-336v-489h214q282 0 439 151t157 428q0 551 -586 551h-224z" />
    <glyph glyph-name="Ntilde" unicode="&#xd1;" horiz-adv-x="1532" 
d="M1344 0h-206l-738 1143q-28 43 -46 90h-6q8 -46 8 -197v-1036h-168v1434h218l718 -1125q45 -70 58 -96h4q-10 62 -10 211v1010h168v-1434zM1113 1803q0 -105 -48 -171.5t-130 -66.5q-71 0 -162 52q-77 43 -119 43q-88 0 -88 -113h-94q0 107 48 171.5t134 64.5
q65 0 149 -52q74 -44 128 -44q84 0 84 116h98z" />
    <glyph glyph-name="Ograve" unicode="&#xd2;" horiz-adv-x="1544" 
d="M766 -24q-305 0 -488.5 201t-183.5 523q0 346 187 552t509 206q297 0 478.5 -200t181.5 -523q0 -351 -186 -555t-498 -204zM778 1306q-226 0 -367 -163t-141 -428t137.5 -426.5t358.5 -161.5q236 0 372 154t136 431q0 284 -132 439t-364 155zM880 1566h-127l-262 328h168
z" />
    <glyph glyph-name="Oacute" unicode="&#xd3;" horiz-adv-x="1544" 
d="M766 -24q-305 0 -488.5 201t-183.5 523q0 346 187 552t509 206q297 0 478.5 -200t181.5 -523q0 -351 -186 -555t-498 -204zM778 1306q-226 0 -367 -163t-141 -428t137.5 -426.5t358.5 -161.5q236 0 372 154t136 431q0 284 -132 439t-364 155zM1028 1894l-262 -328h-127
l223 328h166z" />
    <glyph glyph-name="Ocircumflex" unicode="&#xd4;" horiz-adv-x="1544" 
d="M766 -24q-305 0 -488.5 201t-183.5 523q0 346 187 552t509 206q297 0 478.5 -200t181.5 -523q0 -351 -186 -555t-498 -204zM778 1306q-226 0 -367 -163t-141 -428t137.5 -426.5t358.5 -161.5q236 0 372 154t136 431q0 284 -132 439t-364 155zM1063 1566h-122l-164 230
l-165 -230h-113l215 332h133z" />
    <glyph glyph-name="Otilde" unicode="&#xd5;" horiz-adv-x="1544" 
d="M766 -24q-305 0 -488.5 201t-183.5 523q0 346 187 552t509 206q297 0 478.5 -200t181.5 -523q0 -351 -186 -555t-498 -204zM778 1306q-226 0 -367 -163t-141 -428t137.5 -426.5t358.5 -161.5q236 0 372 154t136 431q0 284 -132 439t-364 155zM1103 1802
q0 -105 -48 -171.5t-130 -66.5q-71 0 -162 52q-77 43 -119 43q-88 0 -88 -113h-94q0 107 48 171.5t134 64.5q65 0 149 -52q74 -44 128 -44q84 0 84 116h98z" />
    <glyph glyph-name="Odieresis" unicode="&#xd6;" horiz-adv-x="1544" 
d="M766 -24q-305 0 -488.5 201t-183.5 523q0 346 187 552t509 206q297 0 478.5 -200t181.5 -523q0 -351 -186 -555t-498 -204zM778 1306q-226 0 -367 -163t-141 -428t137.5 -426.5t358.5 -161.5q236 0 372 154t136 431q0 284 -132 439t-364 155zM968 1563q-40 0 -69 28
t-29 71q0 42 28 70t68 28q42 0 71 -28.5t29 -69.5t-28 -70t-70 -29zM584 1563q-42 0 -71.5 29.5t-29.5 69.5q0 42 28.5 70t69.5 28t71 -28.5t30 -69.5t-29 -70t-69 -29z" />
    <glyph glyph-name="multiply" unicode="&#xd7;" horiz-adv-x="1401" 
d="M1134 258l-94 -94l-340 340l-338 -340l-94 94l340 338l-340 340l94 94l338 -340l340 340l94 -94l-340 -340z" />
    <glyph glyph-name="Oslash" unicode="&#xd8;" horiz-adv-x="1544" 
d="M324 131l-152 -182l-78 65l158 191q-158 195 -158 495q0 343 186.5 550.5t509.5 207.5q234 0 402 -129l135 162l78 -63l-139 -166q184 -200 184 -527q0 -351 -186 -555t-498 -204q-266 0 -442 155zM1090 1204q-126 102 -312 102q-227 0 -367.5 -164t-140.5 -427
q0 -223 98 -373zM1157 1130l-725 -866q131 -137 334 -137q236 0 372 154.5t136 430.5q0 260 -117 418z" />
    <glyph glyph-name="Ugrave" unicode="&#xd9;" horiz-adv-x="1407" 
d="M1237 580q0 -604 -545 -604q-522 0 -522 581v877h168v-866q0 -441 372 -441q359 0 359 426v881h168v-854zM830 1566h-127l-262 328h168z" />
    <glyph glyph-name="Uacute" unicode="&#xda;" horiz-adv-x="1407" 
d="M1237 580q0 -604 -545 -604q-522 0 -522 581v877h168v-866q0 -441 372 -441q359 0 359 426v881h168v-854zM960 1893l-262 -328h-127l223 328h166z" />
    <glyph glyph-name="Ucircumflex" unicode="&#xdb;" horiz-adv-x="1407" 
d="M1237 580q0 -604 -545 -604q-522 0 -522 581v877h168v-866q0 -441 372 -441q359 0 359 426v881h168v-854zM987 1567h-122l-164 230l-165 -230h-113l215 332h133z" />
    <glyph glyph-name="Udieresis" unicode="&#xdc;" horiz-adv-x="1407" 
d="M1237 580q0 -604 -545 -604q-522 0 -522 581v877h168v-866q0 -441 372 -441q359 0 359 426v881h168v-854zM895 1567q-40 0 -69 28t-29 71q0 42 28 70t68 28q42 0 71 -28.5t29 -69.5t-28 -70t-70 -29zM511 1567q-42 0 -71.5 29.5t-29.5 69.5q0 42 28.5 70t69.5 28
t71 -28.5t30 -69.5t-29 -70t-69 -29z" />
    <glyph glyph-name="Yacute" unicode="&#xdd;" horiz-adv-x="1132" 
d="M1120 1434l-473 -904v-530h-168v526l-461 908h191l321 -648q6 -12 35 -88h3q10 34 38 88l336 648h178zM831 1894l-262 -328h-127l223 328h166z" />
    <glyph glyph-name="Thorn" unicode="&#xde;" horiz-adv-x="1147" 
d="M356 318v-318h-168v1434h168v-226h226q232 0 357.5 -111.5t125.5 -316.5q0 -204 -141.5 -333t-381.5 -129h-186zM356 1057v-588h176q173 0 265 78t92 223q0 287 -336 287h-197z" />
    <glyph glyph-name="germandbls" unicode="&#xdf;" horiz-adv-x="1114" 
d="M461 2v160q75 -48 170 -48q109 0 177 73.5t68 197.5q0 150 -100 243.5t-278 113.5v130q118 20 194 103t76 197q0 108 -55 167.5t-152 59.5q-231 0 -231 -309v-1090h-164v1114q0 192 110 308t296 116q166 0 265 -95t99 -251q0 -127 -75 -228t-195 -140v-5
q378 -75 378 -426q0 -177 -111 -297t-294 -120q-101 0 -178 26z" />
    <glyph glyph-name="agrave" unicode="&#xe0;" horiz-adv-x="1042" 
d="M899 0h-164v160h-4q-107 -184 -315 -184q-153 0 -239.5 81t-86.5 215q0 287 338 334l307 43q0 261 -211 261q-185 0 -334 -126v168q151 96 348 96q361 0 361 -382v-666zM735 518l-247 -34q-114 -16 -172 -56.5t-58 -143.5q0 -75 53.5 -122.5t142.5 -47.5
q122 0 201.5 85.5t79.5 216.5v102zM674 1218h-127l-262 328h168z" />
    <glyph glyph-name="aacute" unicode="&#xe1;" horiz-adv-x="1042" 
d="M899 0h-164v160h-4q-107 -184 -315 -184q-153 0 -239.5 81t-86.5 215q0 287 338 334l307 43q0 261 -211 261q-185 0 -334 -126v168q151 96 348 96q361 0 361 -382v-666zM735 518l-247 -34q-114 -16 -172 -56.5t-58 -143.5q0 -75 53.5 -122.5t142.5 -47.5
q122 0 201.5 85.5t79.5 216.5v102zM757 1546l-262 -328h-127l223 328h166z" />
    <glyph glyph-name="acircumflex" unicode="&#xe2;" horiz-adv-x="1042" 
d="M899 0h-164v160h-4q-107 -184 -315 -184q-153 0 -239.5 81t-86.5 215q0 287 338 334l307 43q0 261 -211 261q-185 0 -334 -126v168q151 96 348 96q361 0 361 -382v-666zM735 518l-247 -34q-114 -16 -172 -56.5t-58 -143.5q0 -75 53.5 -122.5t142.5 -47.5
q122 0 201.5 85.5t79.5 216.5v102zM806 1218h-122l-164 230l-165 -230h-113l215 332h133z" />
    <glyph glyph-name="atilde" unicode="&#xe3;" horiz-adv-x="1042" 
d="M899 0h-164v160h-4q-107 -184 -315 -184q-153 0 -239.5 81t-86.5 215q0 287 338 334l307 43q0 261 -211 261q-185 0 -334 -126v168q151 96 348 96q361 0 361 -382v-666zM735 518l-247 -34q-114 -16 -172 -56.5t-58 -143.5q0 -75 53.5 -122.5t142.5 -47.5
q122 0 201.5 85.5t79.5 216.5v102zM844 1458q0 -105 -48 -171.5t-130 -66.5q-71 0 -162 52q-77 43 -119 43q-88 0 -88 -113h-94q0 107 48 171.5t134 64.5q65 0 149 -52q74 -44 128 -44q84 0 84 116h98z" />
    <glyph glyph-name="adieresis" unicode="&#xe4;" horiz-adv-x="1042" 
d="M899 0h-164v160h-4q-107 -184 -315 -184q-153 0 -239.5 81t-86.5 215q0 287 338 334l307 43q0 261 -211 261q-185 0 -334 -126v168q151 96 348 96q361 0 361 -382v-666zM735 518l-247 -34q-114 -16 -172 -56.5t-58 -143.5q0 -75 53.5 -122.5t142.5 -47.5
q122 0 201.5 85.5t79.5 216.5v102zM708 1218q-40 0 -69 28t-29 71q0 42 28 70t68 28q42 0 71 -28.5t29 -69.5t-28 -70t-70 -29zM324 1218q-42 0 -71.5 29.5t-29.5 69.5q0 42 28.5 70t69.5 28t71 -28.5t30 -69.5t-29 -70t-69 -29z" />
    <glyph glyph-name="aring" unicode="&#xe5;" horiz-adv-x="1042" 
d="M899 0h-164v160h-4q-107 -184 -315 -184q-153 0 -239.5 81t-86.5 215q0 287 338 334l307 43q0 261 -211 261q-185 0 -334 -126v168q151 96 348 96q361 0 361 -382v-666zM735 518l-247 -34q-114 -16 -172 -56.5t-58 -143.5q0 -75 53.5 -122.5t142.5 -47.5
q122 0 201.5 85.5t79.5 216.5v102zM517 1176q-89 0 -146 53.5t-57 136.5q0 88 59 143t150 55q89 0 146 -54t57 -138t-61 -140t-148 -56zM517 1483q-49 0 -80.5 -32.5t-31.5 -80.5q0 -112 112 -112q49 0 81.5 32t32.5 80q0 49 -32.5 81t-81.5 32z" />
    <glyph glyph-name="ae" unicode="&#xe6;" horiz-adv-x="1704" 
d="M1622 471h-725q3 -171 91 -264t241 -93q177 0 321 114v-154q-132 -98 -358 -98q-270 0 -383 229h-4q-145 -229 -387 -229q-153 0 -240.5 80.5t-87.5 215.5q0 300 383 324l262 16q0 298 -215 298q-175 0 -330 -122v164q148 96 348 96q232 0 300 -200h4q116 200 356 200
q202 0 313 -130.5t111 -362.5v-84zM1454 610q-2 144 -68.5 222t-185.5 78q-116 0 -199 -82t-102 -218h555zM735 410v63l-203 -12q-139 -8 -207.5 -49t-68.5 -136q0 -73 53 -117.5t143 -44.5q119 0 201 84.5t82 211.5z" />
    <glyph glyph-name="ccedilla" unicode="&#xe7;" horiz-adv-x="946" 
d="M864 47q-117 -71 -274 -71v-80q86 0 137 -40t51 -112q0 -176 -275 -176q-38 0 -65 2v90q42 -6 70 -6q141 0 141 90q0 78 -129 78q-10 0 -41 -4v168q-176 34 -279.5 170t-103.5 332q0 253 145 406.5t387 153.5q135 0 238 -50v-168q-114 80 -244 80q-157 0 -257.5 -112.5
t-100.5 -295.5q0 -180 94.5 -284t253.5 -104q134 0 252 89v-156z" />
    <glyph glyph-name="egrave" unicode="&#xe8;" horiz-adv-x="1071" 
d="M989 471h-723q4 -171 92 -264t242 -93q173 0 318 114v-154q-135 -98 -357 -98q-217 0 -341 139.5t-124 392.5q0 239 135.5 389.5t336.5 150.5t311 -130t110 -361v-86zM821 610q-1 142 -68.5 221t-187.5 79q-116 0 -197 -83t-100 -217h553zM725 1218h-127l-262 328h168z
" />
    <glyph glyph-name="eacute" unicode="&#xe9;" horiz-adv-x="1071" 
d="M989 471h-723q4 -171 92 -264t242 -93q173 0 318 114v-154q-135 -98 -357 -98q-217 0 -341 139.5t-124 392.5q0 239 135.5 389.5t336.5 150.5t311 -130t110 -361v-86zM821 610q-1 142 -68.5 221t-187.5 79q-116 0 -197 -83t-100 -217h553zM795 1546l-262 -328h-127
l223 328h166z" />
    <glyph glyph-name="ecircumflex" unicode="&#xea;" horiz-adv-x="1071" 
d="M989 471h-723q4 -171 92 -264t242 -93q173 0 318 114v-154q-135 -98 -357 -98q-217 0 -341 139.5t-124 392.5q0 239 135.5 389.5t336.5 150.5t311 -130t110 -361v-86zM821 610q-1 142 -68.5 221t-187.5 79q-116 0 -197 -83t-100 -217h553zM840 1218h-122l-164 230
l-165 -230h-113l215 332h133z" />
    <glyph glyph-name="edieresis" unicode="&#xeb;" horiz-adv-x="1071" 
d="M989 471h-723q4 -171 92 -264t242 -93q173 0 318 114v-154q-135 -98 -357 -98q-217 0 -341 139.5t-124 392.5q0 239 135.5 389.5t336.5 150.5t311 -130t110 -361v-86zM821 610q-1 142 -68.5 221t-187.5 79q-116 0 -197 -83t-100 -217h553zM746 1218q-40 0 -69 28t-29 71
q0 42 28 70t68 28q42 0 71 -28.5t29 -69.5t-28 -70t-70 -29zM362 1218q-42 0 -71.5 29.5t-29.5 69.5q0 42 28.5 70t69.5 28t71 -28.5t30 -69.5t-29 -70t-69 -29z" />
    <glyph glyph-name="igrave" unicode="&#xec;" horiz-adv-x="496" 
d="M330 0h-164v1024h164v-1024zM370 1218h-127l-262 328h168z" />
    <glyph glyph-name="iacute" unicode="&#xed;" horiz-adv-x="496" 
d="M330 0h-164v1024h164v-1024zM478 1546l-262 -328h-127l223 328h166z" />
    <glyph glyph-name="icircumflex" unicode="&#xee;" horiz-adv-x="496" 
d="M330 0h-164v1024h164v-1024zM520 1218h-122l-164 230l-165 -230h-113l215 332h133z" />
    <glyph glyph-name="idieresis" unicode="&#xef;" horiz-adv-x="496" 
d="M330 0h-164v1024h164v-1024zM431 1218q-40 0 -69 28t-29 71q0 42 28 70t68 28q42 0 71 -28.5t29 -69.5t-28 -70t-70 -29zM47 1218q-42 0 -71.5 29.5t-29.5 69.5q0 42 28.5 70t69.5 28t71 -28.5t30 -69.5t-29 -70t-69 -29z" />
    <glyph glyph-name="eth" unicode="&#xf0;" horiz-adv-x="1145" 
d="M786 968l4 3q-90 162 -198 266l-299 -151l-51 98l270 131q-118 105 -264 201h221q75 -52 172 -136l289 144l55 -94l-264 -130q327 -307 327 -774q0 -240 -129 -394t-351 -154t-347 140t-125 382q0 243 130 394.5t350 151.5q123 0 210 -78zM582 910q-148 0 -233 -108.5
t-85 -295.5q0 -181 83 -286.5t231 -105.5q139 0 220.5 108t81.5 288q0 400 -298 400z" />
    <glyph glyph-name="ntilde" unicode="&#xf1;" horiz-adv-x="1159" 
d="M1016 0h-164v584q0 326 -238 326q-123 0 -203.5 -92.5t-80.5 -233.5v-584h-164v1024h164v-170h4q116 194 336 194q168 0 257 -108.5t89 -313.5v-626zM908 1458q0 -105 -48 -171.5t-130 -66.5q-71 0 -162 52q-77 43 -119 43q-88 0 -88 -113h-94q0 107 48 171.5t134 64.5
q65 0 149 -52q74 -44 128 -44q84 0 84 116h98z" />
    <glyph glyph-name="ograve" unicode="&#xf2;" horiz-adv-x="1200" 
d="M594 -24q-227 0 -362.5 143.5t-135.5 380.5q0 258 141 403t381 145q229 0 357.5 -141t128.5 -391q0 -245 -138.5 -392.5t-371.5 -147.5zM606 910q-158 0 -250 -107.5t-92 -296.5q0 -182 93 -287t249 -105q159 0 244.5 103t85.5 293q0 192 -85.5 296t-244.5 104zM747 1218
h-127l-262 328h168z" />
    <glyph glyph-name="oacute" unicode="&#xf3;" horiz-adv-x="1200" 
d="M594 -24q-227 0 -362.5 143.5t-135.5 380.5q0 258 141 403t381 145q229 0 357.5 -141t128.5 -391q0 -245 -138.5 -392.5t-371.5 -147.5zM606 910q-158 0 -250 -107.5t-92 -296.5q0 -182 93 -287t249 -105q159 0 244.5 103t85.5 293q0 192 -85.5 296t-244.5 104zM846 1546
l-262 -328h-127l223 328h166z" />
    <glyph glyph-name="ocircumflex" unicode="&#xf4;" horiz-adv-x="1200" 
d="M594 -24q-227 0 -362.5 143.5t-135.5 380.5q0 258 141 403t381 145q229 0 357.5 -141t128.5 -391q0 -245 -138.5 -392.5t-371.5 -147.5zM606 910q-158 0 -250 -107.5t-92 -296.5q0 -182 93 -287t249 -105q159 0 244.5 103t85.5 293q0 192 -85.5 296t-244.5 104zM885 1218
h-122l-164 230l-165 -230h-113l215 332h133z" />
    <glyph glyph-name="otilde" unicode="&#xf5;" horiz-adv-x="1200" 
d="M594 -24q-227 0 -362.5 143.5t-135.5 380.5q0 258 141 403t381 145q229 0 357.5 -141t128.5 -391q0 -245 -138.5 -392.5t-371.5 -147.5zM606 910q-158 0 -250 -107.5t-92 -296.5q0 -182 93 -287t249 -105q159 0 244.5 103t85.5 293q0 192 -85.5 296t-244.5 104zM931 1458
q0 -105 -48 -171.5t-130 -66.5q-71 0 -162 52q-77 43 -119 43q-88 0 -88 -113h-94q0 107 48 171.5t134 64.5q65 0 149 -52q74 -44 128 -44q84 0 84 116h98z" />
    <glyph glyph-name="odieresis" unicode="&#xf6;" horiz-adv-x="1200" 
d="M594 -24q-227 0 -362.5 143.5t-135.5 380.5q0 258 141 403t381 145q229 0 357.5 -141t128.5 -391q0 -245 -138.5 -392.5t-371.5 -147.5zM606 910q-158 0 -250 -107.5t-92 -296.5q0 -182 93 -287t249 -105q159 0 244.5 103t85.5 293q0 192 -85.5 296t-244.5 104zM793 1218
q-40 0 -69 28t-29 71q0 42 28 70t68 28q42 0 71 -28.5t29 -69.5t-28 -70t-70 -29zM409 1218q-42 0 -71.5 29.5t-29.5 69.5q0 42 28.5 70t69.5 28t71 -28.5t30 -69.5t-29 -70t-69 -29z" />
    <glyph glyph-name="divide" unicode="&#xf7;" horiz-adv-x="1401" 
d="M708 868q-44 0 -74 30.5t-30 74.5q0 45 29 77t75 32q103 0 103 -107q0 -47 -30.5 -77t-72.5 -30zM1172 530h-940v134h940v-134zM704 112q-44 0 -75 30t-31 73q0 45 30 78t76 33q101 0 101 -109q0 -45 -29 -75t-72 -30z" />
    <glyph glyph-name="oslash" unicode="&#xf8;" horiz-adv-x="1200" 
d="M1174 1048l-168 -180q98 -138 98 -346q0 -252 -139 -399t-371 -147q-192 0 -318 102l-145 -160l-82 78l149 164q-102 137 -102 340q0 258 142 403t382 145q184 0 308 -98l162 176zM821 836q-79 74 -215 74q-159 0 -250.5 -107.5t-91.5 -296.5q0 -132 50 -224zM891 742
l-508 -552q87 -76 221 -76q163 0 248.5 104t85.5 294q0 134 -47 230z" />
    <glyph glyph-name="ugrave" unicode="&#xf9;" horiz-adv-x="1159" 
d="M994 0h-164v162h-4q-102 -186 -316 -186q-366 0 -366 436v612h163v-586q0 -324 248 -324q120 0 197.5 88.5t77.5 231.5v590h164v-1024zM705 1218h-127l-262 328h168z" />
    <glyph glyph-name="uacute" unicode="&#xfa;" horiz-adv-x="1159" 
d="M994 0h-164v162h-4q-102 -186 -316 -186q-366 0 -366 436v612h163v-586q0 -324 248 -324q120 0 197.5 88.5t77.5 231.5v590h164v-1024zM840 1546l-262 -328h-127l223 328h166z" />
    <glyph glyph-name="ucircumflex" unicode="&#xfb;" horiz-adv-x="1159" 
d="M994 0h-164v162h-4q-102 -186 -316 -186q-366 0 -366 436v612h163v-586q0 -324 248 -324q120 0 197.5 88.5t77.5 231.5v590h164v-1024zM854 1218h-122l-164 230l-165 -230h-113l215 332h133z" />
    <glyph glyph-name="udieresis" unicode="&#xfc;" horiz-adv-x="1159" 
d="M994 0h-164v162h-4q-102 -186 -316 -186q-366 0 -366 436v612h163v-586q0 -324 248 -324q120 0 197.5 88.5t77.5 231.5v590h164v-1024zM770 1218q-40 0 -69 28t-29 71q0 42 28 70t68 28q42 0 71 -28.5t29 -69.5t-28 -70t-70 -29zM386 1218q-42 0 -71.5 29.5t-29.5 69.5
q0 42 28.5 70t69.5 28t71 -28.5t30 -69.5t-29 -70t-69 -29z" />
    <glyph glyph-name="yacute" unicode="&#xfd;" horiz-adv-x="991" 
d="M981 1024l-471 -1188q-126 -318 -354 -318q-64 0 -107 13v147q53 -18 97 -18q124 0 186 148l82 194l-400 1022h182l277 -788q5 -15 21 -78h6q5 24 20 76l291 790h170zM762 1546l-262 -328h-127l223 328h166z" />
    <glyph glyph-name="thorn" unicode="&#xfe;" horiz-adv-x="1204" 
d="M334 148h-4v-619h-164v1987h164v-672h4q121 204 354 204q198 0 309 -137.5t111 -368.5q0 -257 -125 -411.5t-342 -154.5q-199 0 -307 172zM330 561v-143q0 -127 82.5 -215.5t209.5 -88.5q149 0 233.5 114t84.5 317q0 171 -79 268t-214 97q-143 0 -230 -99.5t-87 -249.5z
" />
    <glyph glyph-name="ydieresis" unicode="&#xff;" horiz-adv-x="991" 
d="M981 1024l-471 -1188q-126 -318 -354 -318q-64 0 -107 13v147q53 -18 97 -18q124 0 186 148l82 194l-400 1022h182l277 -788q5 -15 21 -78h6q5 24 20 76l291 790h170zM689 1218q-40 0 -69 28t-29 71q0 42 28 70t68 28q42 0 71 -28.5t29 -69.5t-28 -70t-70 -29zM305 1218
q-42 0 -71.5 29.5t-29.5 69.5q0 42 28.5 70t69.5 28t71 -28.5t30 -69.5t-29 -70t-69 -29z" />
    <glyph glyph-name="Amacron" unicode="&#x100;" horiz-adv-x="1321" 
d="M1298 0h-186l-152 402h-608l-143 -402h-187l550 1434h174zM905 553l-225 611q-11 30 -22 96h-4q-10 -61 -23 -96l-223 -611h497zM912 1567h-508v109h508v-109z" />
    <glyph glyph-name="amacron" unicode="&#x101;" horiz-adv-x="1042" 
d="M899 0h-164v160h-4q-107 -184 -315 -184q-153 0 -239.5 81t-86.5 215q0 287 338 334l307 43q0 261 -211 261q-185 0 -334 -126v168q151 96 348 96q361 0 361 -382v-666zM735 518l-247 -34q-114 -16 -172 -56.5t-58 -143.5q0 -75 53.5 -122.5t142.5 -47.5
q122 0 201.5 85.5t79.5 216.5v102zM801 1218h-508v109h508v-109z" />
    <glyph glyph-name="Abreve" unicode="&#x102;" horiz-adv-x="1321" 
d="M1298 0h-186l-152 402h-608l-143 -402h-187l550 1434h174zM905 553l-225 611q-11 30 -22 96h-4q-10 -61 -23 -96l-223 -611h497zM932 1819q-10 -112 -88 -182t-190 -70q-117 0 -191.5 69t-78.5 183h100q12 -155 172 -155q68 0 116.5 42t57.5 113h102z" />
    <glyph glyph-name="abreve" unicode="&#x103;" horiz-adv-x="1042" 
d="M899 0h-164v160h-4q-107 -184 -315 -184q-153 0 -239.5 81t-86.5 215q0 287 338 334l307 43q0 261 -211 261q-185 0 -334 -126v168q151 96 348 96q361 0 361 -382v-666zM735 518l-247 -34q-114 -16 -172 -56.5t-58 -143.5q0 -75 53.5 -122.5t142.5 -47.5
q122 0 201.5 85.5t79.5 216.5v102zM805 1470q-10 -112 -88 -182t-190 -70q-117 0 -191.5 69t-78.5 183h100q12 -155 172 -155q68 0 116.5 42t57.5 113h102z" />
    <glyph glyph-name="Aogonek" unicode="&#x104;" horiz-adv-x="1321" 
d="M1342 -316q-57 -22 -128 -22q-75 0 -120.5 46.5t-45.5 125.5q0 66 64 166l-152 402h-608l-143 -402h-187l550 1434h174l552 -1434h-63q-59 -100 -59 -166t67 -66q49 0 99 25v-109zM905 553l-225 611q-12 33 -22 96h-4q-12 -64 -23 -96l-223 -611h497z" />
    <glyph glyph-name="aogonek" unicode="&#x105;" horiz-adv-x="1042" 
d="M964 -316q-56 -22 -126 -22q-76 0 -121 47t-45 125q0 66 64 166q0 148 -1 160h-4q-108 -184 -315 -184q-152 0 -239 81.5t-87 214.5q0 287 338 334l307 43q0 261 -211 261q-186 0 -334 -126v168q52 38 154.5 67t193.5 29q361 0 361 -382v-666h-41q-59 -100 -59 -166
t67 -66q50 0 98 25v-109zM735 416v102l-247 -34q-114 -16 -172 -56.5t-58 -143.5q0 -76 53 -123t143 -47q122 0 201.5 86.5t79.5 215.5z" />
    <glyph glyph-name="Cacute" unicode="&#x106;" horiz-adv-x="1268" 
d="M1164 60q-159 -84 -396 -84q-306 0 -490 197t-184 517q0 344 207 556t525 212q204 0 338 -59v-179q-154 86 -340 86q-247 0 -400.5 -165t-153.5 -441q0 -262 143.5 -417.5t376.5 -155.5q216 0 374 96v-163zM993 1894l-262 -328h-127l223 328h166z" />
    <glyph glyph-name="cacute" unicode="&#x107;" horiz-adv-x="946" 
d="M864 47q-118 -71 -280 -71q-219 0 -353.5 142.5t-134.5 369.5q0 253 145 406.5t387 153.5q135 0 238 -50v-168q-114 80 -244 80q-157 0 -257.5 -112.5t-100.5 -295.5q0 -180 94.5 -284t253.5 -104q134 0 252 89v-156zM815 1546l-262 -328h-127l223 328h166z" />
    <glyph glyph-name="Ccircumflex" unicode="&#x108;" horiz-adv-x="1268" 
d="M1164 60q-159 -84 -396 -84q-306 0 -490 197t-184 517q0 344 207 556t525 212q204 0 338 -59v-179q-154 86 -340 86q-247 0 -400.5 -165t-153.5 -441q0 -262 143.5 -417.5t376.5 -155.5q216 0 374 96v-163zM1047 1568h-122l-164 230l-165 -230h-113l215 332h133z" />
    <glyph glyph-name="ccircumflex" unicode="&#x109;" horiz-adv-x="946" 
d="M864 47q-118 -71 -280 -71q-219 0 -353.5 142.5t-134.5 369.5q0 253 145 406.5t387 153.5q135 0 238 -50v-168q-114 80 -244 80q-157 0 -257.5 -112.5t-100.5 -295.5q0 -180 94.5 -284t253.5 -104q134 0 252 89v-156zM840 1218h-122l-164 230l-165 -230h-113l215 332h133
z" />
    <glyph glyph-name="Cdotaccent" unicode="&#x10a;" horiz-adv-x="1268" 
d="M1164 60q-159 -84 -396 -84q-306 0 -490 197t-184 517q0 344 207 556t525 212q204 0 338 -59v-179q-154 86 -340 86q-247 0 -400.5 -165t-153.5 -441q0 -262 143.5 -417.5t376.5 -155.5q216 0 374 96v-163zM768 1567q-40 0 -69.5 28.5t-29.5 70.5q0 40 29 68t70 28
t69.5 -27.5t28.5 -68.5t-28.5 -70t-69.5 -29z" />
    <glyph glyph-name="cdotaccent" unicode="&#x10b;" horiz-adv-x="946" 
d="M864 47q-118 -71 -280 -71q-219 0 -353.5 142.5t-134.5 369.5q0 253 145 406.5t387 153.5q135 0 238 -50v-168q-114 80 -244 80q-157 0 -257.5 -112.5t-100.5 -295.5q0 -180 94.5 -284t253.5 -104q134 0 252 89v-156zM595 1218q-40 0 -69.5 28.5t-29.5 70.5q0 40 29 68
t70 28t69.5 -27.5t28.5 -68.5t-28.5 -70t-69.5 -29z" />
    <glyph glyph-name="Ccaron" unicode="&#x10c;" horiz-adv-x="1268" 
d="M1164 60q-159 -84 -396 -84q-306 0 -490 197t-184 517q0 344 207 556t525 212q204 0 338 -59v-179q-154 86 -340 86q-247 0 -400.5 -165t-153.5 -441q0 -262 143.5 -417.5t376.5 -155.5q216 0 374 96v-163zM1054 1896l-214 -330h-132l-216 330h115l164 -229l164 229h119z
" />
    <glyph glyph-name="ccaron" unicode="&#x10d;" horiz-adv-x="946" 
d="M864 47q-118 -71 -280 -71q-219 0 -353.5 142.5t-134.5 369.5q0 253 145 406.5t387 153.5q135 0 238 -50v-168q-114 80 -244 80q-157 0 -257.5 -112.5t-100.5 -295.5q0 -180 94.5 -284t253.5 -104q134 0 252 89v-156zM858 1548l-214 -330h-132l-216 330h115l164 -229
l164 229h119z" />
    <glyph glyph-name="Dcaron" unicode="&#x10e;" horiz-adv-x="1436" 
d="M188 0v1434h396q758 0 758 -699q0 -332 -210.5 -533.5t-563.5 -201.5h-380zM356 1282v-1130h214q282 0 439 151t157 428q0 551 -586 551h-224zM962 1896l-214 -330h-132l-216 330h115l164 -229l164 229h119z" />
    <glyph glyph-name="dcaron" unicode="&#x10f;" horiz-adv-x="1381" 
d="M1040 0h-164v174h-4q-114 -198 -352 -198q-193 0 -308.5 137.5t-115.5 374.5q0 254 128 407t341 153q211 0 307 -166h4v634h164v-1516zM876 463v151q0 124 -82 210t-208 86q-150 0 -236 -110t-86 -304q0 -177 82.5 -279.5t221.5 -102.5q137 0 222.5 99t85.5 250z
M1459 1516l-166 -260h-123l117 260h172z" />
    <glyph glyph-name="Dcroat" unicode="&#x110;" horiz-adv-x="1436" 
d="M188 0v641h-160v155h160v638h396q758 0 758 -699q0 -334 -210.5 -534.5t-563.5 -200.5h-380zM356 1282v-486h336v-155h-336v-489h214q282 0 439 151t157 428q0 551 -586 551h-224z" />
    <glyph glyph-name="dcroat" unicode="&#x111;" horiz-adv-x="1206" 
d="M1040 0h-164v174h-4q-114 -198 -352 -198q-193 0 -308.5 137.5t-115.5 374.5q0 254 128 407t341 153q208 0 307 -166h4v320h-331v134h331v180h164v-180h136v-134h-136v-1202zM876 463v151q0 124 -82 210t-208 86q-150 0 -236 -110t-86 -304q0 -177 82.5 -279.5
t221.5 -102.5q136 0 222 99t86 250z" />
    <glyph glyph-name="Emacron" unicode="&#x112;" horiz-adv-x="1036" 
d="M948 0h-760v1434h728v-152h-560v-477h518v-151h-518v-502h592v-152zM824 1566h-508v109h508v-109z" />
    <glyph glyph-name="emacron" unicode="&#x113;" horiz-adv-x="1071" 
d="M989 471h-723q4 -171 92 -264t242 -93q173 0 318 114v-154q-135 -98 -357 -98q-217 0 -341 139.5t-124 392.5q0 239 135.5 389.5t336.5 150.5t311 -130t110 -361v-86zM821 610q-1 142 -68.5 221t-187.5 79q-116 0 -197 -83t-100 -217h553zM820 1218h-508v109h508v-109z
" />
    <glyph glyph-name="Ebreve" unicode="&#x114;" horiz-adv-x="1036" 
d="M948 0h-760v1434h728v-152h-560v-477h518v-151h-518v-502h592v-152zM829 1820q-10 -113 -88.5 -182.5t-190.5 -69.5q-117 0 -191 69t-79 183h100q12 -155 172 -155q68 0 116.5 42t58.5 113h102z" />
    <glyph glyph-name="ebreve" unicode="&#x115;" horiz-adv-x="1071" 
d="M989 471h-723q4 -171 92 -264t242 -93q173 0 318 114v-154q-135 -98 -357 -98q-217 0 -341 139.5t-124 392.5q0 239 135.5 389.5t336.5 150.5t311 -130t110 -361v-86zM821 610q-1 142 -68.5 221t-187.5 79q-116 0 -197 -83t-100 -217h553zM830 1470q-10 -112 -88 -182
t-190 -70q-117 0 -191.5 69t-78.5 183h100q12 -155 172 -155q68 0 116.5 42t57.5 113h102z" />
    <glyph glyph-name="Edotaccent" unicode="&#x116;" horiz-adv-x="1036" 
d="M948 0h-760v1434h728v-152h-560v-477h518v-151h-518v-502h592v-152zM550 1567q-40 0 -69.5 28.5t-29.5 70.5q0 40 29 68t70 28t69.5 -27.5t28.5 -68.5t-28.5 -70t-69.5 -29z" />
    <glyph glyph-name="edotaccent" unicode="&#x117;" horiz-adv-x="1071" 
d="M989 471h-723q4 -171 92 -264t242 -93q173 0 318 114v-154q-135 -98 -357 -98q-217 0 -341 139.5t-124 392.5q0 239 135.5 389.5t336.5 150.5t311 -130t110 -361v-86zM821 610q-1 142 -68.5 221t-187.5 79q-116 0 -197 -83t-100 -217h553zM576 1218q-40 0 -69.5 28.5
t-29.5 70.5q0 40 29 68t70 28t69.5 -27.5t28.5 -68.5t-28.5 -70t-69.5 -29z" />
    <glyph glyph-name="Eogonek" unicode="&#x118;" horiz-adv-x="1036" 
d="M924 -316q-56 -22 -126 -22q-77 0 -121.5 47.5t-44.5 124.5q0 66 64 166h-508v1434h728v-152h-560v-477h518v-151h-518v-502h592v-152h-130q-60 -100 -60 -166t68 -66q50 0 98 25v-109z" />
    <glyph glyph-name="eogonek" unicode="&#x119;" horiz-adv-x="1071" 
d="M748 -316q-57 -22 -128 -22q-75 0 -120.5 46.5t-45.5 125.5q0 63 50 144q-193 19 -300.5 157.5t-107.5 372.5q0 240 135 390t337 150q201 0 311 -130t110 -361v-86h-723q5 -173 92.5 -265t241.5 -92q174 0 318 114v-154q-110 -80 -290 -96q-46 -82 -46 -144q0 -66 67 -66
q49 0 99 25v-109zM821 610q-1 144 -68.5 222t-187.5 78q-116 0 -197 -83t-100 -217h553z" />
    <glyph glyph-name="Ecaron" unicode="&#x11a;" horiz-adv-x="1036" 
d="M948 0h-760v1434h728v-152h-560v-477h518v-151h-518v-502h592v-152zM841 1896l-214 -330h-132l-216 330h115l164 -229l164 229h119z" />
    <glyph glyph-name="ecaron" unicode="&#x11b;" horiz-adv-x="1071" 
d="M989 471h-723q4 -171 92 -264t242 -93q173 0 318 114v-154q-135 -98 -357 -98q-217 0 -341 139.5t-124 392.5q0 239 135.5 389.5t336.5 150.5t311 -130t110 -361v-86zM821 610q-1 142 -68.5 221t-187.5 79q-116 0 -197 -83t-100 -217h553zM844 1548l-214 -330h-132
l-216 330h115l164 -229l164 229h119z" />
    <glyph glyph-name="Gcircumflex" unicode="&#x11c;" horiz-adv-x="1405" 
d="M1260 98q-216 -122 -480 -122q-307 0 -496.5 198t-189.5 524q0 333 210.5 546.5t533.5 213.5q234 0 393 -76v-186q-174 110 -412 110q-241 0 -395 -166t-154 -430q0 -272 143 -427.5t388 -155.5q168 0 291 67v402h-314v152h482v-650zM1061 1568h-122l-164 230l-165 -230
h-113l215 332h133z" />
    <glyph glyph-name="gcircumflex" unicode="&#x11d;" horiz-adv-x="1206" 
d="M1040 82q0 -564 -540 -564q-190 0 -332 72v164q173 -96 330 -96q378 0 378 402v112h-4q-117 -196 -352 -196q-191 0 -307.5 136.5t-116.5 366.5q0 261 125.5 415t343.5 154q207 0 307 -166h4v142h164v-942zM876 463v151q0 122 -82.5 209t-205.5 87q-152 0 -238 -110.5
t-86 -309.5q0 -171 82.5 -273.5t218.5 -102.5q138 0 224.5 98t86.5 251zM865 1218h-122l-164 230l-165 -230h-113l215 332h133z" />
    <glyph glyph-name="Gbreve" unicode="&#x11e;" horiz-adv-x="1405" 
d="M1260 98q-216 -122 -480 -122q-307 0 -496.5 198t-189.5 524q0 333 210.5 546.5t533.5 213.5q234 0 393 -76v-186q-174 110 -412 110q-241 0 -395 -166t-154 -430q0 -272 143 -427.5t388 -155.5q168 0 291 67v402h-314v152h482v-650zM1068 1819q-10 -112 -88 -182
t-190 -70q-117 0 -191.5 69t-78.5 183h100q12 -155 172 -155q68 0 116.5 42t57.5 113h102z" />
    <glyph glyph-name="gbreve" unicode="&#x11f;" horiz-adv-x="1206" 
d="M1040 82q0 -564 -540 -564q-190 0 -332 72v164q173 -96 330 -96q378 0 378 402v112h-4q-117 -196 -352 -196q-191 0 -307.5 136.5t-116.5 366.5q0 261 125.5 415t343.5 154q207 0 307 -166h4v142h164v-942zM876 463v151q0 122 -82.5 209t-205.5 87q-152 0 -238 -110.5
t-86 -309.5q0 -171 82.5 -273.5t218.5 -102.5q138 0 224.5 98t86.5 251zM867 1470q-10 -112 -88 -182t-190 -70q-117 0 -191.5 69t-78.5 183h100q12 -155 172 -155q68 0 116.5 42t57.5 113h102z" />
    <glyph glyph-name="Gdotaccent" unicode="&#x120;" horiz-adv-x="1405" 
d="M1260 98q-216 -122 -480 -122q-307 0 -496.5 198t-189.5 524q0 333 210.5 546.5t533.5 213.5q234 0 393 -76v-186q-174 110 -412 110q-241 0 -395 -166t-154 -430q0 -272 143 -427.5t388 -155.5q168 0 291 67v402h-314v152h482v-650zM798 1567q-40 0 -69.5 28.5
t-29.5 70.5q0 40 29 68t70 28t69.5 -27.5t28.5 -68.5t-28.5 -70t-69.5 -29z" />
    <glyph glyph-name="gdotaccent" unicode="&#x121;" horiz-adv-x="1206" 
d="M1040 82q0 -564 -540 -564q-190 0 -332 72v164q173 -96 330 -96q378 0 378 402v112h-4q-117 -196 -352 -196q-191 0 -307.5 136.5t-116.5 366.5q0 261 125.5 415t343.5 154q207 0 307 -166h4v142h164v-942zM876 463v151q0 122 -82.5 209t-205.5 87q-152 0 -238 -110.5
t-86 -309.5q0 -171 82.5 -273.5t218.5 -102.5q138 0 224.5 98t86.5 251zM575 1218q-40 0 -69.5 28.5t-29.5 70.5q0 40 29 68t70 28t69.5 -27.5t28.5 -68.5t-28.5 -70t-69.5 -29z" />
    <glyph glyph-name="Gcommaaccent" unicode="&#x122;" horiz-adv-x="1405" 
d="M1260 98q-216 -122 -480 -122q-307 0 -496.5 198t-189.5 524q0 333 210.5 546.5t533.5 213.5q234 0 393 -76v-186q-174 110 -412 110q-241 0 -395 -166t-154 -430q0 -272 143 -427.5t388 -155.5q168 0 291 67v402h-314v152h482v-650zM885 -119l-166 -260h-123l117 260
h172z" />
    <glyph glyph-name="gcommaaccent" unicode="&#x123;" horiz-adv-x="1206" 
d="M1040 82q0 -564 -540 -564q-193 0 -332 72v164q174 -96 330 -96q378 0 378 402v112h-4q-116 -196 -352 -196q-190 0 -307 137.5t-117 365.5q0 261 125.5 415t343.5 154q209 0 307 -166h4v142h164v-942zM876 463v151q0 121 -82 208.5t-206 87.5q-154 0 -239 -111t-85 -309
q0 -170 83 -273t218 -103q139 0 225 97.5t86 251.5zM471 1218l166 260h123l-117 -260h-172z" />
    <glyph glyph-name="Hcircumflex" unicode="&#x124;" horiz-adv-x="1454" 
d="M1266 0h-168v654h-742v-654h-168v1434h168v-629h742v629h168v-1434zM1006 1566h-122l-164 230l-165 -230h-113l215 332h133z" />
    <glyph glyph-name="hcircumflex" unicode="&#x125;" horiz-adv-x="1159" 
d="M1016 0h-164v590q0 320 -238 320q-120 0 -202 -92.5t-82 -237.5v-580h-164v1516h164v-662h4q118 194 336 194q346 0 346 -417v-631zM912 1647h-122l-164 230l-165 -230h-113l215 332h133z" />
    <glyph glyph-name="Hbar" unicode="&#x126;" horiz-adv-x="1454" 
d="M1266 0h-168v654h-742v-654h-168v1028h-160v152h160v254h168v-254h742v254h168v-254h160v-152h-160v-1028zM356 1028v-223h742v223h-742z" />
    <glyph glyph-name="hbar" unicode="&#x127;" horiz-adv-x="1159" 
d="M1016 0h-164v590q0 320 -238 320q-120 0 -202 -92.5t-82 -237.5v-580h-164v1202h-136v134h136v180h164v-180h332v-134h-332v-348h4q120 194 336 194q168 0 257 -107t89 -310v-631z" />
    <glyph glyph-name="Itilde" unicode="&#x128;" horiz-adv-x="545" 
d="M496 1434v-144h-140v-1146h140v-144h-448v144h140v1146h-140v144h448zM594 1804q0 -105 -48 -171.5t-130 -66.5q-71 0 -162 52q-77 43 -119 43q-88 0 -88 -113h-94q0 107 48 171.5t134 64.5q65 0 149 -52q74 -44 128 -44q84 0 84 116h98z" />
    <glyph glyph-name="itilde" unicode="&#x129;" horiz-adv-x="496" 
d="M330 0h-164v1024h164v-1024zM559 1458q0 -105 -48 -171.5t-130 -66.5q-71 0 -162 52q-77 43 -119 43q-88 0 -88 -113h-94q0 107 48 171.5t134 64.5q65 0 149 -52q74 -44 128 -44q84 0 84 116h98z" />
    <glyph glyph-name="Imacron" unicode="&#x12a;" horiz-adv-x="545" 
d="M496 1434v-144h-140v-1146h140v-144h-448v144h140v1146h-140v144h448zM527 1566h-508v109h508v-109z" />
    <glyph glyph-name="imacron" unicode="&#x12b;" horiz-adv-x="496" 
d="M330 0h-164v1024h164v-1024zM502 1218h-508v109h508v-109z" />
    <glyph glyph-name="Ibreve" unicode="&#x12c;" horiz-adv-x="545" 
d="M496 1434v-144h-140v-1146h140v-144h-448v144h140v1146h-140v144h448zM546 1819q-10 -112 -88 -182t-190 -70q-117 0 -191.5 69t-78.5 183h100q12 -155 172 -155q68 0 116.5 42t57.5 113h102z" />
    <glyph glyph-name="ibreve" unicode="&#x12d;" horiz-adv-x="496" 
d="M330 0h-164v1024h164v-1024zM511 1470q-10 -112 -88 -182t-190 -70q-117 0 -191.5 69t-78.5 183h100q12 -155 172 -155q68 0 116.5 42t57.5 113h102z" />
    <glyph glyph-name="Iogonek" unicode="&#x12e;" horiz-adv-x="545" 
d="M496 1434v-144h-140v-1146h140v-144h-158q-60 -100 -60 -166t68 -66q48 0 98 25v-109q-56 -22 -127 -22q-76 0 -121 46.5t-45 125.5q0 66 63 166h-166v144h140v1146h-140v144h448z" />
    <glyph glyph-name="iogonek" unicode="&#x12f;" horiz-adv-x="496" 
d="M250 1284q-44 0 -75 30t-31 76t31 76.5t75 30.5q45 0 76.5 -30.5t31.5 -76.5q0 -44 -32 -75t-76 -31zM396 -316q-56 -22 -126 -22q-76 0 -121 47t-45 125q0 66 64 166h-2v1024h164v-1024h-40q-59 -100 -59 -166t67 -66q50 0 98 25v-109z" />
    <glyph glyph-name="Idotaccent" unicode="&#x130;" horiz-adv-x="545" 
d="M496 1434v-144h-140v-1146h140v-144h-448v144h140v1146h-140v144h448zM272 1567q-40 0 -69.5 28.5t-29.5 70.5q0 40 29 68t70 28t69.5 -27.5t28.5 -68.5t-28.5 -70t-69.5 -29z" />
    <glyph glyph-name="dotlessi" unicode="&#x131;" horiz-adv-x="496" 
d="M330 0h-164v1024h164v-1024z" />
    <glyph glyph-name="IJ" unicode="&#x132;" horiz-adv-x="1276" 
d="M496 1434v-144h-140v-1146h140v-144h-448v144h140v1146h-140v144h448zM1102 514q0 -255 -108 -396.5t-289 -141.5q-84 0 -138 24v166q54 -39 140 -39q227 0 227 385v922h168v-920z" />
    <glyph glyph-name="ij" unicode="&#x133;" horiz-adv-x="1014" 
d="M250 1284q-44 0 -75 30t-31 76t31 76.5t75 30.5q45 0 76.5 -30.5t31.5 -76.5q0 -44 -31.5 -75t-76.5 -31zM330 0h-164v1024h164v-1024zM848 43q0 -252 -101.5 -388.5t-290.5 -136.5q-70 0 -136 32v153q74 -45 140 -45q224 0 224 358v1008h164v-981zM768 1284
q-44 0 -75 30t-31 76t31 76.5t75 30.5q45 0 76.5 -30.5t31.5 -76.5q0 -44 -31.5 -75t-76.5 -31z" />
    <glyph glyph-name="Jcircumflex" unicode="&#x134;" horiz-adv-x="731" 
d="M555 514q0 -255 -108 -396.5t-289 -141.5q-84 0 -138 24v166q54 -39 140 -39q227 0 227 385v922h168v-920zM754 1566h-122l-164 230l-165 -230h-113l215 332h133z" />
    <glyph glyph-name="jcircumflex" unicode="&#x135;" horiz-adv-x="496" 
d="M526 1218h-120l-164 230l-166 -230h-113l215 332h134zM330 43q0 -254 -102 -389.5t-290 -135.5q-75 0 -136 32v153q77 -45 140 -45q224 0 224 358v1008h164v-981z" />
    <glyph glyph-name="Kcommaaccent" unicode="&#x136;" horiz-adv-x="1188" 
d="M1186 0h-234l-554 656q-31 37 -38 50h-4v-706h-168v1434h168v-674h4q14 22 38 49l536 625h209l-615 -688zM742 -119l-166 -260h-123l117 260h172z" />
    <glyph glyph-name="kcommaaccent" unicode="&#x137;" horiz-adv-x="1018" 
d="M1016 0h-230l-452 492h-4v-492h-164v1516h164v-961h4l430 469h215l-475 -494zM643 -119l-166 -260h-123l117 260h172z" />
    <glyph glyph-name="kgreenlandic" unicode="&#x138;" horiz-adv-x="1018" 
d="M1016 0h-230l-452 492h-4v-492h-164v1024h164v-469h4l430 469h215l-475 -494z" />
    <glyph glyph-name="Lacute" unicode="&#x139;" horiz-adv-x="964" 
d="M932 0h-744v1434h168v-1282h576v-152zM856 1894l-262 -328h-127l223 328h166z" />
    <glyph glyph-name="lacute" unicode="&#x13a;" horiz-adv-x="496" 
d="M330 0h-164v1516h164v-1516zM531 1979l-262 -328h-127l223 328h166z" />
    <glyph glyph-name="Lcommaaccent" unicode="&#x13b;" horiz-adv-x="964" 
d="M426 -430v90q37 -6 70 -6q141 0 141 90q0 78 -129 78q-12 0 -41 -4v182h-279v1434h168v-1282h576v-152h-356v-104q87 0 138.5 -41t51.5 -111q0 -176 -275 -176q-38 0 -65 2z" />
    <glyph glyph-name="lcommaaccent" unicode="&#x13c;" horiz-adv-x="496" 
d="M137 -430v90q37 -6 70 -6q141 0 141 90q0 78 -129 78q-12 0 -41 -4v182h-12v1516h164v-1516h-44v-104q87 0 139 -41t52 -111q0 -176 -275 -176q-38 0 -65 2z" />
    <glyph glyph-name="Lcaron" unicode="&#x13d;" horiz-adv-x="964" 
d="M932 0h-744v1434h168v-1282h576v-152zM905 1434l-166 -260h-123l117 260h172z" />
    <glyph glyph-name="lcaron" unicode="&#x13e;" horiz-adv-x="629" 
d="M330 0h-164v1516h164v-1516zM707 1510l-166 -260h-123l117 260h172z" />
    <glyph glyph-name="Ldot" unicode="&#x13f;" horiz-adv-x="964" 
d="M932 0h-744v1434h168v-1282h576v-152zM736 666q-40 0 -69.5 28.5t-29.5 70.5q0 40 29 68t70 28t69.5 -27.5t28.5 -68.5t-28.5 -70t-69.5 -29z" />
    <glyph glyph-name="ldot" unicode="&#x140;" horiz-adv-x="645" 
d="M330 0h-164v1516h164v-1516zM549 666q-40 0 -69.5 28.5t-29.5 70.5q0 40 29 68t70 28t69.5 -27.5t28.5 -68.5t-28.5 -70t-69.5 -29z" />
    <glyph glyph-name="Lslash" unicode="&#x141;" horiz-adv-x="964" 
d="M932 0h-744v547l-155 -97v152l155 96v736h168v-631l328 203v-154l-328 -200v-500h576v-152z" />
    <glyph glyph-name="lslash" unicode="&#x142;" horiz-adv-x="561" 
d="M530 811l-174 -123v-688h-164v578l-170 -119v157l170 119v781h164v-670l174 122v-157z" />
    <glyph glyph-name="Nacute" unicode="&#x143;" horiz-adv-x="1532" 
d="M1344 0h-206l-738 1143q-28 43 -46 90h-6q8 -46 8 -197v-1036h-168v1434h218l718 -1125q45 -70 58 -96h4q-10 62 -10 211v1010h168v-1434zM1006 1894l-262 -328h-127l223 328h166z" />
    <glyph glyph-name="nacute" unicode="&#x144;" horiz-adv-x="1159" 
d="M1016 0h-164v584q0 326 -238 326q-123 0 -203.5 -92.5t-80.5 -233.5v-584h-164v1024h164v-170h4q116 194 336 194q168 0 257 -108.5t89 -313.5v-626zM836 1546l-262 -328h-127l223 328h166z" />
    <glyph glyph-name="Ncommaaccent" unicode="&#x145;" horiz-adv-x="1532" 
d="M1344 0h-206l-738 1143q-28 43 -46 90h-6q8 -46 8 -197v-1036h-168v1434h218l718 -1125q45 -70 58 -96h4q-10 62 -10 211v1010h168v-1434zM870 -119l-166 -260h-123l117 260h172z" />
    <glyph glyph-name="ncommaaccent" unicode="&#x146;" horiz-adv-x="1159" 
d="M1016 0h-164v584q0 326 -238 326q-123 0 -203.5 -92.5t-80.5 -233.5v-584h-164v1024h164v-170h4q116 194 336 194q168 0 257 -108.5t89 -313.5v-626zM693 -119l-166 -260h-123l117 260h172z" />
    <glyph glyph-name="Ncaron" unicode="&#x147;" horiz-adv-x="1532" 
d="M1344 0h-206l-738 1143q-28 43 -46 90h-6q8 -46 8 -197v-1036h-168v1434h218l718 -1125q45 -70 58 -96h4q-10 62 -10 211v1010h168v-1434zM1046 1896l-214 -330h-132l-216 330h115l164 -229l164 229h119z" />
    <glyph glyph-name="ncaron" unicode="&#x148;" horiz-adv-x="1159" 
d="M1016 0h-164v584q0 326 -238 326q-123 0 -203.5 -92.5t-80.5 -233.5v-584h-164v1024h164v-170h4q116 194 336 194q168 0 257 -108.5t89 -313.5v-626zM882 1548l-214 -330h-132l-216 330h115l164 -229l164 229h119z" />
    <glyph glyph-name="napostrophe" unicode="&#x149;" horiz-adv-x="1241" 
d="M1098 0h-164v584q0 326 -238 326q-123 0 -203.5 -92.5t-80.5 -233.5v-584h-164v1024h164v-170h4q116 194 336 194q168 0 257 -108.5t89 -313.5v-626zM218 1458l-140 -446h-118l111 446h147z" />
    <glyph glyph-name="Eng" unicode="&#x14a;" horiz-adv-x="1532" 
d="M400 1143q-22 32 -46 90h-6q8 -53 8 -197v-1036h-168v1434h218l718 -1066q2 -2 58 -104h4q-10 72 -10 220v950h168v-1370q0 -486 -365 -486q-76 0 -137 31v165q78 -44 141 -44q189 0 189 270z" />
    <glyph glyph-name="eng" unicode="&#x14b;" horiz-adv-x="1159" 
d="M1016 26q0 -448 -358 -448q-76 0 -138 31v165q78 -44 142 -44q190 0 190 270v584q0 326 -238 326q-122 0 -203 -92.5t-81 -233.5v-584h-164v1024h164v-170h4q117 194 336 194q346 0 346 -422v-600z" />
    <glyph glyph-name="Omacron" unicode="&#x14c;" horiz-adv-x="1544" 
d="M766 -24q-305 0 -488.5 201t-183.5 523q0 346 187 552t509 206q297 0 478.5 -200t181.5 -523q0 -351 -186 -555t-498 -204zM778 1306q-226 0 -367 -163t-141 -428t137.5 -426.5t358.5 -161.5q236 0 372 154t136 431q0 284 -132 439t-364 155zM1032 1566h-508v109h508
v-109z" />
    <glyph glyph-name="omacron" unicode="&#x14d;" horiz-adv-x="1200" 
d="M594 -24q-227 0 -362.5 143.5t-135.5 380.5q0 258 141 403t381 145q229 0 357.5 -141t128.5 -391q0 -245 -138.5 -392.5t-371.5 -147.5zM606 910q-158 0 -250 -107.5t-92 -296.5q0 -182 93 -287t249 -105q159 0 244.5 103t85.5 293q0 192 -85.5 296t-244.5 104zM854 1218
h-508v109h508v-109z" />
    <glyph glyph-name="Obreve" unicode="&#x14e;" horiz-adv-x="1544" 
d="M766 -24q-305 0 -488.5 201t-183.5 523q0 346 187 552t509 206q297 0 478.5 -200t181.5 -523q0 -351 -186 -555t-498 -204zM778 1306q-226 0 -367 -163t-141 -428t137.5 -426.5t358.5 -161.5q236 0 372 154t136 431q0 284 -132 439t-364 155zM1057 1819
q-10 -112 -88 -182t-190 -70q-117 0 -191.5 69t-78.5 183h100q12 -155 172 -155q68 0 116.5 42t57.5 113h102z" />
    <glyph glyph-name="obreve" unicode="&#x14f;" horiz-adv-x="1200" 
d="M594 -24q-227 0 -362.5 143.5t-135.5 380.5q0 258 141 403t381 145q229 0 357.5 -141t128.5 -391q0 -245 -138.5 -392.5t-371.5 -147.5zM606 910q-158 0 -250 -107.5t-92 -296.5q0 -182 93 -287t249 -105q159 0 244.5 103t85.5 293q0 192 -85.5 296t-244.5 104zM894 1470
q-10 -112 -88 -182t-190 -70q-117 0 -191.5 69t-78.5 183h100q12 -155 172 -155q68 0 116.5 42t57.5 113h102z" />
    <glyph glyph-name="Ohungarumlaut" unicode="&#x150;" horiz-adv-x="1544" 
d="M766 -24q-305 0 -488.5 201t-183.5 523q0 346 187 552t509 206q297 0 478.5 -200t181.5 -523q0 -351 -186 -555t-498 -204zM778 1306q-226 0 -367 -163t-141 -428t137.5 -426.5t358.5 -161.5q236 0 372 154t136 431q0 284 -132 439t-364 155zM1128 1886l-245 -318h-97
l209 318h133zM881 1886l-240 -318h-96l206 318h130z" />
    <glyph glyph-name="ohungarumlaut" unicode="&#x151;" horiz-adv-x="1200" 
d="M594 -24q-227 0 -362.5 143.5t-135.5 380.5q0 258 141 403t381 145q229 0 357.5 -141t128.5 -391q0 -245 -138.5 -392.5t-371.5 -147.5zM606 910q-158 0 -250 -107.5t-92 -296.5q0 -182 93 -287t249 -105q159 0 244.5 103t85.5 293q0 192 -85.5 296t-244.5 104zM966 1536
l-245 -318h-97l209 318h133zM719 1536l-240 -318h-96l206 318h130z" />
    <glyph glyph-name="OE" unicode="&#x152;" horiz-adv-x="1906" 
d="M1810 0h-720q-16 0 -138 -14q-98 -10 -182 -10q-312 0 -494 201t-182 523q0 346 189.5 552t514.5 206q90 0 178 -10q112 -14 114 -14h688v-152h-560v-477h518v-151h-518v-502h592v-152zM1050 160v1118q-160 28 -268 28q-229 0 -370.5 -166t-141.5 -425q0 -258 139.5 -423
t366.5 -165q116 0 274 33z" />
    <glyph glyph-name="oe" unicode="&#x153;" 
d="M1825 471h-725q3 -171 91.5 -264t242.5 -93q175 0 319 114v-154q-136 -98 -357 -98q-270 0 -382 237h-4q-131 -237 -416 -237q-229 0 -363.5 143t-134.5 379q0 258 142 404t382 146q294 0 402 -235h4q119 235 385 235q196 0 305 -131.5t109 -357.5v-88zM1657 610
q-2 142 -69 221t-183 79q-120 0 -203.5 -85.5t-99.5 -214.5h555zM606 910q-158 0 -250 -108.5t-92 -299.5q0 -180 92 -284t248 -104q159 0 245.5 102.5t86.5 291.5q0 194 -86.5 298t-243.5 104z" />
    <glyph glyph-name="Racute" unicode="&#x154;" horiz-adv-x="1225" 
d="M1216 0h-200l-240 402q-33 56 -64 95.5t-63.5 64.5t-70 36.5t-84.5 11.5h-138v-610h-168v1434h428q94 0 173.5 -23.5t138 -71.5t91.5 -119.5t33 -167.5q0 -75 -22.5 -137.5t-64 -111.5t-100 -83.5t-131.5 -53.5v-4q36 -16 62.5 -36.5t50.5 -48.5t47.5 -63.5t52.5 -82.5z
M356 1282v-520h228q63 0 116.5 19t92.5 54.5t61 87t22 115.5q0 115 -74.5 179.5t-215.5 64.5h-230zM875 1894l-262 -328h-127l223 328h166z" />
    <glyph glyph-name="racute" unicode="&#x155;" horiz-adv-x="712" 
d="M700 858q-43 33 -124 33q-105 0 -175.5 -99t-70.5 -270v-522h-164v1024h164v-211h4q35 108 107 168.5t161 60.5q64 0 98 -14v-170zM688 1546l-262 -328h-127l223 328h166z" />
    <glyph glyph-name="Rcommaaccent" unicode="&#x156;" horiz-adv-x="1225" 
d="M1216 0h-200l-240 402q-33 56 -64 95.5t-63.5 64.5t-70 36.5t-84.5 11.5h-138v-610h-168v1434h428q94 0 173.5 -23.5t138 -71.5t91.5 -119.5t33 -167.5q0 -75 -22.5 -137.5t-64 -111.5t-100 -83.5t-131.5 -53.5v-4q36 -16 62.5 -36.5t50.5 -48.5t47.5 -63.5t52.5 -82.5z
M356 1282v-520h228q63 0 116.5 19t92.5 54.5t61 87t22 115.5q0 115 -74.5 179.5t-215.5 64.5h-230zM736 -119l-166 -260h-123l117 260h172z" />
    <glyph glyph-name="rcommaaccent" unicode="&#x157;" horiz-adv-x="712" 
d="M700 858q-43 33 -124 33q-105 0 -175.5 -99t-70.5 -270v-522h-164v1024h164v-211h4q35 108 107 168.5t161 60.5q64 0 98 -14v-170zM533 -119l-166 -260h-123l117 260h172z" />
    <glyph glyph-name="Rcaron" unicode="&#x158;" horiz-adv-x="1225" 
d="M1216 0h-200l-240 402q-33 56 -64 95.5t-63.5 64.5t-70 36.5t-84.5 11.5h-138v-610h-168v1434h428q94 0 173.5 -23.5t138 -71.5t91.5 -119.5t33 -167.5q0 -75 -22.5 -137.5t-64 -111.5t-100 -83.5t-131.5 -53.5v-4q36 -16 62.5 -36.5t50.5 -48.5t47.5 -63.5t52.5 -82.5z
M356 1282v-520h228q63 0 116.5 19t92.5 54.5t61 87t22 115.5q0 115 -74.5 179.5t-215.5 64.5h-230zM891 1896l-214 -330h-132l-216 330h115l164 -229l164 229h119z" />
    <glyph glyph-name="rcaron" unicode="&#x159;" horiz-adv-x="712" 
d="M700 858q-43 33 -124 33q-105 0 -175.5 -99t-70.5 -270v-522h-164v1024h164v-211h4q35 108 107 168.5t161 60.5q64 0 98 -14v-170zM713 1548l-214 -330h-132l-216 330h115l164 -229l164 229h119z" />
    <glyph glyph-name="Sacute" unicode="&#x15a;" horiz-adv-x="1088" 
d="M121 58v198q34 -30 81.5 -54t100 -40.5t105.5 -25.5t98 -9q155 0 231.5 57.5t76.5 165.5q0 58 -25.5 101t-70.5 78.5t-106.5 68t-132.5 68.5q-75 38 -140 77t-113 86t-75.5 106.5t-27.5 139.5q0 98 43 170.5t113 119.5t159.5 70t182.5 23q212 0 309 -51v-189
q-127 88 -326 88q-55 0 -110 -11.5t-98 -37.5t-70 -67t-27 -100q0 -55 20.5 -95t60.5 -73t97.5 -64t132.5 -68q77 -38 146 -80t121 -93t82.5 -113t30.5 -142q0 -106 -41.5 -179.5t-112 -119.5t-162.5 -66.5t-194 -20.5q-34 0 -84 5.5t-102 16t-98.5 26t-74.5 34.5zM821 1893
l-262 -328h-127l223 328h166z" />
    <glyph glyph-name="sacute" unicode="&#x15b;" horiz-adv-x="869" 
d="M104 37v176q134 -99 295 -99q216 0 216 144q0 41 -18.5 69.5t-50 50.5t-74 39.5t-91.5 36.5q-68 27 -119.5 54.5t-86 62t-52 78.5t-17.5 103q0 72 33 127.5t88 93t125.5 56.5t145.5 19q133 0 238 -46v-166q-113 74 -260 74q-46 0 -83 -10.5t-63.5 -29.5t-41 -45.5
t-14.5 -58.5q0 -40 14.5 -67t42.5 -48t68 -38t91 -37q68 -26 122 -53.5t92 -62t58.5 -79.5t20.5 -107q0 -76 -33.5 -132t-89.5 -93t-129 -55t-153 -18q-158 0 -274 61zM714 1546l-262 -328h-127l223 328h166z" />
    <glyph glyph-name="Scircumflex" unicode="&#x15c;" horiz-adv-x="1088" 
d="M121 58v198q34 -30 81.5 -54t100 -40.5t105.5 -25.5t98 -9q155 0 231.5 57.5t76.5 165.5q0 58 -25.5 101t-70.5 78.5t-106.5 68t-132.5 68.5q-75 38 -140 77t-113 86t-75.5 106.5t-27.5 139.5q0 98 43 170.5t113 119.5t159.5 70t182.5 23q212 0 309 -51v-189
q-127 88 -326 88q-55 0 -110 -11.5t-98 -37.5t-70 -67t-27 -100q0 -55 20.5 -95t60.5 -73t97.5 -64t132.5 -68q77 -38 146 -80t121 -93t82.5 -113t30.5 -142q0 -106 -41.5 -179.5t-112 -119.5t-162.5 -66.5t-194 -20.5q-34 0 -84 5.5t-102 16t-98.5 26t-74.5 34.5zM833 1566
h-122l-164 230l-165 -230h-113l215 332h133z" />
    <glyph glyph-name="scircumflex" unicode="&#x15d;" horiz-adv-x="869" 
d="M104 37v176q134 -99 295 -99q216 0 216 144q0 41 -18.5 69.5t-50 50.5t-74 39.5t-91.5 36.5q-68 27 -119.5 54.5t-86 62t-52 78.5t-17.5 103q0 72 33 127.5t88 93t125.5 56.5t145.5 19q133 0 238 -46v-166q-113 74 -260 74q-46 0 -83 -10.5t-63.5 -29.5t-41 -45.5
t-14.5 -58.5q0 -40 14.5 -67t42.5 -48t68 -38t91 -37q68 -26 122 -53.5t92 -62t58.5 -79.5t20.5 -107q0 -76 -33.5 -132t-89.5 -93t-129 -55t-153 -18q-158 0 -274 61zM711 1218h-122l-164 230l-165 -230h-113l215 332h133z" />
    <glyph glyph-name="Scedilla" unicode="&#x15e;" horiz-adv-x="1088" 
d="M121 58v198q34 -30 81.5 -54t100 -40.5t105.5 -25.5t98 -9q155 0 231.5 57.5t76.5 165.5q0 58 -25.5 101t-70.5 78.5t-106.5 68t-132.5 68.5q-75 38 -140 77t-113 86t-75.5 106.5t-27.5 139.5q0 98 43 170.5t113 119.5t159.5 70t182.5 23q212 0 309 -51v-189
q-127 88 -326 88q-55 0 -110 -11.5t-98 -37.5t-70 -67t-27 -100q0 -55 20.5 -95t60.5 -73t97.5 -64t132.5 -68q77 -38 146 -80t121 -93t82.5 -113t30.5 -142q0 -93 -32.5 -161.5t-89 -114.5t-132.5 -71.5t-162 -33.5v-85q87 0 139 -41t52 -111q0 -176 -275 -176q-38 0 -65 2
v90q37 -6 69 -6q142 0 142 90q0 78 -130 78q-12 0 -40 -4v158q-36 1 -84.5 7t-97.5 16.5t-92.5 25.5t-70.5 33z" />
    <glyph glyph-name="scedilla" unicode="&#x15f;" horiz-adv-x="869" 
d="M104 37v176q134 -99 295 -99q216 0 216 144q0 41 -18.5 69.5t-50 50.5t-74 39.5t-91.5 36.5q-68 27 -119.5 54.5t-86 62t-52 78.5t-17.5 103q0 72 33 127.5t88 93t125.5 56.5t145.5 19q133 0 238 -46v-166q-113 74 -260 74q-46 0 -83 -10.5t-63.5 -29.5t-41 -45.5
t-14.5 -58.5q0 -40 14.5 -67t42.5 -48t68 -38t91 -37q68 -26 122 -53.5t92 -62t58.5 -79.5t20.5 -107q0 -66 -25.5 -117t-69.5 -87.5t-103 -58.5t-125 -30v-85q87 0 138.5 -41.5t51.5 -110.5q0 -176 -275 -176q-38 0 -65 2v90q36 -6 70 -6q140 0 140 90q0 78 -128 78
q-12 0 -42 -4v159q-139 4 -246 60z" />
    <glyph glyph-name="Scaron" unicode="&#x160;" horiz-adv-x="1088" 
d="M121 58v198q34 -30 81.5 -54t100 -40.5t105.5 -25.5t98 -9q155 0 231.5 57.5t76.5 165.5q0 58 -25.5 101t-70.5 78.5t-106.5 68t-132.5 68.5q-75 38 -140 77t-113 86t-75.5 106.5t-27.5 139.5q0 98 43 170.5t113 119.5t159.5 70t182.5 23q212 0 309 -51v-189
q-127 88 -326 88q-55 0 -110 -11.5t-98 -37.5t-70 -67t-27 -100q0 -55 20.5 -95t60.5 -73t97.5 -64t132.5 -68q77 -38 146 -80t121 -93t82.5 -113t30.5 -142q0 -106 -41.5 -179.5t-112 -119.5t-162.5 -66.5t-194 -20.5q-34 0 -84 5.5t-102 16t-98.5 26t-74.5 34.5zM826 1898
l-214 -330h-132l-216 330h115l164 -229l164 229h119z" />
    <glyph glyph-name="scaron" unicode="&#x161;" horiz-adv-x="869" 
d="M104 37v176q134 -99 295 -99q216 0 216 144q0 41 -18.5 69.5t-50 50.5t-74 39.5t-91.5 36.5q-68 27 -119.5 54.5t-86 62t-52 78.5t-17.5 103q0 72 33 127.5t88 93t125.5 56.5t145.5 19q133 0 238 -46v-166q-113 74 -260 74q-46 0 -83 -10.5t-63.5 -29.5t-41 -45.5
t-14.5 -58.5q0 -40 14.5 -67t42.5 -48t68 -38t91 -37q68 -26 122 -53.5t92 -62t58.5 -79.5t20.5 -107q0 -76 -33.5 -132t-89.5 -93t-129 -55t-153 -18q-158 0 -274 61zM682 1548l-214 -330h-132l-216 330h115l164 -229l164 229h119z" />
    <glyph glyph-name="Tcommaaccent" unicode="&#x162;" horiz-adv-x="1073" 
d="M424 -430v90q37 -6 70 -6q141 0 141 90q0 78 -129 78q-12 0 -41 -4v182h-11v1282h-413v152h995v-152h-414v-1282h-48v-104q87 0 138.5 -41t51.5 -111q0 -176 -275 -176q-38 0 -65 2z" />
    <glyph glyph-name="tcommaaccent" unicode="&#x163;" horiz-adv-x="694" 
d="M326 -430v90q36 -6 70 -6q140 0 140 90q0 78 -128 78q-12 0 -42 -4v179q-147 55 -147 281v606h-176v140h176v250q4 2 82 27l82 26v-303h258v-140h-258v-577q0 -103 34.5 -147t116.5 -44q60 0 107 34v-140q-61 -34 -153 -32h-13v-82q87 0 139 -41.5t52 -110.5
q0 -176 -275 -176q-38 0 -65 2z" />
    <glyph glyph-name="Tcaron" unicode="&#x164;" horiz-adv-x="1073" 
d="M1036 1282h-414v-1282h-168v1282h-413v152h995v-152zM821 1896l-214 -330h-132l-216 330h115l164 -229l164 229h119z" />
    <glyph glyph-name="tcaron" unicode="&#x165;" horiz-adv-x="901" 
d="M641 10q-58 -32 -153 -32q-269 0 -269 300v606h-176v140h176v250l164 53v-303h258v-140h-258v-577q0 -103 35 -147t116 -44q62 0 107 34v-140zM979 1394l-166 -260h-123l117 260h172z" />
    <glyph glyph-name="Tbar" unicode="&#x166;" horiz-adv-x="1073" 
d="M1036 1282h-414v-486h246v-155h-246v-641h-168v641h-249v155h249v486h-413v152h995v-152z" />
    <glyph glyph-name="tbar" unicode="&#x167;" horiz-adv-x="694" 
d="M631 547h-248v-240q0 -103 34.5 -147t116.5 -44q60 0 107 34v-140q-58 -32 -153 -32q-269 0 -269 300v269h-163v133h163v204h-176v140h176v250q4 2 82 27l82 26v-303h258v-140h-258v-204h248v-133z" />
    <glyph glyph-name="Utilde" unicode="&#x168;" horiz-adv-x="1407" 
d="M1237 580q0 -604 -545 -604q-522 0 -522 581v877h168v-866q0 -441 372 -441q359 0 359 426v881h168v-854zM1027 1806q0 -105 -48 -171.5t-130 -66.5q-71 0 -162 52q-77 43 -119 43q-88 0 -88 -113h-94q0 107 48 171.5t134 64.5q65 0 149 -52q74 -44 128 -44q84 0 84 116
h98z" />
    <glyph glyph-name="utilde" unicode="&#x169;" horiz-adv-x="1159" 
d="M994 0h-164v162h-4q-102 -186 -316 -186q-366 0 -366 436v612h163v-586q0 -324 248 -324q120 0 197.5 88.5t77.5 231.5v590h164v-1024zM890 1458q0 -105 -48 -171.5t-130 -66.5q-71 0 -162 52q-77 43 -119 43q-88 0 -88 -113h-94q0 107 48 171.5t134 64.5q65 0 149 -52
q74 -44 128 -44q84 0 84 116h98z" />
    <glyph glyph-name="Umacron" unicode="&#x16a;" horiz-adv-x="1407" 
d="M1237 580q0 -604 -545 -604q-522 0 -522 581v877h168v-866q0 -441 372 -441q359 0 359 426v881h168v-854zM957 1566h-508v109h508v-109z" />
    <glyph glyph-name="umacron" unicode="&#x16b;" horiz-adv-x="1159" 
d="M994 0h-164v162h-4q-102 -186 -316 -186q-366 0 -366 436v612h163v-586q0 -324 248 -324q120 0 197.5 88.5t77.5 231.5v590h164v-1024zM819 1218h-508v109h508v-109z" />
    <glyph glyph-name="Ubreve" unicode="&#x16c;" horiz-adv-x="1407" 
d="M1237 580q0 -604 -545 -604q-522 0 -522 581v877h168v-866q0 -441 372 -441q359 0 359 426v881h168v-854zM977 1819q-10 -112 -88 -182t-190 -70q-117 0 -191.5 69t-78.5 183h100q12 -155 172 -155q68 0 116.5 42t57.5 113h102z" />
    <glyph glyph-name="ubreve" unicode="&#x16d;" horiz-adv-x="1159" 
d="M994 0h-164v162h-4q-102 -186 -316 -186q-366 0 -366 436v612h163v-586q0 -324 248 -324q120 0 197.5 88.5t77.5 231.5v590h164v-1024zM838 1470q-10 -112 -88 -182t-190 -70q-117 0 -191.5 69t-78.5 183h100q12 -155 172 -155q68 0 116.5 42t57.5 113h102z" />
    <glyph glyph-name="Uring" unicode="&#x16e;" horiz-adv-x="1407" 
d="M1237 580q0 -604 -545 -604q-522 0 -522 581v877h168v-866q0 -441 372 -441q359 0 359 426v881h168v-854zM682 1567q-87 0 -144.5 52.5t-57.5 137.5q0 90 59 144t150 54q89 0 146 -54t57 -138t-61 -140t-149 -56zM682 1874q-48 0 -80 -32.5t-32 -80.5q0 -112 112 -112
q50 0 83 32t33 80q0 49 -33 81t-83 32z" />
    <glyph glyph-name="uring" unicode="&#x16f;" horiz-adv-x="1159" 
d="M994 0h-164v162h-4q-102 -186 -316 -186q-366 0 -366 436v612h163v-586q0 -324 248 -324q120 0 197.5 88.5t77.5 231.5v590h164v-1024zM564 1176q-87 0 -144.5 52.5t-57.5 137.5q0 90 59 144t150 54q89 0 146 -54t57 -138t-61 -140t-149 -56zM564 1483q-48 0 -80 -32.5
t-32 -80.5q0 -112 112 -112q50 0 83 32t33 80q0 49 -33 81t-83 32z" />
    <glyph glyph-name="Uhungarumlaut" unicode="&#x170;" horiz-adv-x="1407" 
d="M1237 580q0 -604 -545 -604q-522 0 -522 581v877h168v-866q0 -441 372 -441q359 0 359 426v881h168v-854zM1050 1884l-245 -318h-97l209 318h133zM803 1884l-240 -318h-96l206 318h130z" />
    <glyph glyph-name="uhungarumlaut" unicode="&#x171;" horiz-adv-x="1159" 
d="M994 0h-164v162h-4q-102 -186 -316 -186q-366 0 -366 436v612h163v-586q0 -324 248 -324q120 0 197.5 88.5t77.5 231.5v590h164v-1024zM908 1536l-245 -318h-97l209 318h133zM661 1536l-240 -318h-96l206 318h130z" />
    <glyph glyph-name="Uogonek" unicode="&#x172;" horiz-adv-x="1407" 
d="M878 -316q-57 -22 -128 -22q-75 0 -120.5 46.5t-45.5 125.5q0 62 50 144q-464 32 -464 579v877h168v-866q0 -441 372 -441q359 0 359 426v881h168v-854q0 -567 -479 -602q-46 -82 -46 -144q0 -66 67 -66q49 0 99 25v-109z" />
    <glyph glyph-name="uogonek" unicode="&#x173;" horiz-adv-x="1159" 
d="M1059 -316q-57 -22 -127 -22q-76 0 -121 47t-45 125q0 66 64 166v162h-4q-104 -186 -316 -186q-366 0 -366 436v612h163v-586q0 -324 248 -324q120 0 197.5 88.5t77.5 231.5v590h164v-1024h-42q-59 -100 -59 -166t67 -66q50 0 99 25v-109z" />
    <glyph glyph-name="Wcircumflex" unicode="&#x174;" horiz-adv-x="1913" 
d="M1888 1434l-405 -1434h-197l-295 1048q-19 67 -23 146h-4q-6 -74 -26 -144l-297 -1050h-195l-420 1434h185l305 -1100q19 -69 24 -144h5q5 53 31 144l317 1100h161l304 -1108q16 -57 24 -134h4q4 52 27 138l293 1104h182zM1259 1566h-122l-164 230l-165 -230h-113
l215 332h133z" />
    <glyph glyph-name="wcircumflex" unicode="&#x175;" horiz-adv-x="1480" 
d="M1456 1024l-307 -1024h-170l-211 733q-12 42 -16 95h-4q-3 -36 -21 -93l-229 -735h-164l-310 1024h172l212 -770q10 -35 14 -92h8q3 44 18 94l236 768h150l212 -772q10 -37 15 -92h8q2 39 17 92l208 772h162zM1040 1218h-122l-164 230l-165 -230h-113l215 332h133z" />
    <glyph glyph-name="Ycircumflex" unicode="&#x176;" horiz-adv-x="1132" 
d="M1120 1434l-473 -904v-530h-168v526l-461 908h191l321 -648q6 -12 35 -88h3q10 34 38 88l336 648h178zM853 1565h-122l-164 230l-165 -230h-113l215 332h133z" />
    <glyph glyph-name="ycircumflex" unicode="&#x177;" horiz-adv-x="991" 
d="M981 1024l-471 -1188q-126 -318 -354 -318q-64 0 -107 13v147q53 -18 97 -18q124 0 186 148l82 194l-400 1022h182l277 -788q5 -15 21 -78h6q5 24 20 76l291 790h170zM796 1218h-122l-164 230l-165 -230h-113l215 332h133z" />
    <glyph glyph-name="Ydieresis" unicode="&#x178;" horiz-adv-x="1132" 
d="M1120 1434l-473 -904v-530h-168v526l-461 908h191l321 -648q6 -12 35 -88h3q10 34 38 88l336 648h178zM759 1565q-40 0 -69 28t-29 71q0 42 28 70t68 28q42 0 71 -28.5t29 -69.5t-28 -70t-70 -29zM375 1565q-42 0 -71.5 29.5t-29.5 69.5q0 42 28.5 70t69.5 28t71 -28.5
t30 -69.5t-29 -70t-69 -29z" />
    <glyph glyph-name="Zacute" unicode="&#x179;" horiz-adv-x="1168" 
d="M1124 1394l-840 -1242h820v-152h-1071v47l833 1235h-766v152h1024v-40zM868 1895l-262 -328h-127l223 328h166z" />
    <glyph glyph-name="zacute" unicode="&#x17a;" horiz-adv-x="926" 
d="M880 977l-606 -837h600v-140h-841v51l606 833h-549v140h790v-47zM723 1546l-262 -328h-127l223 328h166z" />
    <glyph glyph-name="Zdotaccent" unicode="&#x17b;" horiz-adv-x="1168" 
d="M1124 1394l-840 -1242h820v-152h-1071v47l833 1235h-766v152h1024v-40zM594 1566q-40 0 -69.5 28.5t-29.5 70.5q0 40 29 68t70 28t69.5 -27.5t28.5 -68.5t-28.5 -70t-69.5 -29z" />
    <glyph glyph-name="zdotaccent" unicode="&#x17c;" horiz-adv-x="926" 
d="M880 977l-606 -837h600v-140h-841v51l606 833h-549v140h790v-47zM486 1218q-40 0 -69.5 28.5t-29.5 70.5q0 40 29 68t70 28t69.5 -27.5t28.5 -68.5t-28.5 -70t-69.5 -29z" />
    <glyph glyph-name="Zcaron" unicode="&#x17d;" horiz-adv-x="1168" 
d="M1124 1394l-840 -1242h820v-152h-1071v47l833 1235h-766v152h1024v-40zM900 1895l-214 -330h-132l-216 330h115l164 -229l164 229h119z" />
    <glyph glyph-name="zcaron" unicode="&#x17e;" horiz-adv-x="926" 
d="M880 977l-606 -837h600v-140h-841v51l606 833h-549v140h790v-47zM782 1548l-214 -330h-132l-216 330h115l164 -229l164 229h119z" />
    <glyph glyph-name="longs" unicode="&#x17f;" horiz-adv-x="494" 
d="M610 1372q-46 27 -108 27q-172 0 -172 -217v-1182h-164v1190q0 161 94.5 254.5t231.5 93.5q74 0 118 -18v-148z" />
    <glyph glyph-name="florin" unicode="&#x192;" horiz-adv-x="1104" 
d="M952 1266q-48 28 -108 28q-146 0 -170 -160l-31 -208h166v-138h-187l-90 -648q-58 -418 -348 -418q-31 0 -90 16v143q36 -21 86 -21q150 0 190 292l91 636h-103v138h124l28 219q17 131 104.5 210t221.5 79q64 0 116 -19v-149z" />
    <glyph glyph-name="uni0194" unicode="&#x194;" horiz-adv-x="1272" 
d="M1254 1434l-514 -1336l6 -12q114 -228 114 -338q0 -97 -68.5 -163.5t-167.5 -66.5q-96 0 -161 65t-65 165q0 61 20.5 119.5t97.5 212.5l8 16l-506 1338h187l397 -1092q21 -58 29 -112h4q13 57 33 112l405 1092h181zM628 -39q-67 -141 -67 -209q0 -88 67 -88q68 0 68 88
q0 68 -68 209z" />
    <glyph glyph-name="uni01CD" unicode="&#x1cd;" horiz-adv-x="1321" 
d="M1298 0h-186l-152 402h-608l-143 -402h-187l550 1434h174zM905 553l-225 611q-11 30 -22 96h-4q-10 -61 -23 -96l-223 -611h497zM938 1890l-214 -330h-132l-216 330h115l164 -229l164 229h119z" />
    <glyph glyph-name="uni01CE" unicode="&#x1ce;" horiz-adv-x="1034" 
d="M891 0h-164v160h-4q-107 -184 -315 -184q-153 0 -239.5 81t-86.5 215q0 287 338 334l307 43q0 261 -211 261q-185 0 -334 -126v168q151 96 348 96q361 0 361 -382v-666zM727 518l-247 -34q-114 -16 -172 -56.5t-58 -143.5q0 -75 53.5 -122.5t142.5 -47.5
q122 0 201.5 85.5t79.5 216.5v102zM791 1548l-214 -330h-132l-216 330h115l164 -229l164 229h119z" />
    <glyph glyph-name="uni01CF" unicode="&#x1cf;" horiz-adv-x="545" 
d="M496 1434v-144h-140v-1146h140v-144h-448v144h140v1146h-140v144h448zM553 1890l-214 -330h-132l-216 330h115l164 -229l164 229h119z" />
    <glyph glyph-name="uni01D0" unicode="&#x1d0;" horiz-adv-x="496" 
d="M330 0h-164v1024h164v-1024zM529 1548l-214 -330h-132l-216 330h115l164 -229l164 229h119z" />
    <glyph glyph-name="uni01D1" unicode="&#x1d1;" horiz-adv-x="1544" 
d="M766 -24q-305 0 -488.5 201t-183.5 523q0 346 187 552t509 206q297 0 478.5 -200t181.5 -523q0 -351 -186 -555t-498 -204zM778 1306q-226 0 -367 -163t-141 -428t137.5 -426.5t358.5 -161.5q236 0 372 154t136 431q0 284 -132 439t-364 155zM1053 1890l-214 -330h-132
l-216 330h115l164 -229l164 229h119z" />
    <glyph glyph-name="uni01D2" unicode="&#x1d2;" horiz-adv-x="1200" 
d="M594 -24q-227 0 -362.5 143.5t-135.5 380.5q0 258 141 403t381 145q229 0 357.5 -141t128.5 -391q0 -245 -138.5 -392.5t-371.5 -147.5zM606 910q-158 0 -250 -107.5t-92 -296.5q0 -182 93 -287t249 -105q159 0 244.5 103t85.5 293q0 192 -85.5 296t-244.5 104zM881 1548
l-214 -330h-132l-216 330h115l164 -229l164 229h119z" />
    <glyph glyph-name="uni01D3" unicode="&#x1d3;" horiz-adv-x="1407" 
d="M1237 580q0 -604 -545 -604q-522 0 -522 581v877h168v-866q0 -441 372 -441q359 0 359 426v881h168v-854zM985 1890l-214 -330h-132l-216 330h115l164 -229l164 229h119z" />
    <glyph glyph-name="uni01D4" unicode="&#x1d4;" horiz-adv-x="1159" 
d="M994 0h-164v162h-4q-102 -186 -316 -186q-366 0 -366 436v612h163v-586q0 -324 248 -324q120 0 197.5 88.5t77.5 231.5v590h164v-1024zM860 1548l-214 -330h-132l-216 330h115l164 -229l164 229h119z" />
    <glyph glyph-name="uni01D5" unicode="&#x1d5;" horiz-adv-x="1407" 
d="M1237 580q0 -604 -545 -604q-522 0 -522 581v877h168v-866q0 -441 372 -441q359 0 359 426v881h168v-854zM959 1837h-508v109h508v-109zM897 1570q-40 0 -69 28t-29 71q0 42 28.5 70t67.5 28q42 0 71.5 -28.5t29.5 -69.5t-28.5 -70t-70.5 -29zM513 1570q-41 0 -71 28.5
t-30 70.5t28.5 70t70.5 28q41 0 70.5 -28.5t29.5 -69.5t-28.5 -70t-69.5 -29z" />
    <glyph glyph-name="uni01D6" unicode="&#x1d6;" horiz-adv-x="1159" 
d="M994 0h-164v162h-4q-102 -186 -316 -186q-366 0 -366 436v612h163v-586q0 -324 248 -324q120 0 197.5 88.5t77.5 231.5v590h164v-1024zM831 1485h-508v109h508v-109zM769 1218q-40 0 -69 28t-29 71q0 42 28.5 70t67.5 28q42 0 71.5 -28.5t29.5 -69.5t-28.5 -70t-70.5 -29
zM385 1218q-41 0 -71 28.5t-30 70.5t28.5 70t70.5 28q41 0 70.5 -28.5t29.5 -69.5t-28.5 -70t-69.5 -29z" />
    <glyph glyph-name="uni01D7" unicode="&#x1d7;" horiz-adv-x="1407" 
d="M1237 580q0 -604 -545 -604q-522 0 -522 581v877h168v-866q0 -441 372 -441q359 0 359 426v881h168v-854zM1015 2114l-263 -328h-126l223 328h166zM898 1570q-40 0 -69 28t-29 71q0 42 27.5 70t68.5 28q42 0 71 -28.5t29 -69.5t-28 -70t-70 -29zM513 1570q-41 0 -71 28.5
t-30 70.5q0 41 28.5 69.5t70.5 28.5q41 0 71 -28.5t30 -69.5t-29 -70t-70 -29z" />
    <glyph glyph-name="uni01D8" unicode="&#x1d8;" horiz-adv-x="1159" 
d="M994 0h-164v162h-4q-102 -186 -316 -186q-366 0 -366 436v612h163v-586q0 -324 248 -324q120 0 197.5 88.5t77.5 231.5v590h164v-1024zM887 1762l-263 -328h-126l223 328h166zM770 1218q-40 0 -69 28t-29 71q0 42 27.5 70t68.5 28q42 0 71 -28.5t29 -69.5t-28 -70
t-70 -29zM385 1218q-41 0 -71 28.5t-30 70.5q0 41 28.5 69.5t70.5 28.5q41 0 71 -28.5t30 -69.5t-29 -70t-70 -29z" />
    <glyph glyph-name="uni01D9" unicode="&#x1d9;" horiz-adv-x="1407" 
d="M1237 580q0 -604 -545 -604q-522 0 -522 581v877h168v-866q0 -441 372 -441q359 0 359 426v881h168v-854zM986 2138l-213 -330h-133l-215 330h115l164 -230l164 230h118zM898 1570q-40 0 -69 28t-29 71q0 42 27.5 70t68.5 28q42 0 71 -28.5t29 -69.5t-28 -70t-70 -29z
M513 1570q-41 0 -71 28.5t-30 70.5q0 41 28.5 69.5t70.5 28.5q41 0 71 -28.5t30 -69.5t-29 -70t-70 -29z" />
    <glyph glyph-name="uni01DA" unicode="&#x1da;" horiz-adv-x="1159" 
d="M994 0h-164v162h-4q-102 -186 -316 -186q-366 0 -366 436v612h163v-586q0 -324 248 -324q120 0 197.5 88.5t77.5 231.5v590h164v-1024zM858 1786l-213 -330h-133l-215 330h115l164 -230l164 230h118zM770 1218q-40 0 -69 28t-29 71q0 42 27.5 70t68.5 28q42 0 71 -28.5
t29 -69.5t-28 -70t-70 -29zM385 1218q-41 0 -71 28.5t-30 70.5q0 41 28.5 69.5t70.5 28.5q41 0 71 -28.5t30 -69.5t-29 -70t-70 -29z" />
    <glyph glyph-name="uni01DB" unicode="&#x1db;" horiz-adv-x="1407" 
d="M1237 580q0 -604 -545 -604q-522 0 -522 581v877h168v-866q0 -441 372 -441q359 0 359 426v881h168v-854zM783 1786h-127l-263 328h166zM895 1570q-41 0 -69.5 29t-28.5 70t29.5 69.5t70.5 28.5q42 0 70.5 -28.5t28.5 -69.5q0 -42 -30 -70.5t-71 -28.5zM511 1570
q-42 0 -70.5 29t-28.5 70t29.5 69.5t71.5 28.5q39 0 67.5 -28t28.5 -70q0 -43 -29 -71t-69 -28z" />
    <glyph glyph-name="uni01DC" unicode="&#x1dc;" horiz-adv-x="1159" 
d="M994 0h-164v162h-4q-102 -186 -316 -186q-366 0 -366 436v612h163v-586q0 -324 248 -324q120 0 197.5 88.5t77.5 231.5v590h164v-1024zM656 1434h-127l-263 328h166zM768 1218q-41 0 -69.5 29t-28.5 70t29.5 69.5t70.5 28.5q42 0 70.5 -28.5t28.5 -69.5q0 -42 -30 -70.5
t-71 -28.5zM384 1218q-42 0 -70.5 29t-28.5 70t29.5 69.5t71.5 28.5q39 0 67.5 -28t28.5 -70q0 -43 -29 -71t-69 -28z" />
    <glyph glyph-name="uni01F0" unicode="&#x1f0;" horiz-adv-x="496" 
d="M330 43q0 -252 -101.5 -388.5t-290.5 -136.5q-70 0 -136 32v153q74 -45 140 -45q224 0 224 358v1008h164v-981zM528 1548l-214 -330h-132l-216 330h115l164 -229l164 229h119z" />
    <glyph glyph-name="uni022E" unicode="&#x22e;" horiz-adv-x="1544" 
d="M766 -24q-305 0 -488.5 201t-183.5 523q0 346 187 552t509 206q297 0 478.5 -200t181.5 -523q0 -351 -186 -555t-498 -204zM778 1306q-226 0 -367 -163t-141 -428t137.5 -426.5t358.5 -161.5q236 0 372 154t136 431q0 284 -132 439t-364 155zM773 1575q-40 0 -69.5 28.5
t-29.5 70.5q0 40 29 68t70 28t69.5 -27.5t28.5 -68.5t-28.5 -70t-69.5 -29z" />
    <glyph glyph-name="uni022F" unicode="&#x22f;" horiz-adv-x="1200" 
d="M594 -24q-227 0 -362.5 143.5t-135.5 380.5q0 258 141 403t381 145q229 0 357.5 -141t128.5 -391q0 -245 -138.5 -392.5t-371.5 -147.5zM606 910q-158 0 -250 -107.5t-92 -296.5q0 -182 93 -287t249 -105q159 0 244.5 103t85.5 293q0 192 -85.5 296t-244.5 104zM601 1218
q-40 0 -69.5 28.5t-29.5 70.5q0 40 29 68t70 28t69.5 -27.5t28.5 -68.5t-28.5 -70t-69.5 -29z" />
    <glyph glyph-name="uni0259" unicode="&#x259;" horiz-adv-x="1071" 
d="M82 553h723q-4 171 -92 264t-242 93q-174 0 -318 -114v154q134 98 357 98q217 0 341 -139t124 -393q0 -242 -135.5 -391t-335.5 -149q-203 0 -312.5 131t-109.5 360v86zM803 414h-553q2 -141 68 -220.5t188 -79.5q116 0 197.5 83t99.5 217z" />
    <glyph glyph-name="uni0263" unicode="&#x263;" horiz-adv-x="981" 
d="M966 1024l-392 -864l34 -68q94 -188 94 -292q0 -99 -62 -164.5t-161 -65.5q-95 0 -155 65.5t-60 164.5q0 90 98 292l34 68l-382 864h178l294 -702l302 702h178zM484 16q-64 -139 -64 -212q0 -99 64 -99q65 0 65 99q0 64 -65 212z" />
    <glyph glyph-name="circumflex" unicode="&#x2c6;" horiz-adv-x="760" 
d="M656 1218h-122l-164 230l-165 -230h-113l215 332h133z" />
    <glyph glyph-name="tilde" unicode="&#x2dc;" horiz-adv-x="690" 
d="M676 1458q0 -105 -48 -171.5t-130 -66.5q-71 0 -162 52q-77 43 -119 43q-88 0 -88 -113h-94q0 107 48 171.5t134 64.5q65 0 149 -52q74 -44 128 -44q84 0 84 116h98z" />
    <glyph glyph-name="gravecomb" unicode="&#x300;" horiz-adv-x="549" 
d="M450 1218h-126l-222 246h168z" />
    <glyph glyph-name="acutecomb" unicode="&#x301;" horiz-adv-x="549" 
d="M100 1218l180 246h168l-220 -246h-128z" />
    <glyph glyph-name="uni0302" unicode="&#x302;" horiz-adv-x="0" 
d="M282 1218h-120l-164 230l-166 -230h-112l214 332h134z" />
    <glyph glyph-name="tildecomb" unicode="&#x303;" horiz-adv-x="0" 
d="M322 1458q0 -105 -48 -171.5t-130 -66.5q-71 0 -162 52q-77 43 -119 43q-89 0 -89 -113h-94q0 106 48.5 171t134.5 65q65 0 149 -52q74 -44 128 -44q83 0 83 116h99z" />
    <glyph glyph-name="uni0304" unicode="&#x304;" horiz-adv-x="0" 
d="M254 1218h-508v109h508v-109z" />
    <glyph glyph-name="uni0306" unicode="&#x306;" horiz-adv-x="0" 
d="M274 1470q-10 -112 -88 -182t-190 -70q-117 0 -191.5 69t-78.5 183h100q12 -155 172 -155q68 0 116.5 42t57.5 113h102z" />
    <glyph glyph-name="uni0307" unicode="&#x307;" horiz-adv-x="0" 
d="M0 1218q-40 0 -69 29t-29 70t29 68.5t69 27.5q41 0 69.5 -27.5t28.5 -68.5t-28.5 -70t-69.5 -29z" />
    <glyph glyph-name="uni0308" unicode="&#x308;" horiz-adv-x="0" 
d="M194 1218q-40 0 -69 28t-29 71q0 42 28 70t68 28q42 0 71.5 -28.5t29.5 -69.5t-28.5 -70t-70.5 -29zM-190 1218q-41 0 -71 28.5t-30 70.5t28.5 70t70.5 28q41 0 70.5 -28.5t29.5 -69.5t-28.5 -70t-69.5 -29z" />
    <glyph glyph-name="uni030A" unicode="&#x30a;" horiz-adv-x="0" 
d="M-2 1176q-89 0 -146 53.5t-57 136.5q0 88 59 143t150 55q89 0 146 -54t57 -138t-61 -140t-148 -56zM-2 1483q-49 0 -80.5 -32.5t-31.5 -80.5q0 -112 112 -112q49 0 81.5 32t32.5 80q0 49 -32.5 81t-81.5 32z" />
    <glyph glyph-name="uni030B" unicode="&#x30b;" horiz-adv-x="0" 
d="M293 1536l-246 -318h-96l209 318h133zM45 1536l-239 -318h-97l207 318h129z" />
    <glyph glyph-name="uni030C" unicode="&#x30c;" horiz-adv-x="0" 
d="M280 1548l-212 -330h-134l-214 330h114l164 -229l164 229h118z" />
    <glyph glyph-name="uni0310" unicode="&#x310;" horiz-adv-x="0" 
d="M0 1446q-40 0 -69 28.5t-29 69.5q0 42 29 69t69 27q41 0 69.5 -27.5t28.5 -68.5q0 -40 -28.5 -69t-69.5 -29zM274 1470q-10 -112 -88 -182t-190 -70q-117 0 -191.5 69t-78.5 183h100q12 -155 172 -155q68 0 116.5 42t57.5 113h102z" />
    <glyph glyph-name="dotbelowcomb" unicode="&#x323;" horiz-adv-x="682" 
d="M341 -314q-41 0 -70 29t-29 70t30 68.5t69 27.5q41 0 70 -27.5t29 -68.5t-29 -70t-70 -29z" />
    <glyph glyph-name="uni0325" unicode="&#x325;" horiz-adv-x="0" 
d="M-1 -386q-87 0 -144.5 52.5t-57.5 137.5q0 90 59 144t150 54q89 0 146 -54t57 -138t-61 -140t-149 -56zM-1 -79q-48 0 -80 -32.5t-32 -80.5q0 -112 112 -112q50 0 83 32t33 80q0 49 -33 81t-83 32z" />
    <glyph glyph-name="uni0327" unicode="&#x327;" horiz-adv-x="0" 
d="M171 -256q0 -176 -275 -176q-38 0 -65 2v90q43 -6 70 -6q141 0 141 90q0 78 -129 78q-10 0 -41 -4v182h108v-104q88 0 139.5 -40t51.5 -112z" />
    <glyph glyph-name="uni0328" unicode="&#x328;" horiz-adv-x="0" 
d="M113 0q-150 -141 -150 -223q0 -70 68 -70q30 0 56 13v-107q-30 -13 -82 -13q-76 0 -122 40t-46 110q0 122 157 250h119z" />
    <glyph glyph-name="uni1801" unicode="&#x1801;" horiz-adv-x="1795" 
d="M672 587q-46 0 -78.5 33t-32.5 79t32.5 79.5t78.5 33.5q47 0 80 -33.5t33 -79.5t-33 -79t-80 -33zM223 587q-46 0 -78.5 33t-32.5 79t32.5 79.5t78.5 33.5q47 0 80 -33.5t33 -79.5t-33 -79t-80 -33zM1570 587q-46 0 -78.5 33t-32.5 79t32.5 79.5t78.5 33.5q47 0 80 -33.5
t33 -79.5t-33 -79t-80 -33zM1121 587q-46 0 -78.5 33t-32.5 79t32.5 79.5t78.5 33.5q47 0 80 -33.5t33 -79.5t-33 -79t-80 -33z" />
    <glyph glyph-name="uni1802" unicode="&#x1802;" horiz-adv-x="500" 
d="M250 980l170 -280l-170 -280l-170 280z" />
    <glyph glyph-name="uni1803" unicode="&#x1803;" horiz-adv-x="1000" 
d="M250 980l170 -280l-170 -280l-170 280zM750 980l170 -280l-170 -280l-170 280z" />
    <glyph glyph-name="uni1804" unicode="&#x1804;" horiz-adv-x="400" 
d="M200 824q-46 0 -78.5 33t-32.5 79t32.5 78t78.5 32q47 0 80 -32t33 -78t-33 -79t-80 -33zM200 -22q-46 0 -78.5 33t-32.5 79t32.5 79.5t78.5 33.5q47 0 80 -33.5t33 -79.5t-33 -79t-80 -33z" />
    <glyph glyph-name="uni1805" unicode="&#x1805;" horiz-adv-x="1100" 
d="M301 980l170 -280l-170 -280l-170 280zM801 980l170 -280l-170 -280l-170 280zM550 1479l170 -280l-170 -280l-170 280zM550 480l170 -280l-170 -280l-170 280z" />
    <glyph glyph-name="uni1E0C" unicode="&#x1e0c;" horiz-adv-x="1436" 
d="M188 0v1434h396q758 0 758 -699q0 -332 -210.5 -533.5t-563.5 -201.5h-380zM356 1282v-1130h214q282 0 439 151t157 428q0 551 -586 551h-224zM681 -314q-41 0 -70 29t-29 70t30 68.5t69 27.5q41 0 70 -27.5t29 -68.5t-29 -70t-70 -29z" />
    <glyph glyph-name="uni1E0D" unicode="&#x1e0d;" horiz-adv-x="1206" 
d="M1040 0h-164v174h-4q-114 -198 -352 -198q-193 0 -308.5 137.5t-115.5 374.5q0 254 128 407t341 153q211 0 307 -166h4v634h164v-1516zM876 463v151q0 124 -82 210t-208 86q-150 0 -236 -110t-86 -304q0 -177 82.5 -279.5t221.5 -102.5q137 0 222.5 99t85.5 250z
M599 -314q-41 0 -70 29t-29 70t30 68.5t69 27.5q41 0 70 -27.5t29 -68.5t-29 -70t-70 -29z" />
    <glyph glyph-name="uni1E24" unicode="&#x1e24;" horiz-adv-x="1454" 
d="M1266 0h-168v654h-742v-654h-168v1434h168v-629h742v629h168v-1434zM740 -314q-41 0 -70 29t-29 70t30 68.5t69 27.5q41 0 70 -27.5t29 -68.5t-29 -70t-70 -29z" />
    <glyph glyph-name="uni1E25" unicode="&#x1e25;" horiz-adv-x="1159" 
d="M1016 0h-164v590q0 320 -238 320q-120 0 -202 -92.5t-82 -237.5v-580h-164v1516h164v-662h4q118 194 336 194q346 0 346 -417v-631zM572 -314q-41 0 -70 29t-29 70t30 68.5t69 27.5q41 0 70 -27.5t29 -68.5t-29 -70t-70 -29z" />
    <glyph glyph-name="uni1E36" unicode="&#x1e36;" horiz-adv-x="964" 
d="M932 0h-744v1434h168v-1282h576v-152zM546 -314q-41 0 -70 29t-29 70t30 68.5t69 27.5q41 0 70 -27.5t29 -68.5t-29 -70t-70 -29z" />
    <glyph glyph-name="uni1E37" unicode="&#x1e37;" horiz-adv-x="496" 
d="M330 0h-164v1516h164v-1516zM249 -314q-41 0 -70 29t-29 70t30 68.5t69 27.5q41 0 70 -27.5t29 -68.5t-29 -70t-70 -29z" />
    <glyph glyph-name="uni1E38" unicode="&#x1e38;" horiz-adv-x="964" 
d="M932 0h-744v1434h168v-1282h576v-152zM777 1567h-508v109h508v-109zM545 -314q-41 0 -70 29t-29 70t30 68.5t69 27.5q41 0 70 -27.5t29 -68.5t-29 -70t-70 -29z" />
    <glyph glyph-name="uni1E39" unicode="&#x1e39;" horiz-adv-x="496" 
d="M330 0h-164v1516h164v-1516zM248 -314q-41 0 -70 29t-29 70t30 68.5t69 27.5q41 0 70 -27.5t29 -68.5t-29 -70t-70 -29zM502 1567h-508v109h508v-109z" />
    <glyph glyph-name="uni1E40" unicode="&#x1e40;" horiz-adv-x="1839" 
d="M1650 0h-167v962q0 114 14 279h-4q-24 -97 -43 -139l-490 -1102h-82l-489 1094q-21 48 -43 147h-4q8 -86 8 -281v-960h-162v1434h222l440 -1000q51 -115 66 -172h6q43 118 69 176l449 996h210v-1434zM919 1567q-41 0 -70 29t-29 70t30 68.5t69 27.5q41 0 70 -27.5
t29 -68.5t-29 -70t-70 -29z" />
    <glyph glyph-name="uni1E41" unicode="&#x1e41;" horiz-adv-x="1764" 
d="M1620 0h-164v588q0 170 -52.5 246t-176.5 76q-105 0 -178.5 -96t-73.5 -230v-584h-164v608q0 302 -233 302q-108 0 -178 -90.5t-70 -235.5v-584h-164v1024h164v-162h4q109 186 318 186q105 0 183 -58.5t107 -153.5q114 212 340 212q338 0 338 -417v-631zM890 1218
q-41 0 -70 29t-29 70t30 68.5t69 27.5q41 0 70 -27.5t29 -68.5t-29 -70t-70 -29z" />
    <glyph glyph-name="uni1E42" unicode="&#x1e42;" horiz-adv-x="1839" 
d="M1650 0h-167v962q0 114 14 279h-4q-24 -97 -43 -139l-490 -1102h-82l-489 1094q-21 48 -43 147h-4q8 -86 8 -281v-960h-162v1434h222l440 -1000q51 -115 66 -172h6q43 118 69 176l449 996h210v-1434zM916 -314q-41 0 -70 29t-29 70t30 68.5t69 27.5q41 0 70 -27.5
t29 -68.5t-29 -70t-70 -29z" />
    <glyph glyph-name="uni1E43" unicode="&#x1e43;" horiz-adv-x="1764" 
d="M1620 0h-164v588q0 170 -52.5 246t-176.5 76q-105 0 -178.5 -96t-73.5 -230v-584h-164v608q0 302 -233 302q-108 0 -178 -90.5t-70 -235.5v-584h-164v1024h164v-162h4q109 186 318 186q105 0 183 -58.5t107 -153.5q114 212 340 212q338 0 338 -417v-631zM892 -314
q-41 0 -70 29t-29 70t30 68.5t69 27.5q41 0 70 -27.5t29 -68.5t-29 -70t-70 -29z" />
    <glyph glyph-name="uni1E44" unicode="&#x1e44;" horiz-adv-x="1532" 
d="M1344 0h-206l-738 1143q-28 43 -46 90h-6q8 -46 8 -197v-1036h-168v1434h218l718 -1125q45 -70 58 -96h4q-10 62 -10 211v1010h168v-1434zM766 1567q-41 0 -70 29t-29 70t30 68.5t69 27.5q41 0 70 -27.5t29 -68.5t-29 -70t-70 -29z" />
    <glyph glyph-name="uni1E45" unicode="&#x1e45;" horiz-adv-x="1159" 
d="M1016 0h-164v584q0 326 -238 326q-123 0 -203.5 -92.5t-80.5 -233.5v-584h-164v1024h164v-170h4q116 194 336 194q168 0 257 -108.5t89 -313.5v-626zM601 1218q-41 0 -70 29t-29 70t30 68.5t69 27.5q41 0 70 -27.5t29 -68.5t-29 -70t-70 -29z" />
    <glyph glyph-name="uni1E46" unicode="&#x1e46;" horiz-adv-x="1532" 
d="M1344 0h-206l-738 1143q-28 43 -46 90h-6q8 -46 8 -197v-1036h-168v1434h218l718 -1125q45 -70 58 -96h4q-10 62 -10 211v1010h168v-1434zM757 -314q-41 0 -70 29t-29 70t30 68.5t69 27.5q41 0 70 -27.5t29 -68.5t-29 -70t-70 -29z" />
    <glyph glyph-name="uni1E47" unicode="&#x1e47;" horiz-adv-x="1159" 
d="M1016 0h-164v584q0 326 -238 326q-123 0 -203.5 -92.5t-80.5 -233.5v-584h-164v1024h164v-170h4q116 194 336 194q168 0 257 -108.5t89 -313.5v-626zM601 -314q-41 0 -70 29t-29 70t30 68.5t69 27.5q41 0 70 -27.5t29 -68.5t-29 -70t-70 -29z" />
    <glyph glyph-name="uni1E5A" unicode="&#x1e5a;" horiz-adv-x="1225" 
d="M1216 0h-200l-240 402q-33 56 -64 95.5t-63.5 64.5t-70 36.5t-84.5 11.5h-138v-610h-168v1434h428q94 0 173.5 -23.5t138 -71.5t91.5 -119.5t33 -167.5q0 -75 -22.5 -137.5t-64 -111.5t-100 -83.5t-131.5 -53.5v-4q36 -16 62.5 -36.5t50.5 -48.5t47.5 -63.5t52.5 -82.5z
M356 1282v-520h228q63 0 116.5 19t92.5 54.5t61 87t22 115.5q0 115 -74.5 179.5t-215.5 64.5h-230zM648 -314q-41 0 -70 29t-29 70t30 68.5t69 27.5q41 0 70 -27.5t29 -68.5t-29 -70t-70 -29z" />
    <glyph glyph-name="uni1E5B" unicode="&#x1e5b;" horiz-adv-x="712" 
d="M700 858q-43 33 -124 33q-105 0 -175.5 -99t-70.5 -270v-522h-164v1024h164v-211h4q35 108 107 168.5t161 60.5q64 0 98 -14v-170zM431 -314q-41 0 -70 29t-29 70t30 68.5t69 27.5q41 0 70 -27.5t29 -68.5t-29 -70t-70 -29z" />
    <glyph glyph-name="uni1E5C" unicode="&#x1e5c;" horiz-adv-x="1225" 
d="M1216 0h-200l-240 402q-33 56 -64 95.5t-63.5 64.5t-70 36.5t-84.5 11.5h-138v-610h-168v1434h428q94 0 173.5 -23.5t138 -71.5t91.5 -119.5t33 -167.5q0 -75 -22.5 -137.5t-64 -111.5t-100 -83.5t-131.5 -53.5v-4q36 -16 62.5 -36.5t50.5 -48.5t47.5 -63.5t52.5 -82.5z
M356 1282v-520h228q63 0 116.5 19t92.5 54.5t61 87t22 115.5q0 115 -74.5 179.5t-215.5 64.5h-230zM648 -314q-41 0 -70 29t-29 70t30 68.5t69 27.5q41 0 70 -27.5t29 -68.5t-29 -70t-70 -29zM862 1567h-508v109h508v-109z" />
    <glyph glyph-name="uni1E5D" unicode="&#x1e5d;" horiz-adv-x="712" 
d="M700 858q-43 33 -124 33q-105 0 -175.5 -99t-70.5 -270v-522h-164v1024h164v-211h4q35 108 107 168.5t161 60.5q64 0 98 -14v-170zM678 1218h-508v109h508v-109zM432 -314q-41 0 -70 29t-29 70t30 68.5t69 27.5q41 0 70 -27.5t29 -68.5t-29 -70t-70 -29z" />
    <glyph glyph-name="uni1E62" unicode="&#x1e62;" horiz-adv-x="1088" 
d="M121 58v198q34 -30 81.5 -54t100 -40.5t105.5 -25.5t98 -9q155 0 231.5 57.5t76.5 165.5q0 58 -25.5 101t-70.5 78.5t-106.5 68t-132.5 68.5q-75 38 -140 77t-113 86t-75.5 106.5t-27.5 139.5q0 98 43 170.5t113 119.5t159.5 70t182.5 23q212 0 309 -51v-189
q-127 88 -326 88q-55 0 -110 -11.5t-98 -37.5t-70 -67t-27 -100q0 -55 20.5 -95t60.5 -73t97.5 -64t132.5 -68q77 -38 146 -80t121 -93t82.5 -113t30.5 -142q0 -106 -41.5 -179.5t-112 -119.5t-162.5 -66.5t-194 -20.5q-34 0 -84 5.5t-102 16t-98.5 26t-74.5 34.5zM552 -314
q-41 0 -70 29t-29 70t30 68.5t69 27.5q41 0 70 -27.5t29 -68.5t-29 -70t-70 -29z" />
    <glyph glyph-name="uni1E63" unicode="&#x1e63;" horiz-adv-x="869" 
d="M104 37v176q134 -99 295 -99q216 0 216 144q0 41 -18.5 69.5t-50 50.5t-74 39.5t-91.5 36.5q-68 27 -119.5 54.5t-86 62t-52 78.5t-17.5 103q0 72 33 127.5t88 93t125.5 56.5t145.5 19q133 0 238 -46v-166q-113 74 -260 74q-46 0 -83 -10.5t-63.5 -29.5t-41 -45.5
t-14.5 -58.5q0 -40 14.5 -67t42.5 -48t68 -38t91 -37q68 -26 122 -53.5t92 -62t58.5 -79.5t20.5 -107q0 -76 -33.5 -132t-89.5 -93t-129 -55t-153 -18q-158 0 -274 61zM455 -314q-41 0 -70 29t-29 70t30 68.5t69 27.5q41 0 70 -27.5t29 -68.5t-29 -70t-70 -29z" />
    <glyph glyph-name="uni1E6C" unicode="&#x1e6c;" horiz-adv-x="1073" 
d="M1036 1282h-414v-1282h-168v1282h-413v152h995v-152zM537 -314q-41 0 -70 29t-29 70t30 68.5t69 27.5q41 0 70 -27.5t29 -68.5t-29 -70t-70 -29z" />
    <glyph glyph-name="uni1E6D" unicode="&#x1e6d;" horiz-adv-x="694" 
d="M641 10q-58 -32 -153 -32q-269 0 -269 300v606h-176v140h176v250l164 53v-303h258v-140h-258v-577q0 -103 35 -147t116 -44q62 0 107 34v-140zM360 -314q-41 0 -70 29t-29 70t30 68.5t69 27.5q41 0 70 -27.5t29 -68.5t-29 -70t-70 -29z" />
    <glyph glyph-name="uni2000" unicode="&#x2000;" horiz-adv-x="800" 
 />
    <glyph glyph-name="uni2001" unicode="&#x2001;" horiz-adv-x="1200" 
 />
    <glyph glyph-name="uni2002" unicode="&#x2002;" horiz-adv-x="800" 
 />
    <glyph glyph-name="uni2003" unicode="&#x2003;" horiz-adv-x="1200" 
 />
    <glyph glyph-name="uni2004" unicode="&#x2004;" horiz-adv-x="400" 
 />
    <glyph glyph-name="uni2005" unicode="&#x2005;" horiz-adv-x="300" 
 />
    <glyph glyph-name="uni2006" unicode="&#x2006;" horiz-adv-x="200" 
 />
    <glyph glyph-name="uni2007" unicode="&#x2007;" horiz-adv-x="800" 
 />
    <glyph glyph-name="uni2008" unicode="&#x2008;" horiz-adv-x="200" 
 />
    <glyph glyph-name="uni2009" unicode="&#x2009;" horiz-adv-x="200" 
 />
    <glyph glyph-name="uni200A" unicode="&#x200a;" horiz-adv-x="100" 
 />
    <glyph glyph-name="uni200B" unicode="&#x200b;" horiz-adv-x="0" 
 />
    <glyph glyph-name="uni200C" unicode="&#x200c;" horiz-adv-x="0" 
d="M36 1289v-1564h-72v1564h72z" />
    <glyph glyph-name="uni200D" unicode="&#x200d;" horiz-adv-x="0" 
d="M36 -275h-72v1389l-134 -136l-49 49l171 169l-171 168l49 49l170 -171l170 171l49 -49l-171 -168l171 -169l-49 -49l-134 136v-1389z" />
    <glyph glyph-name="afii299" unicode="&#x200e;" horiz-adv-x="0" 
d="M430 1198l-217 -214l-49 49l137 130h-266v-1438h-71v1509h337l-137 130l49 49z" />
    <glyph glyph-name="afii300" unicode="&#x200f;" horiz-adv-x="0" 
d="M35 -275h-71v1438h-266l137 -130l-49 -49l-217 214l217 215l49 -49l-137 -130h337v-1509z" />
    <glyph glyph-name="uni2010" unicode="&#x2010;" horiz-adv-x="1000" 
d="M857 636h-713v129h713v-129z" />
    <glyph glyph-name="uni2011" unicode="&#x2011;" horiz-adv-x="1000" 
d="M857 636h-713v129h713v-129z" />
    <glyph glyph-name="figuredash" unicode="&#x2012;" horiz-adv-x="1000" 
d="M857 636h-713v129h713v-129z" />
    <glyph glyph-name="endash" unicode="&#x2013;" horiz-adv-x="1000" 
d="M857 636h-713v129h713v-129z" />
    <glyph glyph-name="emdash" unicode="&#x2014;" horiz-adv-x="1400" 
d="M1256 636h-1112v129h1112v-129z" />
    <glyph glyph-name="afii00208" unicode="&#x2015;" horiz-adv-x="1800" 
d="M1656 636h-1512v129h1512v-129z" />
    <glyph glyph-name="uni2016" unicode="&#x2016;" horiz-adv-x="788" 
d="M320 -482h-148v2048h148v-2048zM616 -482h-148v2048h148v-2048z" />
    <glyph glyph-name="underscoredbl" unicode="&#x2017;" horiz-adv-x="1200" 
d="M1200 -178h-1200v119h1200v-119zM1200 -416h-1200v119h1200v-119z" />
    <glyph glyph-name="quoteleft" unicode="&#x2018;" horiz-adv-x="469" 
d="M364 1458l-108 -446h-150l140 446h118z" />
    <glyph glyph-name="quoteright" unicode="&#x2019;" horiz-adv-x="469" 
d="M368 1458l-140 -446h-118l111 446h147z" />
    <glyph glyph-name="quotesinglbase" unicode="&#x201a;" horiz-adv-x="469" 
d="M346 217l-141 -445h-117l110 445h148z" />
    <glyph glyph-name="quotereversed" unicode="&#x201b;" horiz-adv-x="469" 
d="M368 1012h-116l-142 446h148z" />
    <glyph glyph-name="quotedblleft" unicode="&#x201c;" horiz-adv-x="772" 
d="M668 1458l-111 -446h-147l141 446h117zM364 1458l-108 -446h-150l140 446h118z" />
    <glyph glyph-name="quotedblright" unicode="&#x201d;" horiz-adv-x="772" 
d="M672 1458l-140 -446h-118l108 446h150zM368 1458l-140 -446h-118l111 446h147z" />
    <glyph glyph-name="quotedblbase" unicode="&#x201e;" horiz-adv-x="772" 
d="M649 217l-139 -445h-119l109 445h149zM346 217l-141 -445h-117l110 445h148z" />
    <glyph glyph-name="uni201F" unicode="&#x201f;" horiz-adv-x="772" 
d="M254 1458l108 -446h-118l-140 446h150zM555 1458l111 -446h-118l-140 446h147z" />
    <glyph glyph-name="dagger" unicode="&#x2020;" horiz-adv-x="768" 
d="M728 893l-262 30l-40 -694h-76l-40 694l-262 -30v150l302 -20l-40 410h156l-40 -410l302 20v-150z" />
    <glyph glyph-name="daggerdbl" unicode="&#x2021;" horiz-adv-x="768" 
d="M728 519l-302 20l40 -310h-156l40 310l-302 -20v150l262 -30l58 192l-58 192l-262 -30v150l302 -20l-40 310h156l-40 -310l302 20v-150l-262 30l-58 -192l58 -192l262 30v-150z" />
    <glyph glyph-name="bullet" unicode="&#x2022;" horiz-adv-x="832" 
d="M418 408q-104 0 -179 73t-75 177q0 103 75 178.5t179 75.5t177 -75t73 -179t-73 -177t-177 -73z" />
    <glyph glyph-name="uni2023" unicode="&#x2023;" horiz-adv-x="444" 
d="M127 870l210 -170l-210 -160v330z" />
    <glyph glyph-name="onedotenleader" unicode="&#x2024;" horiz-adv-x="444" 
d="M223 -22q-46 0 -78.5 33t-32.5 79t32.5 79.5t78.5 33.5q47 0 80 -33.5t33 -79.5t-33 -79t-80 -33z" />
    <glyph glyph-name="twodotenleader" unicode="&#x2025;" horiz-adv-x="1000" 
d="M750 -18q-46 0 -78.5 32t-32.5 78t32.5 79.5t78.5 33.5q45 0 77.5 -33.5t32.5 -79.5t-32.5 -78t-77.5 -32zM248 -18q-46 0 -77 32t-31 78t31 79.5t77 33.5q45 0 77.5 -33.5t32.5 -79.5t-32 -78t-78 -32z" />
    <glyph glyph-name="ellipsis" unicode="&#x2026;" horiz-adv-x="1501" 
d="M1252 -18q-46 0 -77.5 32t-31.5 78t31.5 79.5t77.5 33.5q45 0 77.5 -33.5t32.5 -79.5t-32.5 -78t-77.5 -32zM750 -18q-46 0 -78.5 32t-32.5 78t32.5 79.5t78.5 33.5q45 0 77.5 -33.5t32.5 -79.5t-32.5 -78t-77.5 -32zM248 -18q-46 0 -77 32t-31 78t31 79.5t77 33.5
q45 0 77.5 -33.5t32.5 -79.5t-32 -78t-78 -32z" />
    <glyph glyph-name="uni2027" unicode="&#x2027;" horiz-adv-x="444" 
d="M223 586q-46 0 -78.5 33t-32.5 79t32.5 79.5t78.5 33.5q47 0 80 -33.5t33 -79.5t-33 -79t-80 -33z" />
    <glyph glyph-name="uni2028" unicode="&#x2028;" horiz-adv-x="0" 
 />
    <glyph glyph-name="uni2029" unicode="&#x2029;" horiz-adv-x="0" 
 />
    <glyph glyph-name="uni202A" unicode="&#x202a;" horiz-adv-x="600" 
d="M100 1400h400v-134h-267v-1466h-133v1600z" />
    <glyph glyph-name="uni202B" unicode="&#x202b;" horiz-adv-x="600" 
d="M500 -200h-133v1466h-267v134h400v-1600z" />
    <glyph glyph-name="afii61573" unicode="&#x202c;" horiz-adv-x="500" 
d="M183 1300h-83v300h300v-300h-84v-1500h-133v1500z" />
    <glyph glyph-name="afii61574" unicode="&#x202d;" horiz-adv-x="700" 
d="M220 1320h380v-120h-184v-1400h-133v1400h-183v400h500v-120h-380v-160z" />
    <glyph glyph-name="afii61575" unicode="&#x202e;" horiz-adv-x="700" 
d="M480 1480h-380v120h500v-400h-183v-1400h-133v1400h-184v120h380v160z" />
    <glyph glyph-name="uni202F" unicode="&#x202f;" horiz-adv-x="400" 
 />
    <glyph glyph-name="perthousand" unicode="&#x2030;" horiz-adv-x="2478" 
d="M404 715q-148 0 -236 97.5t-88 260.5q0 178 93 280.5t251 102.5q153 0 237.5 -95t84.5 -267t-94.5 -275.5t-247.5 -103.5zM418 1346q-95 0 -150 -70.5t-55 -193.5q0 -121 54 -188.5t147 -67.5q94 0 147 70t53 194q0 121 -52.5 188.5t-143.5 67.5zM1366 1434l-922 -1444
h-143l921 1444h144zM2056 -22q-148 0 -236 98t-88 260q0 177 94.5 281t249.5 104q153 0 237.5 -95.5t84.5 -269.5q0 -171 -94 -274.5t-248 -103.5zM2070 608q-96 0 -150 -70.5t-54 -193.5q0 -120 53.5 -187t146.5 -67q95 0 148 70.5t53 193.5q0 121 -53 187.5t-144 66.5z
M1258 -22q-148 0 -236 98t-88 260q0 178 94 281.5t250 103.5q152 0 237 -96t85 -269q0 -171 -94.5 -274.5t-247.5 -103.5zM1272 608q-96 0 -150.5 -70t-54.5 -194q0 -119 54 -186.5t147 -67.5q94 0 147 70.5t53 193.5q0 122 -52.5 188t-143.5 66z" />
    <glyph glyph-name="uni2031" unicode="&#x2031;" horiz-adv-x="3277" 
d="M404 715q-148 0 -236 97.5t-88 260.5q0 178 93 280.5t251 102.5q153 0 237.5 -95t84.5 -267t-94.5 -275.5t-247.5 -103.5zM418 1346q-95 0 -150 -70.5t-55 -193.5q0 -121 54 -188.5t147 -67.5q94 0 147 70t53 194q0 121 -52.5 188.5t-143.5 67.5zM1366 1434l-922 -1444
h-143l921 1444h144zM2056 -22q-148 0 -236 98t-88 260q0 177 94.5 281t249.5 104q153 0 237.5 -95.5t84.5 -269.5q0 -171 -94 -274.5t-248 -103.5zM2070 608q-96 0 -150 -70.5t-54 -193.5q0 -120 53.5 -187t146.5 -67q95 0 148 70.5t53 193.5q0 121 -53 187.5t-144 66.5z
M1258 -22q-148 0 -236 98t-88 260q0 178 94 281.5t250 103.5q152 0 237 -96t85 -269q0 -171 -94.5 -274.5t-247.5 -103.5zM1272 608q-96 0 -150.5 -70t-54.5 -194q0 -119 54 -186.5t147 -67.5q94 0 147 70.5t53 193.5q0 122 -52.5 188t-143.5 66zM2855 -22q-148 0 -236 98
t-88 260q0 177 94.5 281t249.5 104q153 0 237.5 -95.5t84.5 -269.5q0 -171 -94 -274.5t-248 -103.5zM2869 608q-96 0 -150 -70.5t-54 -193.5q0 -120 53.5 -187t146.5 -67q95 0 148 70.5t53 193.5q0 121 -53 187.5t-144 66.5z" />
    <glyph glyph-name="minute" unicode="&#x2032;" horiz-adv-x="469" 
d="M350 1434l-104 -447h-116l86 447h134z" />
    <glyph glyph-name="second" unicode="&#x2033;" horiz-adv-x="772" 
d="M644 1434l-106 -447h-116l86 447h136zM361 1434l-105 -447h-115l85 447h135z" />
    <glyph glyph-name="uni2034" unicode="&#x2034;" horiz-adv-x="1053" 
d="M361 1434l-105 -447h-115l85 447h135zM925 1434l-106 -447h-116l86 447h136zM642 1434l-105 -447h-115l85 447h135z" />
    <glyph glyph-name="uni2035" unicode="&#x2035;" horiz-adv-x="469" 
d="M253 1434l86 -447h-116l-104 447h134z" />
    <glyph glyph-name="uni2036" unicode="&#x2036;" horiz-adv-x="772" 
d="M264 1434l86 -447h-116l-106 447h136zM546 1434l85 -447h-115l-105 447h135z" />
    <glyph glyph-name="uni2037" unicode="&#x2037;" horiz-adv-x="1053" 
d="M827 1434l85 -447h-115l-105 447h135zM264 1434l86 -447h-116l-106 447h136zM546 1434l85 -447h-115l-105 447h135z" />
    <glyph glyph-name="uni2038" unicode="&#x2038;" horiz-adv-x="800" 
d="M682 -331h-122l-164 230l-165 -230h-113l215 332h133z" />
    <glyph glyph-name="guilsinglleft" unicode="&#x2039;" horiz-adv-x="647" 
d="M557 200h-166l-299 336l299 344h168l-305 -344z" />
    <glyph glyph-name="guilsinglright" unicode="&#x203a;" horiz-adv-x="647" 
d="M559 538l-301 -338h-166l304 338l-304 342h166z" />
    <glyph glyph-name="uni203B" unicode="&#x203b;" horiz-adv-x="1724" 
d="M1665 1488l-715 -714l715 -714l-89 -89l-714 715l-714 -713l-89 89l715 712l-715 712l89 89l714 -713l714 715zM862 1439q52 0 91 -39t39 -91t-39 -91t-91 -39t-91 39t-39 91t39 91t91 39zM1527 774q0 -52 -39 -91t-91 -39t-91 39t-39 91t39 91t91 39t91 -39t39 -91z
M458 774q0 -52 -39 -91t-91 -39t-91 39t-39 91t39 91t91 39t91 -39t39 -91zM862 370q52 0 91 -39t39 -91t-39 -91t-91 -39t-91 39t-39 91t39 91t91 39z" />
    <glyph glyph-name="exclamdbl" unicode="&#x203c;" horiz-adv-x="983" 
d="M375 1434l-19 -1030h-135l-18 1030h172zM291 -18q-46 0 -78.5 32t-32.5 78t32.5 78.5t78.5 32.5q45 0 78 -32.5t33 -78.5t-33 -78t-78 -32zM776 1434l-19 -1030h-135l-18 1030h172zM692 -18q-46 0 -78.5 32t-32.5 78t32.5 78.5t78.5 32.5q45 0 78 -32.5t33 -78.5t-33 -78
t-78 -32z" />
    <glyph glyph-name="uni203D" unicode="&#x203d;" horiz-adv-x="918" 
d="M103 1186v176q157 96 343 96q83 0 155.5 -20t127 -59.5t86 -98.5t31.5 -137q0 -74 -28.5 -132t-71.5 -106.5t-93 -90.5t-93 -84q-29 -28 -51 -57l-5 -275h-135l-16 914q-124 -23 -250 -126zM513 846q43 42 81 84.5t63 89t25 102.5q0 48 -20.5 85t-55.5 62t-82 37l-4 1
l-8 -462zM439 -18q-46 0 -78.5 32t-32.5 78t32.5 78.5t78.5 32.5q45 0 78 -32.5t33 -78.5t-33 -78t-78 -32z" />
    <glyph glyph-name="uni203E" unicode="&#x203e;" horiz-adv-x="850" 
d="M850 1396h-850v120h850v-120z" />
    <glyph glyph-name="uni203F" unicode="&#x203f;" horiz-adv-x="1200" 
d="M1095 -2v-196q-200 -260 -491 -260q-294 0 -499 260v198q214 -314 498 -314q281 0 492 312z" />
    <glyph glyph-name="uni2040" unicode="&#x2040;" horiz-adv-x="1200" 
d="M1095 1343q-211 312 -492 312q-284 0 -498 -314v198q205 260 499 260q291 0 491 -260v-196z" />
    <glyph glyph-name="uni2041" unicode="&#x2041;" horiz-adv-x="800" 
d="M682 -332h-122l-164 230l-165 -230h-113l215 332v500h133v-500z" />
    <glyph glyph-name="uni2042" unicode="&#x2042;" horiz-adv-x="1650" 
d="M1177 1104l-274 -56l190 -243l-110 -76l-156 265l-158 -265l-110 76l190 243l-276 56l45 125l262 -99l-23 304h138l-23 -304l263 99zM780 345l-274 -56l190 -243l-110 -76l-156 265l-158 -265l-110 76l190 243l-276 56l45 125l262 -99l-23 304h138l-23 -304l263 99z
M1574 345l-274 -56l190 -243l-110 -76l-156 265l-158 -265l-110 76l190 243l-276 56l45 125l262 -99l-23 304h138l-23 -304l263 99z" />
    <glyph glyph-name="uni2043" unicode="&#x2043;" horiz-adv-x="600" 
d="M500 636h-400v129h400v-129z" />
    <glyph glyph-name="fraction" unicode="&#x2044;" horiz-adv-x="1000" 
d="M856 636h-712v129h712v-129z" />
    <glyph glyph-name="uni2045" unicode="&#x2045;" horiz-adv-x="600" 
d="M100 1400h400v-154h-236v-469h236v-154h-236v-469h236v-154h-400v1400z" />
    <glyph glyph-name="uni2046" unicode="&#x2046;" horiz-adv-x="600" 
d="M500 0h-400v154h236v469h-236v154h236v469h-236v154h400v-1400z" />
    <glyph glyph-name="uni2047" unicode="&#x2047;" horiz-adv-x="1835" 
d="M1252 398q-9 26 -16 67.5t-7 82.5q0 64 25.5 115.5t63.5 96.5t83 86.5t83 84t63.5 89t25.5 102.5q0 48 -18.5 85t-50.5 62t-74 37.5t-89 12.5q-169 0 -293 -133v176q153 96 317 96q76 0 143 -20t117.5 -59.5t79.5 -98.5t29 -137q0 -74 -26 -132t-65.5 -106.5t-85.5 -90.5
t-85.5 -83.5t-65.5 -86.5t-26 -99q0 -46 11 -83.5t22 -63.5h-161zM1342 -18q-44 0 -78 32q-33 32 -33 78q0 47 33 78q33 33 78 33t78 -33q33 -31 33 -78q0 -46 -33 -78q-34 -32 -78 -32zM335 398q-9 26 -16 67.5t-7 82.5q0 64 25.5 115.5t63.5 96.5t83 86.5t83 84t63.5 89
t25.5 102.5q0 48 -18.5 85t-50.5 62t-74 37.5t-89 12.5q-169 0 -293 -133v176q153 96 317 96q76 0 143 -20t117.5 -59.5t79.5 -98.5t29 -137q0 -74 -26 -132t-65.5 -106.5t-85.5 -90.5t-85.5 -83.5t-65.5 -86.5t-26 -99q0 -46 11 -83.5t22 -63.5h-161zM425 -18q-44 0 -78 32
q-33 32 -33 78q0 47 33 78q33 33 78 33t78 -33q33 -31 33 -78q0 -46 -33 -78q-34 -32 -78 -32z" />
    <glyph glyph-name="uni2048" unicode="&#x2048;" horiz-adv-x="1500" 
d="M335 398q-9 26 -16 67.5t-7 82.5q0 64 25.5 115.5t63.5 96.5t83 86.5t83 84t63.5 89t25.5 102.5q0 48 -18.5 85t-50.5 62t-74 37.5t-89 12.5q-169 0 -293 -133v176q153 96 317 96q76 0 143 -20t117.5 -59.5t79.5 -98.5t29 -137q0 -74 -26 -132t-65.5 -106.5t-85.5 -90.5
t-85.5 -83.5t-65.5 -86.5t-26 -99q0 -46 11 -83.5t22 -63.5h-161zM425 -18q-44 0 -78 32q-33 32 -33 78q0 47 33 78q33 33 78 33t78 -33q33 -31 33 -78q0 -46 -33 -78q-34 -32 -78 -32zM1293 1434l-19 -1030h-135l-18 1030h172zM1209 -18q-46 0 -78.5 32t-32.5 78t32.5 78.5
t78.5 32.5q45 0 78 -32.5t33 -78.5t-33 -78t-78 -32z" />
    <glyph glyph-name="uni2049" unicode="&#x2049;" horiz-adv-x="1500" 
d="M375 1434l-19 -1030h-135l-18 1030h172zM291 -18q-46 0 -78.5 32t-32.5 78t32.5 78.5t78.5 32.5q45 0 78 -32.5t33 -78.5t-33 -78t-78 -32zM917 398q-9 26 -16 67.5t-7 82.5q0 64 25.5 115.5t63.5 96.5t83 86.5t83 84t63.5 89t25.5 102.5q0 48 -18.5 85t-50.5 62
t-74 37.5t-89 12.5q-169 0 -293 -133v176q153 96 317 96q76 0 143 -20t117.5 -59.5t79.5 -98.5t29 -137q0 -74 -26 -132t-65.5 -106.5t-85.5 -90.5t-85.5 -83.5t-65.5 -86.5t-26 -99q0 -46 11 -83.5t22 -63.5h-161zM1007 -18q-44 0 -78 32q-33 32 -33 78q0 47 33 78
q33 33 78 33t78 -33q33 -31 33 -78q0 -46 -33 -78q-34 -32 -78 -32z" />
    <glyph glyph-name="uni204A" unicode="&#x204a;" horiz-adv-x="800" 
d="M507 -200h-164l193 823v423h-436v154h600v-575z" />
    <glyph glyph-name="uni204B" unicode="&#x204b;" horiz-adv-x="1000" 
d="M125 1434h494q107 0 181.5 -73.5t74.5 -190.5q0 -115 -71 -191t-179 -76v-903h-108v1331h-158v-1331h-106v1331h-128v103z" />
    <glyph glyph-name="uni204C" unicode="&#x204c;" horiz-adv-x="800" 
d="M700 830v-260h-450l-150 130l150 130h450z" />
    <glyph glyph-name="uni204D" unicode="&#x204d;" horiz-adv-x="800" 
d="M550 830l150 -130l-150 -130h-450v260h450z" />
    <glyph glyph-name="uni204E" unicode="&#x204e;" horiz-adv-x="850" 
d="M780 345l-274 -56l190 -243l-110 -76l-156 265l-158 -265l-110 76l190 243l-276 56l45 125l262 -99l-23 304h138l-23 -304l263 99z" />
    <glyph glyph-name="uni204F" unicode="&#x204f;" horiz-adv-x="444" 
d="M226 824q-47 0 -79.5 33t-32.5 79t32.5 78t79.5 32q46 0 79 -32t33 -78t-33 -79t-79 -33zM316 228l-160 -492h-117l117 492h160z" />
    <glyph glyph-name="uni2050" unicode="&#x2050;" horiz-adv-x="1200" 
d="M1095 456v-196q-200 -260 -491 -260q-294 0 -499 260v198q214 -314 498 -314q281 0 492 312zM1095 944q-211 312 -492 312q-284 0 -498 -314v198q205 260 499 260q291 0 491 -260v-196z" />
    <glyph glyph-name="uni2051" unicode="&#x2051;" horiz-adv-x="850" 
d="M780 1104l-274 -56l190 -243l-110 -76l-156 265l-158 -265l-110 76l190 243l-276 56l45 125l262 -99l-23 304h138l-23 -304l263 99zM780 345l-274 -56l190 -243l-110 -76l-156 265l-158 -265l-110 76l190 243l-276 56l45 125l262 -99l-23 304h138l-23 -304l263 99z" />
    <glyph glyph-name="uni2052" unicode="&#x2052;" horiz-adv-x="800" 
d="M813 1434l-688 -1475h-153l686 1475h155zM599 -11q-46 0 -78.5 33t-32.5 79t32.5 79.5t78.5 33.5q47 0 80 -33.5t33 -79.5t-33 -79t-80 -33zM199 1187q-46 0 -78.5 33t-32.5 79t32.5 79.5t78.5 33.5q47 0 80 -33.5t33 -79.5t-33 -79t-80 -33z" />
    <glyph glyph-name="uni2053" unicode="&#x2053;" horiz-adv-x="1100" 
d="M1044 750q-7 -148 -80.5 -229t-199.5 -81q-109 0 -265 109q-97 67 -159 67q-140 0 -146 -176h-135q5 143 79.5 226.5t201.5 83.5q106 0 235 -88q132 -90 197 -90q61 0 98 49t39 129h135z" />
    <glyph glyph-name="uni2054" unicode="&#x2054;" horiz-adv-x="1200" 
d="M1095 -456q-211 312 -492 312q-284 0 -498 -314v198q205 260 499 260q291 0 491 -260v-196z" />
    <glyph glyph-name="uni2055" unicode="&#x2055;" horiz-adv-x="1200" 
d="M1033 258l-94 -94l-273 273v-360h-133v360l-272 -273l-94 94l273 272h-310v134h309l-272 272l94 94l272 -274v361h133v-360l273 273l94 -94l-272 -272h309v-134h-311z" />
    <glyph glyph-name="uni2056" unicode="&#x2056;" horiz-adv-x="1000" 
d="M775 692q-46 0 -78.5 33t-32.5 79t32.5 79.5t78.5 33.5q47 0 80 -33.5t33 -79.5t-33 -79t-80 -33zM775 114q-46 0 -78.5 33t-32.5 79t32.5 79.5t78.5 33.5q47 0 80 -33.5t33 -79.5t-33 -79t-80 -33zM223 403q-46 0 -78.5 33t-32.5 79t32.5 79.5t78.5 33.5q47 0 80 -33.5
t33 -79.5t-33 -79t-80 -33z" />
    <glyph glyph-name="uni2057" unicode="&#x2057;" horiz-adv-x="1335" 
d="M361 1434l-105 -447h-115l85 447h135zM642 1434l-105 -447h-115l85 447h135zM1207 1434l-106 -447h-116l86 447h136zM924 1434l-105 -447h-115l85 447h135z" />
    <glyph glyph-name="uni2058" unicode="&#x2058;" horiz-adv-x="1000" 
d="M775 392q-46 0 -78.5 33t-32.5 79t32.5 79.5t78.5 33.5q47 0 80 -33.5t33 -79.5t-33 -79t-80 -33zM502 692q-46 0 -78.5 33t-32.5 79t32.5 79.5t78.5 33.5q47 0 80 -33.5t33 -79.5t-33 -79t-80 -33zM502 114q-46 0 -78.5 33t-32.5 79t32.5 79.5t78.5 33.5q47 0 80 -33.5
t33 -79.5t-33 -79t-80 -33zM223 392q-46 0 -78.5 33t-32.5 79t32.5 79.5t78.5 33.5q47 0 80 -33.5t33 -79.5t-33 -79t-80 -33z" />
    <glyph glyph-name="uni2059" unicode="&#x2059;" horiz-adv-x="1000" 
d="M223 692q-46 0 -78.5 33t-32.5 79t32.5 79.5t78.5 33.5q47 0 80 -33.5t33 -79.5t-33 -79t-80 -33zM223 114q-46 0 -78.5 33t-32.5 79t32.5 79.5t78.5 33.5q47 0 80 -33.5t33 -79.5t-33 -79t-80 -33zM775 692q-46 0 -78.5 33t-32.5 79t32.5 79.5t78.5 33.5q47 0 80 -33.5
t33 -79.5t-33 -79t-80 -33zM775 114q-46 0 -78.5 33t-32.5 79t32.5 79.5t78.5 33.5q47 0 80 -33.5t33 -79.5t-33 -79t-80 -33zM502 403q-46 0 -78.5 33t-32.5 79t32.5 79.5t78.5 33.5q47 0 80 -33.5t33 -79.5t-33 -79t-80 -33z" />
    <glyph glyph-name="uni205A" unicode="&#x205a;" horiz-adv-x="444" 
d="M223 692q-46 0 -78.5 33t-32.5 79t32.5 79.5t78.5 33.5q47 0 80 -33.5t33 -79.5t-33 -79t-80 -33zM223 114q-46 0 -78.5 33t-32.5 79t32.5 79.5t78.5 33.5q47 0 80 -33.5t33 -79.5t-33 -79t-80 -33z" />
    <glyph glyph-name="uni205B" unicode="&#x205b;" horiz-adv-x="1000" 
d="M100 600v200h200v-200h-200zM400 1100v200h200v-200h-200zM400 100v200h200v-200h-200zM700 600v200h200v-200h-200z" />
    <glyph glyph-name="uni205C" unicode="&#x205c;" horiz-adv-x="1000" 
d="M223 692q-46 0 -78.5 33t-32.5 79t32.5 79.5t78.5 33.5q47 0 80 -33.5t33 -79.5t-33 -79t-80 -33zM223 114q-46 0 -78.5 33t-32.5 79t32.5 79.5t78.5 33.5q47 0 80 -33.5t33 -79.5t-33 -79t-80 -33zM775 692q-46 0 -78.5 33t-32.5 79t32.5 79.5t78.5 33.5q47 0 80 -33.5
t33 -79.5t-33 -79t-80 -33zM775 114q-46 0 -78.5 33t-32.5 79t32.5 79.5t78.5 33.5q47 0 80 -33.5t33 -79.5t-33 -79t-80 -33zM976 452h-404v-403h-133v403h-403v134h403v403h133v-403h404v-134z" />
    <glyph glyph-name="uni205D" unicode="&#x205d;" horiz-adv-x="444" 
d="M223 -176q-46 0 -78.5 33t-32.5 79t32.5 79.5t78.5 33.5q47 0 80 -33.5t33 -79.5t-33 -79t-80 -33zM223 406q-46 0 -78.5 33t-32.5 79t32.5 79.5t78.5 33.5q47 0 80 -33.5t33 -79.5t-33 -79t-80 -33zM223 978q-46 0 -78.5 33t-32.5 79t32.5 79.5t78.5 33.5q47 0 80 -33.5
t33 -79.5t-33 -79t-80 -33z" />
    <glyph glyph-name="uni205E" unicode="&#x205e;" horiz-adv-x="444" 
d="M223 119q-46 0 -78.5 33t-32.5 79t32.5 79.5t78.5 33.5q47 0 80 -33.5t33 -79.5t-33 -79t-80 -33zM223 -451q-46 0 -78.5 33t-32.5 79t32.5 79.5t78.5 33.5q47 0 80 -33.5t33 -79.5t-33 -79t-80 -33zM223 692q-46 0 -78.5 33t-32.5 79t32.5 79.5t78.5 33.5q47 0 80 -33.5
t33 -79.5t-33 -79t-80 -33zM223 1264q-46 0 -78.5 33t-32.5 79t32.5 79.5t78.5 33.5q47 0 80 -33.5t33 -79.5t-33 -79t-80 -33z" />
    <glyph glyph-name="uni205F" unicode="&#x205f;" horiz-adv-x="300" 
 />
    <glyph glyph-name="uni2070" unicode="&#x2070;" horiz-adv-x="750" 
d="M365 864q-139 0 -216 109.5t-77 318.5q0 229 80.5 345.5t233.5 116.5q291 0 291 -441q0 -219 -81.5 -334t-230.5 -115zM379 1635q-169 0 -169 -337q0 -314 166 -314q164 0 164 320q0 331 -161 331z" />
    <glyph glyph-name="uni2071" unicode="&#x2071;" horiz-adv-x="352" 
d="M175 1620q-37 0 -60.5 21.5t-23.5 54.5q0 31 23.5 53t60.5 22q38 0 62 -22t24 -53q0 -32 -24 -54t-62 -22zM238 717h-128v719h128v-719z" />
    <glyph glyph-name="uni2074" unicode="&#x2074;" horiz-adv-x="750" 
d="M682 1088h-110v-204h-132v204h-393v92l369 554h156v-537h110v-109zM444 1608h-4q-12 -31 -38 -73l-218 -338h256v323q0 32 4 88z" />
    <glyph glyph-name="uni2075" unicode="&#x2075;" horiz-adv-x="750" 
d="M126 906v146q114 -70 200 -70q85 0 135.5 45t50.5 115q0 152 -204 152l-155 -8v452h457v-124h-329v-200q182 13 275.5 -62.5t93.5 -203.5q0 -126 -87.5 -205.5t-238.5 -79.5q-124 0 -198 43z" />
    <glyph glyph-name="uni2076" unicode="&#x2076;" horiz-adv-x="750" 
d="M611 1719v-129q-14 9 -34 17t-41.5 14t-43.5 9.5t-40 3.5q-57 0 -99.5 -18t-75.5 -54q-31 -34 -53.5 -97.5t-22.5 -160.5h4q29 50 84 82.5t133 32.5q60 0 107.5 -19.5t80.5 -55t50.5 -85t17.5 -110.5t-22.5 -113t-62 -90.5t-93 -60t-114.5 -21.5q-63 0 -120 24.5t-100 74
t-68 125.5t-25 180q0 117 28 207.5t78.5 152.5t120.5 94t154 32q43 0 84 -9t73 -26zM386 1313q-34 0 -64 -10.5t-52 -30.5t-35 -48t-13 -64q0 -34 10.5 -66.5t31 -57.5t49.5 -40t66 -15q75 0 117.5 45.5t42.5 118.5q0 78 -38.5 123t-114.5 45z" />
    <glyph glyph-name="uni2077" unicode="&#x2077;" horiz-adv-x="750" 
d="M325 884h-146l321 742h-423v118h595v-53z" />
    <glyph glyph-name="uni2078" unicode="&#x2078;" horiz-adv-x="750" 
d="M514 1332q163 -72 163 -225q0 -113 -82 -178t-231 -65q-125 0 -208.5 64.5t-83.5 170.5q0 153 162 233q-131 74 -131 200q0 100 76.5 161t207.5 61q117 0 189.5 -58t72.5 -152q0 -134 -135 -212zM375 1393q136 57 136 139q0 103 -133 103q-60 0 -98.5 -28.5t-38.5 -72.5
q0 -85 134 -141zM369 1273q-159 -54 -159 -169q0 -51 47 -85.5t120 -34.5q71 0 117 34t46 82q0 114 -171 173z" />
    <glyph glyph-name="uni2079" unicode="&#x2079;" horiz-adv-x="750" 
d="M312 982q66 0 113 25.5t77 71.5t43.5 109t13.5 138h-4q-13 -28 -34.5 -51.5t-49 -40t-60.5 -26t-69 -9.5q-60 0 -108.5 19t-83.5 54.5t-54 85t-19 109.5q0 63 21 116t59.5 91t92.5 59t119 21q64 0 120.5 -25.5t99.5 -76t68 -125.5t25 -175q0 -105 -24 -195t-70.5 -155
t-115.5 -102t-160 -37q-48 0 -96.5 11.5t-86.5 33.5v127q19 -11 42 -20.5t47 -17t48 -11.5t46 -4zM372 1636q-33 0 -61.5 -11.5t-49.5 -33.5t-33 -53t-12 -71q0 -76 41 -119t110 -43q32 0 62.5 11t54 30t38 44.5t14.5 54.5q0 42 -12.5 77.5t-34.5 60.5t-52 39t-65 14z" />
    <glyph glyph-name="uni207A" unicode="&#x207a;" horiz-adv-x="750" 
d="M657 1247h-232v-232h-100v232h-232v100h232v232h100v-232h232v-100z" />
    <glyph glyph-name="uni207B" unicode="&#x207b;" horiz-adv-x="750" 
d="M93 1347h564v-100h-564v100z" />
    <glyph glyph-name="uni207C" unicode="&#x207c;" horiz-adv-x="750" 
d="M93 1202h564v-100h-564v100zM93 1492h564v-100h-564v100z" />
    <glyph glyph-name="uni207D" unicode="&#x207d;" horiz-adv-x="618" 
d="M204 1286q0 312 186 532h128q-188 -228 -188 -531q0 -301 187 -525h-127q-186 212 -186 524z" />
    <glyph glyph-name="uni207E" unicode="&#x207e;" horiz-adv-x="618" 
d="M414 1286q0 -312 -186 -524h-127q187 224 187 525q0 303 -188 531h128q186 -220 186 -532z" />
    <glyph glyph-name="uni207F" unicode="&#x207f;" horiz-adv-x="803" 
d="M238 717h-128v719h128v-115h4q67 135 210 135q120 0 187 -74t67 -206v-459h-130v451q0 176 -151 176q-74 0 -130.5 -60.5t-56.5 -145.5v-421z" />
    <glyph glyph-name="uni2080" unicode="&#x2080;" horiz-adv-x="750" 
d="M365 -263q-139 0 -216 109.5t-77 318.5q0 229 80.5 345.5t233.5 116.5q291 0 291 -441q0 -219 -81.5 -334t-230.5 -115zM379 508q-169 0 -169 -337q0 -314 166 -314q164 0 164 320q0 331 -161 331z" />
    <glyph glyph-name="uni2081" unicode="&#x2081;" horiz-adv-x="750" 
d="M668 -243h-504v112h185v594l-193 -55v125l323 96v-760h189v-112z" />
    <glyph glyph-name="uni2082" unicode="&#x2082;" horiz-adv-x="750" 
d="M658 -243h-554v114l240 236q104 102 132 156.5t28 109.5q0 58 -38 94.5t-100 36.5q-118 0 -216 -102v149q84 76 235 76q118 0 187 -66t69 -174q0 -153 -205 -348l-164 -156v-4h386v-122z" />
    <glyph glyph-name="uni2083" unicode="&#x2083;" horiz-adv-x="750" 
d="M129 -211v142q103 -76 217 -76q80 0 126 37.5t46 101.5q0 141 -219 141h-84v118h80q197 0 197 134q0 119 -144 119q-94 0 -186 -69v139q87 51 213 51q113 0 180 -59.5t67 -155.5q0 -151 -145 -205v-4q177 -42 177 -202q0 -117 -85 -191t-227 -74q-137 0 -213 53z" />
    <glyph glyph-name="uni2084" unicode="&#x2084;" horiz-adv-x="750" 
d="M682 -33h-110v-204h-132v204h-393v92l369 554h156v-537h110v-109zM444 487h-4q-12 -31 -38 -73l-218 -338h256v323q0 32 4 88z" />
    <glyph glyph-name="uni2085" unicode="&#x2085;" horiz-adv-x="750" 
d="M126 -221v146q114 -70 200 -70q85 0 135.5 45t50.5 115q0 152 -204 152l-155 -8v452h457v-124h-329v-200q182 13 275.5 -62.5t93.5 -203.5q0 -126 -87.5 -205.5t-238.5 -79.5q-124 0 -198 43z" />
    <glyph glyph-name="uni2086" unicode="&#x2086;" horiz-adv-x="750" 
d="M611 592v-129q-14 9 -34 17t-41.5 14t-43.5 9.5t-40 3.5q-57 0 -99.5 -18t-75.5 -54q-31 -34 -53.5 -97.5t-22.5 -160.5h4q29 50 84 82.5t133 32.5q60 0 107.5 -19.5t80.5 -55t50.5 -85t17.5 -110.5t-22.5 -113t-62 -90.5t-93 -60t-114.5 -21.5q-63 0 -120 24.5t-100 74
t-68 125.5t-25 180q0 117 28 207.5t78.5 152.5t120.5 94t154 32q43 0 84 -9t73 -26zM386 186q-34 0 -64 -10.5t-52 -30.5t-35 -48t-13 -64q0 -34 10.5 -66.5t31 -57.5t49.5 -40t66 -15q75 0 117.5 45.5t42.5 118.5q0 78 -38.5 123t-114.5 45z" />
    <glyph glyph-name="uni2087" unicode="&#x2087;" horiz-adv-x="750" 
d="M325 -243h-146l321 742h-423v118h595v-53z" />
    <glyph glyph-name="uni2088" unicode="&#x2088;" horiz-adv-x="750" 
d="M514 205q163 -72 163 -225q0 -113 -82 -178t-231 -65q-125 0 -208.5 64.5t-83.5 170.5q0 153 162 233q-131 74 -131 200q0 100 76.5 161t207.5 61q117 0 189.5 -58t72.5 -152q0 -134 -135 -212zM375 266q136 57 136 139q0 103 -133 103q-60 0 -98.5 -28.5t-38.5 -72.5
q0 -85 134 -141zM369 146q-159 -54 -159 -169q0 -51 47 -85.5t120 -34.5q71 0 117 34t46 82q0 114 -171 173z" />
    <glyph glyph-name="uni2089" unicode="&#x2089;" horiz-adv-x="750" 
d="M312 -145q66 0 113 25.5t77 71.5t43.5 109t13.5 138h-4q-13 -28 -34.5 -51.5t-49 -40t-60.5 -26t-69 -9.5q-60 0 -108.5 19t-83.5 54.5t-54 85t-19 109.5q0 63 21 116t59.5 91t92.5 59t119 21q64 0 120.5 -25.5t99.5 -76t68 -125.5t25 -175q0 -105 -24 -195t-70.5 -155
t-115.5 -102t-160 -37q-48 0 -96.5 11.5t-86.5 33.5v127q19 -11 42 -20.5t47 -17t48 -11.5t46 -4zM372 509q-33 0 -61.5 -11.5t-49.5 -33.5t-33 -53t-12 -71q0 -76 41 -119t110 -43q32 0 62.5 11t54 30t38 44.5t14.5 54.5q0 42 -12.5 77.5t-34.5 60.5t-52 39t-65 14z" />
    <glyph glyph-name="uni208A" unicode="&#x208a;" horiz-adv-x="750" 
d="M657 120h-232v-232h-100v232h-232v100h232v232h100v-232h232v-100z" />
    <glyph glyph-name="uni208B" unicode="&#x208b;" horiz-adv-x="750" 
d="M93 220h564v-100h-564v100z" />
    <glyph glyph-name="uni208C" unicode="&#x208c;" horiz-adv-x="750" 
d="M93 75h564v-100h-564v100zM93 365h564v-100h-564v100z" />
    <glyph glyph-name="uni208D" unicode="&#x208d;" horiz-adv-x="618" 
d="M517 -365h-127q-186 212 -186 524t186 532h128q-188 -228 -188 -531q0 -301 187 -525z" />
    <glyph glyph-name="uni208E" unicode="&#x208e;" horiz-adv-x="618" 
d="M414 159q0 -312 -186 -524h-127q187 224 187 525q0 303 -188 531h128q186 -220 186 -532z" />
    <glyph glyph-name="uni2090" unicode="&#x2090;" horiz-adv-x="645" 
d="M542 -273h-126v80h-2q-56 -97 -174 -97q-83 0 -130.5 44.5t-47.5 119.5q0 155 194 183l160 22q0 114 -111 114q-100 0 -189 -63v113q86 49 204 49q222 0 222 -215v-350zM416 -52v47l-121 -16q-109 -14 -109 -92q0 -80 94 -80q60 0 98 39t38 102z" />
    <glyph glyph-name="uni2091" unicode="&#x2091;" horiz-adv-x="637" 
d="M565 -44h-377q10 -143 164 -143q92 0 170 53v-111q-72 -45 -192 -45q-126 0 -197 75.5t-71 211.5q0 129 73 212t187 83q113 0 178 -72.5t65 -196.5v-67zM442 55q-2 138 -122 138t-132 -138h254z" />
    <glyph glyph-name="uni2092" unicode="&#x2092;" horiz-adv-x="700" 
d="M344 -290q-128 0 -205 79t-77 206q0 135 81 216t213 81q128 0 205.5 -79.5t77.5 -205.5q0 -136 -81.5 -216.5t-213.5 -80.5zM350 185q-73 0 -116.5 -49t-43.5 -135t44 -135t116 -49q73 0 116.5 49t43.5 135q0 88 -43.5 136t-116.5 48z" />
    <glyph glyph-name="uni2093" unicode="&#x2093;" horiz-adv-x="547" 
d="M529 275l-188 -277l184 -271h-145l-106 178h-2l-110 -178h-144l190 268l-182 280h146l103 -189h2l111 189h141z" />
    <glyph glyph-name="uni2094" unicode="&#x2094;" horiz-adv-x="637" 
d="M72 46h376q-9 145 -164 145q-92 0 -170 -53v111q74 45 193 45q124 0 196.5 -76.5t72.5 -212.5q0 -129 -74 -213t-186 -84q-114 0 -179 74t-65 197v67zM448 -52h-254q2 -141 124 -141q116 0 130 141z" />
    <glyph glyph-name="Euro" unicode="&#x20ac;" horiz-adv-x="1105" 
d="M1014 50q-133 -74 -282 -74q-427 0 -509 506h-121v140h108q-4 31 -4 77q0 48 6 108h-110v140h131q51 240 192.5 375.5t343.5 135.5q137 0 245 -56v-162q-114 78 -256 78q-125 0 -222.5 -100.5t-136.5 -270.5h497v-140h-519q-8 -99 -1 -185h520v-140h-504
q72 -366 350 -366q131 0 272 87v-153z" />
    <glyph glyph-name="uni20AE" unicode="&#x20ae;" horiz-adv-x="918" 
d="M776 949l-234 -133v-204l234 133v-142l-234 -133v-470h-168v374l-239 -135v142l239 135v204l-239 -135v142l239 135v420h-333v152h835v-152h-334v-324l234 133v-142z" />
    <glyph glyph-name="trademark" unicode="&#x2122;" horiz-adv-x="1583" 
d="M1396 772h-108v478h-4l-219 -478h-59l-214 478h-4v-478h-102v662h127l225 -496h4l228 496h126v-662zM602 1336h-209v-564h-111v564h-206v98h526v-98z" />
    <glyph glyph-name="uni25CC" unicode="&#x25cc;" horiz-adv-x="1360" 
d="M680 916q-28 0 -50 22t-22 50q0 29 20.5 50.5t51.5 21.5q32 0 52 -20t20 -52q0 -31 -21.5 -51.5t-50.5 -20.5zM914 854q-28 0 -50 22t-22 50q0 29 20.5 50.5t51.5 21.5q32 0 52 -20t20 -52q0 -31 -21.5 -51.5t-50.5 -20.5zM446 854q-28 0 -50 22t-22 50q0 29 20.5 50.5
t51.5 21.5q32 0 52 -20t20 -52q0 -31 -21.5 -51.5t-50.5 -20.5zM1086 682q-28 0 -50 22t-22 50q0 29 20.5 50.5t51.5 21.5q32 0 52 -20t20 -52q0 -31 -21.5 -51.5t-50.5 -20.5zM276 682q-28 0 -50 22t-22 50q0 29 20.5 50.5t51.5 21.5q32 0 52 -20t20 -52q0 -31 -21.5 -51.5
t-50.5 -20.5zM1148 448q-28 0 -50 22t-22 50q0 29 20.5 50.5t51.5 21.5q32 0 52 -20t20 -52q0 -31 -21.5 -51.5t-50.5 -20.5zM212 448q-28 0 -50 22t-22 50q0 29 20.5 50.5t51.5 21.5q32 0 52 -20t20 -52q0 -31 -21.5 -51.5t-50.5 -20.5zM1086 214q-28 0 -50 22t-22 50
q0 29 20.5 50.5t51.5 21.5q32 0 52 -20t20 -52q0 -31 -21.5 -51.5t-50.5 -20.5zM276 214q-28 0 -50 22t-22 50q0 29 20.5 50.5t51.5 21.5q32 0 52 -20t20 -52q0 -31 -21.5 -51.5t-50.5 -20.5zM914 42q-29 0 -50.5 22.5t-21.5 51.5t20.5 50.5t51.5 21.5q32 0 52 -20t20 -52
q0 -31 -20.5 -52.5t-51.5 -21.5zM446 42q-29 0 -50.5 22.5t-21.5 51.5t20.5 50.5t51.5 21.5q32 0 52 -20t20 -52q0 -31 -20.5 -52.5t-51.5 -21.5zM680 -20q-28 0 -50 22t-22 50q0 29 20.5 50.5t51.5 21.5q32 0 52 -20t20 -52q0 -31 -21.5 -51.5t-50.5 -20.5z" />
    <glyph glyph-name="uni3000" unicode="&#x3000;" horiz-adv-x="2048" 
 />
    <glyph glyph-name="uni3001" unicode="&#x3001;" horiz-adv-x="2048" 
d="M618 -132l-120 -121q-169 184 -371 351l106 110q249 -201 385 -340z" />
    <glyph glyph-name="uni3002" unicode="&#x3002;" horiz-adv-x="2048" 
d="M390 276q98 0 170 -76t72 -177q0 -114 -73 -185.5t-176 -71.5t-177.5 73t-74.5 182q0 111 79 183t180 72zM387 -88q38 0 71 29t33 75q0 51 -32 81.5t-78 30.5q-43 0 -74 -30.5t-31 -80.5q0 -49 36.5 -77t74.5 -28z" />
    <glyph glyph-name="uni3007" unicode="&#x3007;" horiz-adv-x="2048" 
d="M1124 1543q333 0 575 -238.5t242 -592.5q0 -355 -246 -587t-580 -232q-332 0 -575 246t-243 577q0 330 234.5 578.5t592.5 248.5zM1793 721q0 279 -197.5 474.5t-476.5 195.5q-284 0 -477 -199.5t-193 -468.5t195 -473t477 -204q276 0 474 194.5t198 480.5z" />
    <glyph glyph-name="uni3008" unicode="&#x3008;" horiz-adv-x="2048" 
d="M1831 1697l-418 -983l418 -979h-182l-416 977l416 985h182z" />
    <glyph glyph-name="uni3009" unicode="&#x3009;" horiz-adv-x="2048" 
d="M223 1695h183l415 -983l-415 -977h-183l418 979z" />
    <glyph glyph-name="uni300A" unicode="&#x300a;" horiz-adv-x="2048" 
d="M1901 1695l-437 -983l437 -977h-162l-434 977l434 983h162zM1599 1695l-436 -983l436 -977h-161l-439 977l439 983h161z" />
    <glyph glyph-name="uni300B" unicode="&#x300b;" horiz-adv-x="2048" 
d="M156 1695h161l435 -983l-435 -977h-161l436 977zM457 1695h161l439 -983l-439 -977h-161l438 977z" />
    <glyph glyph-name="uni300C" unicode="&#x300c;" horiz-adv-x="2048" 
d="M1888 1695v-154h-411v-1804h-164v1958h575z" />
    <glyph glyph-name="uni300D" unicode="&#x300d;" horiz-adv-x="2048" 
d="M162 -265v156h411v1804h166v-1960h-577z" />
    <glyph glyph-name="uni300E" unicode="&#x300e;" horiz-adv-x="2048" 
d="M1894 1324h-309v-1589h-375v1962h684v-373zM1772 1455v115h-433v-1706h117v1591h316z" />
    <glyph glyph-name="uni300F" unicode="&#x300f;" horiz-adv-x="2048" 
d="M156 106h309v1589h377v-1960h-686v371zM279 -23v-115h432v1706h-117v-1591h-315z" />
    <glyph glyph-name="uni3010" unicode="&#x3010;" horiz-adv-x="2048" 
d="M1849 1695q-146 -111 -303 -348.5t-157 -601.5q0 -568 442 -1010h-676v1960h694z" />
    <glyph glyph-name="uni3011" unicode="&#x3011;" horiz-adv-x="2048" 
d="M203 1695h692v-1960h-674q138 140 243.5 312t151 330.5t45.5 364.5q0 367 -157 605t-301 348z" />
    <glyph glyph-name="uni3014" unicode="&#x3014;" horiz-adv-x="2048" 
d="M1847 1554l-379 -185v-1298l375 -190l-76 -144l-458 236v1497l465 227z" />
    <glyph glyph-name="uni3015" unicode="&#x3015;" horiz-adv-x="2048" 
d="M203 1554l73 143l465 -227v-1497l-456 -238l-76 146l373 190v1298z" />
    <glyph glyph-name="uni3016" unicode="&#x3016;" horiz-adv-x="2048" 
d="M1909 1695q-156 -173 -246 -452t-90 -554q0 -266 81 -525t230 -427h-754v1958h779zM1626 1554h-340v-1678h320q-90 143 -139 365t-49 445q0 217 56.5 467.5t151.5 400.5z" />
    <glyph glyph-name="uni3017" unicode="&#x3017;" horiz-adv-x="2048" 
d="M143 1695h777v-1958h-754q150 169 231.5 430.5t81.5 529.5q0 260 -90 541.5t-246 456.5zM424 1554q94 -148 151 -394.5t57 -475.5q0 -225 -49 -445.5t-139 -362.5h320v1678h-340z" />
    <glyph glyph-name="uni3018" unicode="&#x3018;" horiz-adv-x="2048" 
d="M1913 1564l-182 -111v-1478l172 -115l-88 -127l-519 338v1309l529 315zM1583 69v1298l-139 -84v-1122z" />
    <glyph glyph-name="uni3019" unicode="&#x3019;" horiz-adv-x="2048" 
d="M139 1564l88 131l527 -315v-1309l-518 -338l-89 127l175 115v1478zM467 69l141 92v1122l-141 84v-1298z" />
    <glyph glyph-name="uni301A" unicode="&#x301a;" horiz-adv-x="2048" 
d="M1886 1554h-168v-1676h168v-143h-592v1962h592v-143zM1575 -122v1676h-135v-1676h135z" />
    <glyph glyph-name="uni301B" unicode="&#x301b;" horiz-adv-x="2048" 
d="M164 1554v143h592v-1962h-592v143h168v1676h-168zM475 -122h135v1676h-135v-1676z" />
    <glyph glyph-name="uni534D" unicode="&#x534d;" horiz-adv-x="1600" 
d="M1500 -200h-785v815h-445v-815h-170v985h615v645h-615v170h785v-815h445v815h170v-985h-615v-645h615v-170z" />
    <glyph glyph-name="uni5350" unicode="&#x5350;" horiz-adv-x="1600" 
d="M100 -30h615v645h-615v985h170v-815h445v815h785v-170h-615v-645h615v-985h-170v815h-445v-815h-785v170z" />
    <glyph glyph-name="uniA840" unicode="&#xa840;" horiz-adv-x="1840" 
d="M270 785h1470v-170h-1470v-445h1470v-170h-653v-200h-173v200h-644v-200h-170v1800h1640v-170h-1470v-645z" />
    <glyph glyph-name="uniA841" unicode="&#xa841;" horiz-adv-x="1841" 
d="M670 1600h1071v-1151h-1071v500h-400v-980h1470v-170h-1640v1801h170v-481h400v481zM842 620h721v809h-721v-809z" />
    <glyph glyph-name="uniA842" unicode="&#xa842;" horiz-adv-x="1841" 
d="M670 280h-400v-481h-170v1801h1640v-170h-1470v-980h400v500h1071v-1151h-1071v481zM842 -30h721v809h-721v-809z" />
    <glyph glyph-name="uniA843" unicode="&#xa843;" horiz-adv-x="1600" 
d="M270 -200h-170v1800h785v-1630h445v1630h170v-1800h-785v1630h-445v-1630z" />
    <glyph glyph-name="uniA844" unicode="&#xa844;" horiz-adv-x="1600" 
d="M270 -200h-170v1800h1400v-1800h-785v1630h-445v-1630zM1330 1430h-445v-1460h445v1460z" />
    <glyph glyph-name="uniA845" unicode="&#xa845;" horiz-adv-x="1600" 
d="M699 615h-429v-815h-170v1800h170v-815h429v815h801v-1800h-801v815zM871 -29h451v644h-451v-644zM1322 1429h-451v-644h451v644z" />
    <glyph glyph-name="uniA846" unicode="&#xa846;" horiz-adv-x="1600" 
d="M715 -30v1630h170v-1630h445v1630h170v-1800h-1400v1800h170v-1630h445z" />
    <glyph glyph-name="uniA847" unicode="&#xa847;" horiz-adv-x="1600" 
d="M100 1600h1400v-170h-596l338 -645h258v-170h-354l-432 815h-444v-1460h1230v-170h-1400v1800z" />
    <glyph glyph-name="uniA848" unicode="&#xa848;" horiz-adv-x="1616" 
d="M1516 1430h-29q-26 0 -53.5 -7.5t-53 -21t-48 -31.5t-37.5 -39q-41 28 -89 50q-42 19 -96 34t-115 15q-89 0 -150.5 -18t-100 -52.5t-56 -85.5t-17.5 -118q0 -65 21 -122.5t55.5 -105t79.5 -84t93 -59.5h580v-170h-1230v-645h1230v-170h-1400v1800h170v-815h433
q-35 22 -71 59t-65.5 87t-48 112t-18.5 133q0 93 30.5 171t90.5 134t150 87.5t210 31.5q58 0 106 -10t86 -24t67 -29t50 -25q16 19 38 35t47 28t52.5 18.5t53.5 6.5h35v-170z" />
    <glyph glyph-name="uniA849" unicode="&#xa849;" horiz-adv-x="1600" 
d="M710 -199q-31 37 -81.5 81t-110.5 85t-124.5 73.5t-123.5 45.5v-285h-170v1799h1400v-170h-100v-1629h-129q-31 37 -81 81t-109 84.5t-123 73t-123 45.5v-284h-125zM835 256q50 -10 105 -33.5t108 -53.5t100.5 -64t81.5 -67v1392h-395v-1174zM270 256q50 -10 105 -33
t108 -53t100.5 -64t81.5 -67v1391h-395v-1174z" />
    <glyph glyph-name="uniA84A" unicode="&#xa84a;" horiz-adv-x="1200" 
d="M100 1600h170v-1345q50 -11 105 -34.5t108.5 -53t100.5 -63.5t81 -66v1118q0 106 27 188.5t79.5 139.5t130.5 86.5t180 29.5h18v-170h-17q-128 0 -188 -68.5t-60 -211.5v-1350h-128q-31 37 -81 80.5t-109.5 84t-123.5 72.5t-123 47v-284h-170v1800z" />
    <glyph glyph-name="uniA84B" unicode="&#xa84b;" horiz-adv-x="1600" 
d="M1500 1600v-170h-1l1 -1l-366 -435q72 -54 138.5 -122t117 -151.5t80.5 -183.5t30 -217q0 -103 -34 -197t-98.5 -166t-156.5 -114.5t-209 -42.5q-108 0 -196 37t-150.5 100.5t-96 150t-33.5 185.5q0 78 19 150.5t58 147t97.5 154t136.5 172.5l449 533h-1016v-1630h-170
v1800h1400zM1328 321q0 100 -25 183t-66 151t-93.5 123t-107.5 99l-85 -100q-73 -87 -121.5 -157t-77 -129.5t-40.5 -112t-12 -105.5q0 -60 20.5 -115t59.5 -96.5t95 -66t127 -24.5q74 0 134 22.5t103 66.5t66 109.5t23 151.5z" />
    <glyph glyph-name="uniA84C" unicode="&#xa84c;" horiz-adv-x="1600" 
d="M715 -200v815h-445v-815h-170v985h785v-815h445v1460h-1230v170h1400v-1800h-785z" />
    <glyph glyph-name="uniA84D" unicode="&#xa84d;" horiz-adv-x="1700" 
d="M1600 1600v-1394q0 -205 -112.5 -305.5t-337.5 -100.5q-118 0 -201.5 25.5t-136 76.5t-76.5 129t-24 183v226q0 78 -42 126.5t-126 48.5h-274v-815h-170v1800h1500zM270 785h276q88 0 151.5 -20t104.5 -61.5t60.5 -105.5t19.5 -152v-235q0 -68 17 -114t50.5 -74.5
t84 -40.5t117.5 -12q63 0 114 12t88 40.5t57 74.5t20 114v1219h-1160v-645z" />
    <glyph glyph-name="uniA84E" unicode="&#xa84e;" horiz-adv-x="1700" 
d="M1600 1600v-1800h-835v815h-495v-815h-170v1800h1500zM270 785h665v-815h495v1460h-1160v-645z" />
    <glyph glyph-name="uniA84F" unicode="&#xa84f;" horiz-adv-x="1660" 
d="M100 1600h1460v-170v-1l-417 -491q115 -49 194.5 -117.5t129 -149.5t71.5 -170t22 -181q0 -103 -34 -197t-98.5 -166t-156.5 -114.5t-209 -42.5q-106 0 -193.5 32t-150.5 93t-97.5 148t-34.5 197q0 78 15 145.5t46.5 133t79 132t111.5 141.5h-568v-1022h-170v1192h880
l376 438h-1256v170zM1389 318q0 78 -19 148.5t-61.5 132.5t-110.5 113.5t-167 91.5l-16 -17q-75 -80 -125 -148t-80 -129t-42 -118.5t-12 -116.5q0 -68 22 -124.5t62.5 -96.5t97.5 -62t126 -22q73 0 133 22t102.5 65.5t66 109t23.5 151.5z" />
    <glyph glyph-name="uniA850" unicode="&#xa850;" horiz-adv-x="1600" 
d="M100 -200v1800h1400v-170h-515v-227q152 -10 251.5 -67t158 -146t82 -202.5t23.5 -237.5q0 -168 -46.5 -306t-135.5 -236.5t-219.5 -153t-298.5 -54.5h-188v170h184q113 0 210.5 27t169 93.5t112 178t40.5 280.5q0 140 -24.5 233t-71 149t-114 79.5t-153.5 23.5
q-81 0 -136.5 -20t-90.5 -60.5t-50.5 -101.5t-15.5 -144q0 -75 9 -124.5t25.5 -79.5t40.5 -42t53 -12q53 0 78 45.5t25 145.5h170q0 -102 -20 -169.5t-56 -108.5t-86.5 -58t-112.5 -17q-55 0 -104.5 16t-89 54t-65.5 101t-35 156h-234v-815h-170zM270 785h234q2 79 25.5 147
t64 120.5t97 88t124.5 49.5v240h-545v-645z" />
    <glyph glyph-name="uniA851" unicode="&#xa851;" horiz-adv-x="1600" 
d="M1332 302q0 60 -9 116t-39.5 100t-89.5 70.5t-158 26.5h-504l553 815h-815v-1630h-170v1800h1400v-170h-218l-435 -645h179q126 0 216 -33.5t147 -96t84 -152t27 -201.5q0 -124 -27 -218t-84 -157t-146 -95t-214 -32h-453v170h461q99 0 157.5 27t89 73t39.5 106t9 126z
" />
    <glyph glyph-name="uniA852" unicode="&#xa852;" horiz-adv-x="1600" 
d="M1500 1600v-1800h-170v815h-445v-815h-170v421h-445v-421h-170v1800h1400zM270 379h445v406h615v645h-1060v-1051z" />
    <glyph glyph-name="uniA853" unicode="&#xa853;" horiz-adv-x="1600" 
d="M804 1600v-149l428 70v79h170v-1499h-172v69l-427 79v-149h-169v666h-364v-796h1230v-170h-1400v1800h170v-664h364v664h170zM1232 343v1007l-429 -75v-850z" />
    <glyph glyph-name="uniA854" unicode="&#xa854;" horiz-adv-x="1700" 
d="M1600 1600v-170h-75q-49 0 -84.5 -1.5t-63.5 -5t-51 -8.5t-49 -11q153 -89 231 -215.5t78 -297.5q0 -102 -31 -184.5t-92.5 -141t-153 -90.5t-213.5 -32q-105 0 -195 29t-155 85t-102 140t-37 193q0 69 20 139.5t57.5 136t92 123.5t123.5 102q-36 9 -68.5 16.5t-67 12.5
t-73 7.5t-86.5 2.5h-335v-1460h1330v-170h-1500v1800h502q116 0 241.5 -23.5t238.5 -69.5q47 22 94.5 39.5t101 29.5t116 18t139.5 6h67zM1413 899q0 69 -20.5 133t-61 119.5t-102 101t-144.5 78.5q-78 -37 -135.5 -86.5t-95 -106.5t-56 -119t-18.5 -123q0 -67 23 -119.5
t65 -89t100 -55.5t128 -19q152 0 234.5 74.5t82.5 211.5z" />
    <glyph glyph-name="uniA855" unicode="&#xa855;" horiz-adv-x="1600" 
d="M270 -200h-170v1800h1400v-1800h-170v1630h-445v-1630h-170v1630h-445v-1630z" />
    <glyph glyph-name="uniA856" unicode="&#xa856;" horiz-adv-x="1600" 
d="M100 1600h785v-815h445v815h170v-985h-785v815h-445v-1460h1230v-170h-1400v1800z" />
    <glyph glyph-name="uniA857" unicode="&#xa857;" horiz-adv-x="1600" 
d="M1168 785q332 0 332 -362v-261q0 -362 -332 -362h-1068v170h1064q91 0 128.5 49.5t37.5 147.5v251q0 98 -37.5 147.5t-128.5 49.5h-1064v170h556l615 645h-1171v170h1400v-168l-620 -647h288z" />
    <glyph glyph-name="uniA858" unicode="&#xa858;" horiz-adv-x="1200" 
d="M1100 1600v-1800h-170v815h-660v-815h-170v1800h170v-814h660v814h170z" />
    <glyph glyph-name="uniA859" unicode="&#xa859;" horiz-adv-x="1600" 
d="M883 568h447v862h-1230v170h1400v-1202h-786v516h-444v-944h1230v-170h-1400v1284h783v-516z" />
    <glyph glyph-name="uniA85A" unicode="&#xa85a;" horiz-adv-x="1600" 
d="M1500 1600v-170h-1230v-1460h445v815h785v-985h-170v815h-445v-815h-785v1800h1400z" />
    <glyph glyph-name="uniA85B" unicode="&#xa85b;" horiz-adv-x="1600" 
d="M270 -10h-170v962h170v-238l743 716h-913v170h1400v-170h-245l-988 -947l468 -273l428 456v-243l-397 -423l-496 285v-295z" />
    <glyph glyph-name="uniA85C" unicode="&#xa85c;" horiz-adv-x="2000" 
d="M1259 1431q-147 0 -243 -37t-152 -93.5t-78.5 -123.5t-22.5 -128q0 -43 4.5 -84t18.5 -83.5t39 -88t66 -97.5t101 -112.5t142 -133.5l142 -125l-394 -509l-612 309v-325h-170v1800h170v-1285l563 -286l209 271q-134 117 -221 214t-138 185.5t-71 173.5t-20 176
q0 58 12.5 121.5t42 124.5t77.5 116.5t119.5 97.5t167.5 66.5t221 24.5q65 0 134.5 -10t131 -24t108.5 -29t68 -25q39 38 93.5 63t117.5 25h15v-170h-15q-27 0 -56 -8.5t-56.5 -22t-51.5 -31t-42 -36.5q-52 28 -117 50q-56 19 -132.5 34t-170.5 15z" />
    <glyph glyph-name="uniA85D" unicode="&#xa85d;" horiz-adv-x="1600" 
d="M270 1200v-259l881 489h-1051v170h1400v-172l-1230 -679l381 -194q44 54 92 97t101 72.5t112 45t126 15.5q100 0 177.5 -32t131 -93t81.5 -149t28 -200q0 -124 -27 -219t-84 -160t-146 -98.5t-214 -33.5h-929v170h926q99 0 159.5 28.5t92.5 76t42.5 109t10.5 127.5
q0 60 -11 115t-39.5 97t-77 67t-123.5 25q-57 0 -107.5 -15t-99 -46.5t-98 -80.5t-105.5 -118l-400 202v-257h-170v900h170z" />
    <glyph glyph-name="uniA85E" unicode="&#xa85e;" horiz-adv-x="1600" 
d="M1328 300q0 61 -8 113t-23 100t-37.5 94.5t-52.5 96.5l149 81q70 -112 107 -231t37 -257q0 -103 -34 -193.5t-97 -158t-153 -106.5t-203 -39q-109 0 -199 35.5t-153.5 101t-98.5 157.5t-35 206q0 76 17 154.5t59.5 165.5t114.5 186t181 217l378 407h-1007v-1630h-170
v1800h1400v-170h-1l1 -1l-433 -463q-92 -99 -161 -185.5t-114.5 -166.5t-68.5 -157t-23 -155q0 -72 19 -133t58 -105.5t98.5 -69t139.5 -24.5q79 0 137.5 26.5t97.5 71.5t58.5 105t19.5 127z" />
    <glyph glyph-name="uniA85F" unicode="&#xa85f;" horiz-adv-x="1788" 
d="M904 322q-70 0 -132.5 18.5t-112.5 55.5t-85 92t-49 127h-255v-815h-170v1800h170v-815h233q-1 132 34 247.5t106.5 201t178.5 135t250 49.5t257 -42.5t193.5 -128.5t122.5 -216t43 -304q0 -189 -45.5 -346.5t-132.5 -271.5t-213.5 -177t-288.5 -63h-182v170h177
q132 0 228.5 48.5t159.5 138.5t94 217.5t31 286.5q0 147 -34.5 246.5t-94.5 160t-141 86t-174 25.5q-97 0 -171.5 -33.5t-124 -92t-75 -138t-25.5 -172.5q0 -87 17 -149t48.5 -101.5t76 -58t100.5 -18.5q32 0 55 1t39.5 3t28.5 4.5t22 5.5l-1 -163q-23 -6 -61 -10t-97 -4z
" />
    <glyph glyph-name="uniA860" unicode="&#xa860;" horiz-adv-x="1498" 
d="M1380 253l-407 -454h-178v1631h-525v-1630h-170v1800h1298v-170h-433v-1402l202 225h213z" />
    <glyph glyph-name="uniA861" unicode="&#xa861;" horiz-adv-x="1228" 
d="M270 787h109q114 94 201.5 190.5t154 197t115.5 206.5t86 219h192q-42 -116 -99 -236t-133.5 -236.5t-174.5 -225.5t-221 -204q131 -84 229.5 -193t173 -228.5t128.5 -242.5t94 -234h-192q-38 114 -85 219.5t-111.5 205t-151.5 195t-206 191.5h-109v-811h-170v1800h170
v-813z" />
    <glyph glyph-name="uniA862" unicode="&#xa862;" horiz-adv-x="1600" 
d="M1500 -30v-170h-1400v1800h1001v-1225h-176l-655 237v-642h1230zM931 553v877h-661v-636z" />
    <glyph glyph-name="uniA863" unicode="&#xa863;" horiz-adv-x="1600" 
d="M1500 -30v-170h-1400v1800h1220v-1280h-149q-35 41 -76 85.5t-88 84t-100 70.5t-112 44v-284h-145q-35 41 -76.5 85.5t-89 84.5t-101.5 71t-113 44v-635h1230zM795 775q50 -10 99 -31.5t94.5 -49.5t86.5 -60t75 -65v861h-355v-655zM270 775q50 -10 98.5 -31.5t94 -49
t87 -59.5t75.5 -65v860h-355v-655z" />
    <glyph glyph-name="uniA864" unicode="&#xa864;" horiz-adv-x="2000" 
d="M1718 1600h182v-1800l-700 1400q-51 102 -117 147.5t-153 45.5q-63 0 -110.5 -21.5t-79.5 -60t-48 -90.5t-16 -113q0 -84 23.5 -154.5t77.5 -145t141.5 -160t215.5 -198.5l142 -125l-394 -509l-612 309v-325h-170v1800h170v-1263l562 -285l191 246q-92 83 -166 153.5
t-131.5 134.5t-99 124.5t-68.5 123t-40 130t-13 144.5q0 103 28.5 187t82.5 143.5t133 92t181 32.5q107 0 180 -23.5t130 -64.5zM1333 1321l397 -793v902z" />
    <glyph glyph-name="uniA865" unicode="&#xa865;" horiz-adv-x="1600" 
d="M925 994h176v-1194h-1001v1800h1400v-170h-1230v-674zM931 -30v846l-661 -241v-605h661z" />
    <glyph glyph-name="uniA866" unicode="&#xa866;" horiz-adv-x="1264" 
d="M100 1600h170v-1631h459v1187q0 106 27 188.5t79.5 139.5t130.5 86.5t180 29.5h18v-170h-17q-128 0 -188 -68.5t-60 -211.5v-1351h-799v1801z" />
    <glyph glyph-name="uniA867" unicode="&#xa867;" horiz-adv-x="1293" 
d="M100 1600h1093v-1800zM401 1430l622 -1031v1031h-622z" />
    <glyph glyph-name="uniA868" unicode="&#xa868;" horiz-adv-x="1203" 
d="M292 1600q44 -106 74 -208.5t48.5 -203t26.5 -201t8 -203.5q0 -123 -13 -239.5t-31.5 -214.5t-39.5 -172.5t-38 -114.5q61 18 129.5 57.5t136 101t128.5 145t108 190t75 236.5t28 284v543h171v-543q0 -181 -34.5 -336.5t-98.5 -285.5t-154.5 -234t-202 -183t-241 -133.5
t-272.5 -84.5q86 241 131.5 481.5t45.5 492.5q0 103 -8 205t-28 205t-54 206.5t-85 209.5h190z" />
    <glyph glyph-name="uniA869" unicode="&#xa869;" horiz-adv-x="1616" 
d="M1516 -30v-170h-15q-31 0 -61 8t-56.5 20.5t-50 28.5t-43.5 31q-21 -10 -50 -25t-67 -29t-86 -24t-106 -10q-120 0 -210 31.5t-150 87.5t-90.5 134t-30.5 171q0 71 20.5 133t52 112t69.5 87t73 59h-445v-815h-170v1800h1400v-170h-1230v-645h1230v-170h-574
q-48 -23 -94 -59.5t-82 -84.5t-57.5 -106.5t-21.5 -126.5q0 -64 17 -114t55.5 -84.5t100 -52t150.5 -17.5q61 0 115 15.5t96 34.5q48 22 89 50q18 -15 42 -32.5t51.5 -32.5t56.5 -25t56 -10h16z" />
    <glyph glyph-name="uniA86A" unicode="&#xa86a;" horiz-adv-x="1600" 
d="M835 1600v-284q59 14 123 46t123 72.5t109 84.5t81 81h129v-1630h100v-169h-1400v1799h170v-285q59 14 123.5 46t124.5 73t110.5 85t81.5 81h125zM835 -29h395v1392q-34 -33 -81.5 -67t-100.5 -64t-108 -53t-105 -34v-1174zM665 -29v1391q-34 -33 -81.5 -67t-100.5 -64
t-108 -52.5t-105 -33.5v-1174h395z" />
    <glyph glyph-name="uniA86B" unicode="&#xa86b;" horiz-adv-x="1200" 
d="M100 1600h170v-284q59 15 123 47t123.5 72.5t109.5 84t81 80.5h128v-1350q0 -143 60 -211.5t188 -68.5h17v-170h-18q-102 0 -180 29.5t-130.5 86.5t-79.5 139.5t-27 188.5v1118q-34 -32 -81 -66t-100.5 -63.5t-108.5 -53t-105 -34.5v-1345h-170v1800z" />
    <glyph glyph-name="uniA86C" unicode="&#xa86c;" horiz-adv-x="1600" 
d="M100 -200v1800h170v-1630h1016l-496 589q-64 76 -113.5 145t-83 137t-50.5 138t-17 148q0 99 36 185.5t100.5 150t155 100.5t198.5 37q117 0 207 -42.5t151.5 -114.5t93.5 -166t32 -197q0 -117 -30 -217t-80.5 -183.5t-117 -151.5t-138.5 -122l366 -435l-1 -1h1v-170
h-1400zM1330 1079q0 86 -23.5 152t-65 110t-99 66.5t-126.5 22.5q-76 0 -135.5 -24.5t-100.5 -66.5t-62 -97t-21 -115q0 -52 12 -105t41 -112t77 -128t120 -154l89 -105q55 44 108 99t94 123t66.5 151t25.5 183z" />
    <glyph glyph-name="uniA86D" unicode="&#xa86d;" horiz-adv-x="1600" 
d="M1168 785q332 0 332 -362v-61q0 -362 -332 -362h-535q-59 0 -127.5 -15.5t-138.5 -42.5t-138.5 -63.5t-128.5 -78.5v182q60 41 129 75.5t139 59.5t137.5 39t124.5 14h534q91 0 128.5 49.5t37.5 147.5v51q0 98 -37.5 147.5t-128.5 49.5h-538q-53 0 -119.5 16.5t-137 44.5
t-140 64t-129.5 75v185q61 -39 131 -77t142.5 -69t144.5 -50t138 -19l615 645h-1171v170h1400v-168l-619 -647h287z" />
    <glyph glyph-name="uniA86E" unicode="&#xa86e;" horiz-adv-x="1600" 
d="M1500 1600v-170h-1230v-1408l445 124v639h785v-985h-170v815h-445v-586l-785 -229v1800h1400z" />
    <glyph glyph-name="uniA86F" unicode="&#xa86f;" horiz-adv-x="1697" 
d="M1597 1030q-104 88 -191 156.5t-165 116t-149.5 72t-144.5 24.5t-124.5 -22.5t-84 -62t-47.5 -92.5t-15 -114q0 -84 23.5 -154.5t77.5 -145t141.5 -160t215.5 -198.5l142 -125l-394 -509l-612 309v-325h-170v1800h170v-1285l563 -286l209 271q-138 124 -239 223.5
t-167 192t-98.5 186.5t-32.5 206q0 103 31 188t88.5 145.5t139 94t183.5 33.5q84 0 165.5 -22t161.5 -61.5t160.5 -94.5t162.5 -120v-241z" />
    <glyph glyph-name="uniA870" unicode="&#xa870;" horiz-adv-x="2000" 
d="M1156 1424q-49 0 -87 -58t-62 -176h-114q-14 48 -32.5 92t-41.5 77t-52 52.5t-64 19.5q-26 0 -44.5 -13t-30 -36t-17 -53t-5.5 -65q0 -84 34.5 -180t99.5 -201.5t159.5 -220t215.5 -235.5l135 -135l-368 -476l-612 309v-325h-170v1800h170v-1286l564 -285l183 237
q-122 128 -228.5 256.5t-185 254.5t-123.5 248.5t-45 238.5q0 71 15 132.5t46.5 106.5t80 71t115.5 26q43 0 83.5 -19t74 -51t58.5 -73t36 -85q27 119 86.5 173.5t135.5 54.5h734v-1800l-570 1387q-27 65 -47.5 110t-39.5 73.5t-39.5 41t-47.5 12.5zM1415 1430l315 -794v794
h-315z" />
    <glyph glyph-name="uniA871" unicode="&#xa871;" horiz-adv-x="1108" 
d="M350 -200q0 143 14.5 299.5t38.5 313t56 308t66 284.5t69 242.5t66 182.5h-560v170h908v-170h-170q-30 -73 -65 -181.5t-69.5 -240t-66.5 -281.5t-56.5 -306.5t-39.5 -314.5t-15 -306h-176z" />
    <glyph glyph-name="uniA872" unicode="&#xa872;" horiz-adv-x="700" 
d="M270 785h330v-170h-330v-815h-170v1800h170v-815z" />
    <glyph glyph-name="uniA873" unicode="&#xa873;" horiz-adv-x="1103" 
d="M100 718q33 39 63 72t61.5 56.5t66 36.5t74.5 13q148 0 148 -178t-148 -178q-40 0 -74.5 13t-66 36.5t-61.5 56.5t-63 72zM628 -160h-176q387 374 387 875q0 505 -389 885h178q375 -366 375 -887q0 -519 -375 -873z" />
    <glyph glyph-name="uniA874" unicode="&#xa874;" horiz-adv-x="1400" 
d="M100 1600h1200v-1800h-1200v170h1030v1460h-860v-860h360v430h170v-600h-700v1200z" />
    <glyph glyph-name="uniA875" unicode="&#xa875;" horiz-adv-x="1400" 
d="M100 1600h1200v-1800h-1200v170h1030v645h-860v-330h360v200h170v-370h-700v670h1030v645h-860v-330h360v200h170v-370h-700v670z" />
    <glyph glyph-name="uniA876" unicode="&#xa876;" horiz-adv-x="370" 
d="M270 -200h-170v1800h170v-1800z" />
    <glyph glyph-name="uniA877" unicode="&#xa877;" horiz-adv-x="985" 
d="M885 -200h-170v1800h170v-1800zM270 -200h-170v1800h170v-1800z" />
    <glyph glyph-name="uniFE00" unicode="&#xfe00;" horiz-adv-x="1800" 
d="M1474 1029v-93h-54v-403h54v-94h-211v94h54v403h-54v93h211zM810 1029l-189 -590h-117l-185 590h113l129 -456l138 456h111zM835 592q19 -17 42 -29t45.5 -20t43 -12t36.5 -4q51 0 75 16.5t24 49.5q0 34 -33.5 56.5t-84.5 47.5q-31 15 -58 31.5t-46.5 36.5t-31 46
t-11.5 61q0 43 18 74t47.5 51.5t67.5 30.5t77 10q85 0 139 -26v-117q-37 26 -73.5 36t-71.5 10q-18 0 -35.5 -3.5t-31.5 -11t-22.5 -19.5t-8.5 -29q0 -32 28 -52.5t81 -45.5q31 -17 59.5 -34.5t50 -39t34.5 -48t13 -61.5q0 -45 -17.5 -76.5t-45.5 -52t-63 -29.5t-70 -9
q-44 0 -91 8.5t-86 31.5v122zM1636 1151h-98v221h-223v100h321v-321zM1063 1372h-324v100h324v-100zM487 1372h-223v-221h-101v321h324v-100zM1636 576h-98v321h98v-321zM264 576h-101v321h101v-321zM1636 0h-321v100h223v224h98v-324zM487 0h-324v324h101v-224h223v-100z
M1063 0h-324v100h324v-100z" />
    <glyph glyph-name="uni01F0030C" horiz-adv-x="731" 
d="M555 514q0 -255 -108 -396.5t-289 -141.5q-84 0 -138 24v166q54 -39 140 -39q227 0 227 385v922h168v-920zM751 1895l-212 -330h-134l-214 330h114l164 -229l164 229h118z" />
    <glyph glyph-name="uni00550307" horiz-adv-x="1407" 
d="M1237 580q0 -604 -545 -604q-522 0 -522 581v877h168v-866q0 -441 372 -441q359 0 359 426v881h168v-854zM703 1567q-41 0 -70 29t-29 70t30 68.5t69 27.5q41 0 70 -27.5t29 -68.5t-29 -70t-70 -29z" />
    <glyph glyph-name="uni00750307" horiz-adv-x="1159" 
d="M994 0h-164v162h-4q-102 -186 -316 -186q-366 0 -366 436v612h163v-586q0 -324 248 -324q120 0 197.5 88.5t77.5 231.5v590h164v-1024zM579 1218q-41 0 -70 29t-29 70t30 68.5t69 27.5q41 0 70 -27.5t29 -68.5t-29 -70t-70 -29z" />
    <glyph glyph-name="uni004C0325" horiz-adv-x="964" 
d="M932 0h-744v1434h168v-1282h576v-152zM553 -455q-87 0 -144.5 52.5t-57.5 137.5q0 90 59 144t150 54q89 0 146 -54t57 -138t-61 -140t-149 -56zM553 -148q-48 0 -80 -32.5t-32 -80.5q0 -112 112 -112q50 0 83 32t33 80q0 49 -33 81t-83 32z" />
    <glyph glyph-name="uni006C0325" horiz-adv-x="496" 
d="M330 0h-164v1516h164v-1516zM244 -455q-87 0 -144.5 52.5t-57.5 137.5q0 90 59 144t150 54q89 0 146 -54t57 -138t-61 -140t-149 -56zM244 -148q-48 0 -80 -32.5t-32 -80.5q0 -112 112 -112q50 0 83 32t33 80q0 49 -33 81t-83 32z" />
    <glyph glyph-name="uni004C03250304" horiz-adv-x="964" 
d="M777 1567h-508v109h508v-109zM932 0h-744v1434h168v-1282h576v-152zM553 -455q-87 0 -144.5 52.5t-57.5 137.5q0 90 59 144t150 54q89 0 146 -54t57 -138t-61 -140t-149 -56zM553 -148q-48 0 -80 -32.5t-32 -80.5q0 -112 112 -112q50 0 83 32t33 80q0 49 -33 81t-83 32z
" />
    <glyph glyph-name="uni006C03250304" horiz-adv-x="496" 
d="M502 1567h-508v109h508v-109zM330 0h-164v1516h164v-1516zM244 -455q-87 0 -144.5 52.5t-57.5 137.5q0 90 59 144t150 54q89 0 146 -54t57 -138t-61 -140t-149 -56zM244 -148q-48 0 -80 -32.5t-32 -80.5q0 -112 112 -112q50 0 83 32t33 80q0 49 -33 81t-83 32z" />
    <glyph glyph-name="uni00520325" horiz-adv-x="1225" 
d="M1216 0h-200l-240 402q-33 56 -64 95.5t-63.5 64.5t-70 36.5t-84.5 11.5h-138v-610h-168v1434h428q94 0 173.5 -23.5t138 -71.5t91.5 -119.5t33 -167.5q0 -75 -22.5 -137.5t-64 -111.5t-100 -83.5t-131.5 -53.5v-4q36 -16 62.5 -36.5t50.5 -48.5t47.5 -63.5t52.5 -82.5z
M356 1282v-520h228q63 0 116.5 19t92.5 54.5t61 87t22 115.5q0 115 -74.5 179.5t-215.5 64.5h-230zM675 -455q-87 0 -144.5 52.5t-57.5 137.5q0 90 59 144t150 54q89 0 146 -54t57 -138t-61 -140t-149 -56zM675 -148q-48 0 -80 -32.5t-32 -80.5q0 -112 112 -112q50 0 83 32
t33 80q0 49 -33 81t-83 32z" />
    <glyph glyph-name="uni00720325" horiz-adv-x="712" 
d="M700 858q-43 33 -124 33q-105 0 -175.5 -99t-70.5 -270v-522h-164v1024h164v-211h4q35 108 107 168.5t161 60.5q64 0 98 -14v-170zM352 -455q-87 0 -144.5 52.5t-57.5 137.5q0 90 59 144t150 54q89 0 146 -54t57 -138t-61 -140t-149 -56zM352 -148q-48 0 -80 -32.5
t-32 -80.5q0 -112 112 -112q50 0 83 32t33 80q0 49 -33 81t-83 32z" />
    <glyph glyph-name="uni005203250304" horiz-adv-x="1225" 
d="M1216 0h-200l-240 402q-33 56 -64 95.5t-63.5 64.5t-70 36.5t-84.5 11.5h-138v-610h-168v1434h428q94 0 173.5 -23.5t138 -71.5t91.5 -119.5t33 -167.5q0 -75 -22.5 -137.5t-64 -111.5t-100 -83.5t-131.5 -53.5v-4q36 -16 62.5 -36.5t50.5 -48.5t47.5 -63.5t52.5 -82.5z
M356 1282v-520h228q63 0 116.5 19t92.5 54.5t61 87t22 115.5q0 115 -74.5 179.5t-215.5 64.5h-230zM675 -455q-87 0 -144.5 52.5t-57.5 137.5q0 90 59 144t150 54q89 0 146 -54t57 -138t-61 -140t-149 -56zM675 -148q-48 0 -80 -32.5t-32 -80.5q0 -112 112 -112q50 0 83 32
t33 80q0 49 -33 81t-83 32zM866 1567h-508v109h508v-109z" />
    <glyph glyph-name="uni007203250304" horiz-adv-x="712" 
d="M700 858q-43 33 -124 33q-105 0 -175.5 -99t-70.5 -270v-522h-164v1024h164v-211h4q35 108 107 168.5t161 60.5q64 0 98 -14v-170zM352 -455q-87 0 -144.5 52.5t-57.5 137.5q0 90 59 144t150 54q89 0 146 -54t57 -138t-61 -140t-149 -56zM352 -148q-48 0 -80 -32.5
t-32 -80.5q0 -112 112 -112q50 0 83 32t33 80q0 49 -33 81t-83 32zM690 1218h-508v109h508v-109z" />
    <glyph glyph-name="uni004D0310" horiz-adv-x="1839" 
d="M1650 0h-167v962q0 114 14 279h-4q-24 -97 -43 -139l-490 -1102h-82l-489 1094q-21 48 -43 147h-4q8 -86 8 -281v-960h-162v1434h222l440 -1000q51 -115 66 -172h6q43 118 69 176l449 996h210v-1434zM919 1793q-40 0 -69 28.5t-29 69.5q0 42 29 69t69 27q41 0 69.5 -27.5
t28.5 -68.5q0 -40 -28.5 -69t-69.5 -29zM1193 1817q-10 -112 -88 -182t-190 -70q-117 0 -191.5 69t-78.5 183h100q12 -155 172 -155q68 0 116.5 42t57.5 113h102z" />
    <glyph glyph-name="uni006D0310" horiz-adv-x="1764" 
d="M1620 0h-164v588q0 170 -52.5 246t-176.5 76q-105 0 -178.5 -96t-73.5 -230v-584h-164v608q0 302 -233 302q-108 0 -178 -90.5t-70 -235.5v-584h-164v1024h164v-162h4q109 186 318 186q105 0 183 -58.5t107 -153.5q114 212 340 212q338 0 338 -417v-631zM882 1446
q-40 0 -69 28.5t-29 69.5q0 42 29 69t69 27q41 0 69.5 -27.5t28.5 -68.5q0 -40 -28.5 -69t-69.5 -29zM1156 1470q-10 -112 -88 -182t-190 -70q-117 0 -191.5 69t-78.5 183h100q12 -155 172 -155q68 0 116.5 42t57.5 113h102z" />
    <glyph glyph-name="uniE000" horiz-adv-x="1000" 
d="M900 977h-170v453h-460v-1460h460v453h170v-623h-800v1800h800v-623z" />
    <glyph glyph-name="uniE001" horiz-adv-x="1000" 
d="M270 -30h460v645h-630v985h800v-623h-170v453h-460v-645h630v-985h-800v623h170v-453z" />
    <glyph glyph-name="uniE002" horiz-adv-x="900" 
d="M270 615v-815h-170v985h530v815h170v-985h-530zM100 1600h170v-623h-170v623zM630 423h170v-623h-170v623z" />
    <glyph glyph-name="uniE003" horiz-adv-x="900" 
d="M270 615v-515h-170v685h530v515h170v-685h-530zM270 1430v-453h-170v623h700v-170h-530zM100 -30h530v453h170v-623h-700v170z" />
    <glyph glyph-name="uniE004" horiz-adv-x="900" 
d="M100 615v685h170v-515h530v-685h-170v515h-530zM800 977h-170v453h-530v170h700v-623zM100 -200v623h170v-453h530v-170h-700z" />
    <glyph glyph-name="uniE005" horiz-adv-x="2400" 
d="M2130 1430h-230v-815h-615v-645h615v-170h-785v815h-445v-815h-570v1800h170v-1630h230v815h615v645h-615v170h785v-815h445v815h570v-1800h-170v1630z" />
    <glyph glyph-name="uniE006" horiz-adv-x="2400" 
d="M670 785h445v815h785v-170h-615v-645h615v-815h230v1630h170v-1800h-570v815h-445v-815h-785v170h615v645h-615v815h-230v-1630h-170v1800h570v-815z" />
    <glyph glyph-name="uniA840.init" horiz-adv-x="2100" 
d="M270 785h1470v-170h-1470v-445h1470v-170h-653v-200h-173v200h-644v-200h-170v1800h1640v-170h-1470v-645zM1670 1600h560v-170h-560v170z" />
    <glyph glyph-name="uniA841.init" horiz-adv-x="2141" 
d="M670 1600h1071v-1151h-1071v500h-400v-980h1470v-170h-1640v1801h170v-481h400v481zM842 620h721v809h-721v-809zM1711 1600h560v-170h-560v170z" />
    <glyph glyph-name="uniA842.init" horiz-adv-x="2141" 
d="M670 280h-400v-481h-170v1801h1640v-170h-1470v-980h400v500h1071v-1151h-1071v481zM842 -30h721v809h-721v-809zM1711 1600h560v-170h-560v170z" />
    <glyph glyph-name="uniA843.init" 
d="M270 -200h-170v1800h785v-1630h445v1630h170v-1800h-785v1630h-445v-1630zM1470 1600h560v-170h-560v170z" />
    <glyph glyph-name="uniA844.init" 
d="M270 -200h-170v1800h1400v-1800h-785v1630h-445v-1630zM1330 1430h-445v-1460h445v1460zM1470 1600h560v-170h-560v170z" />
    <glyph glyph-name="uniA845.init" 
d="M699 615h-429v-815h-170v1800h170v-815h429v815h801v-1800h-801v815zM871 -29h451v644h-451v-644zM1322 1429h-451v-644h451v644zM1470 1600h560v-170h-560v170z" />
    <glyph glyph-name="uniA846.init" 
d="M715 -30v1630h170v-1630h445v1630h170v-1800h-1400v1800h170v-1630h445zM1470 1600h560v-170h-560v170z" />
    <glyph glyph-name="uniA847.init" 
d="M100 1600h1400v-170h-596l338 -645h258v-170h-354l-432 815h-444v-1460h1230v-170h-1400v1800zM1470 1600h560v-170h-560v170z" />
    <glyph glyph-name="uniA848.init" 
d="M1516 1430h-29q-26 0 -53.5 -7.5t-53 -21t-48 -31.5t-37.5 -39q-41 28 -89 50q-42 19 -96 34t-115 15q-89 0 -150.5 -18t-100 -52.5t-56 -85.5t-17.5 -118q0 -65 21 -122.5t55.5 -105t79.5 -84t93 -59.5h580v-170h-1230v-645h1230v-170h-1400v1800h170v-815h433
q-35 22 -71 59t-65.5 87t-48 112t-18.5 133q0 93 30.5 171t90.5 134t150 87.5t210 31.5q58 0 106 -10t86 -24t67 -29t50 -25q16 19 38 35t47 28t52.5 18.5t53.5 6.5h35v-170zM1470 1600h560v-170h-560v170z" />
    <glyph glyph-name="uniA849.init" horiz-adv-x="1800" 
d="M710 -199q-31 37 -81.5 81t-110.5 85t-124.5 73.5t-123.5 45.5v-285h-170v1799h1400v-170h-100v-1629h-129q-31 37 -81 81t-109 84.5t-123 73t-123 45.5v-284h-125zM835 256q50 -10 105 -33.5t108 -53.5t100.5 -64t81.5 -67v1392h-395v-1174zM270 256q50 -10 105 -33
t108 -53t100.5 -64t81.5 -67v1391h-395v-1174zM1370 1600h560v-170h-560v170z" />
    <glyph glyph-name="uniA84A.init" horiz-adv-x="1235" 
d="M100 1600h170v-1345q50 -11 105 -34.5t108.5 -53t100.5 -63.5t81 -66v1118q0 106 27 188.5t79.5 139.5t130.5 86.5t180 29.5h18v-170h-17q-128 0 -188 -68.5t-60 -211.5v-1350h-128q-31 37 -81 80.5t-109.5 84t-123.5 72.5t-123 47v-284h-170v1800zM1085 1600h280v-170
h-280v170z" />
    <glyph glyph-name="uniA84B.init" 
d="M1500 1600v-170h-1l1 -1l-366 -435q72 -54 138.5 -122t117 -151.5t80.5 -183.5t30 -217q0 -103 -34 -197t-98.5 -166t-156.5 -114.5t-209 -42.5q-108 0 -196 37t-150.5 100.5t-96 150t-33.5 185.5q0 78 19 150.5t58 147t97.5 154t136.5 172.5l449 533h-1016v-1630h-170
v1800h1400zM1328 321q0 100 -25 183t-66 151t-93.5 123t-107.5 99l-85 -100q-73 -87 -121.5 -157t-77 -129.5t-40.5 -112t-12 -105.5q0 -60 20.5 -115t59.5 -96.5t95 -66t127 -24.5q74 0 134 22.5t103 66.5t66 109.5t23 151.5zM1470 1600h560v-170h-560v170z" />
    <glyph glyph-name="uniA84C.init" 
d="M715 -200v815h-445v-815h-170v985h785v-815h445v1460h-1230v170h1400v-1800h-785zM1470 1600h560v-170h-560v170z" />
    <glyph glyph-name="uniA84D.init" horiz-adv-x="2000" 
d="M1600 1600v-1394q0 -205 -112.5 -305.5t-337.5 -100.5q-118 0 -201.5 25.5t-136 76.5t-76.5 129t-24 183v226q0 78 -42 126.5t-126 48.5h-274v-815h-170v1800h1500zM270 785h276q88 0 151.5 -20t104.5 -61.5t60.5 -105.5t19.5 -152v-235q0 -68 17 -114t50.5 -74.5
t84 -40.5t117.5 -12q63 0 114 12t88 40.5t57 74.5t20 114v1219h-1160v-645zM1570 1600h560v-170h-560v170z" />
    <glyph glyph-name="uniA84E.init" horiz-adv-x="2000" 
d="M1600 1600v-1800h-835v815h-495v-815h-170v1800h1500zM270 785h665v-815h495v1460h-1160v-645zM1570 1600h560v-170h-560v170z" />
    <glyph glyph-name="uniA84F.init" horiz-adv-x="1960" 
d="M100 1600h1460v-170v-1l-417 -491q115 -49 194.5 -117.5t129 -149.5t71.5 -170t22 -181q0 -103 -34 -197t-98.5 -166t-156.5 -114.5t-209 -42.5q-106 0 -193.5 32t-150.5 93t-97.5 148t-34.5 197q0 78 15 145.5t46.5 133t79 132t111.5 141.5h-568v-1022h-170v1192h880
l376 438h-1256v170zM1389 318q0 78 -19 148.5t-61.5 132.5t-110.5 113.5t-167 91.5l-16 -17q-75 -80 -125 -148t-80 -129t-42 -118.5t-12 -116.5q0 -68 22 -124.5t62.5 -96.5t97.5 -62t126 -22q73 0 133 22t102.5 65.5t66 109t23.5 151.5zM1530 1600h560v-170h-560v170z" />
    <glyph glyph-name="uniA850.init" 
d="M100 -200v1800h1400v-170h-515v-227q152 -10 251.5 -67t158 -146t82 -202.5t23.5 -237.5q0 -168 -46.5 -306t-135.5 -236.5t-219.5 -153t-298.5 -54.5h-188v170h184q113 0 210.5 27t169 93.5t112 178t40.5 280.5q0 140 -24.5 233t-71 149t-114 79.5t-153.5 23.5
q-81 0 -136.5 -20t-90.5 -60.5t-50.5 -101.5t-15.5 -144q0 -75 9 -124.5t25.5 -79.5t40.5 -42t53 -12q53 0 78 45.5t25 145.5h170q0 -102 -20 -169.5t-56 -108.5t-86.5 -58t-112.5 -17q-55 0 -104.5 16t-89 54t-65.5 101t-35 156h-234v-815h-170zM270 785h234q2 79 25.5 147
t64 120.5t97 88t124.5 49.5v240h-545v-645zM1470 1600h560v-170h-560v170z" />
    <glyph glyph-name="uniA851.init" horiz-adv-x="1871" 
d="M1332 302q0 60 -9 116t-39.5 100t-89.5 70.5t-158 26.5h-504l553 815h-815v-1630h-170v1800h1400v-170h-218l-435 -645h179q126 0 216 -33.5t147 -96t84 -152t27 -201.5q0 -124 -27 -218t-84 -157t-146 -95t-214 -32h-453v170h461q99 0 157.5 27t89 73t39.5 106t9 126z
M1441 1600h560v-170h-560v170z" />
    <glyph glyph-name="uniA852.init" 
d="M1500 1600v-1800h-170v815h-445v-815h-170v421h-445v-421h-170v1800h1400zM270 379h445v406h615v645h-1060v-1051zM1470 1600h560v-170h-560v170z" />
    <glyph glyph-name="uniA853.init" horiz-adv-x="1802" 
d="M804 1600v-149l428 70v79h170v-1499h-172v69l-427 79v-149h-169v666h-364v-796h1230v-170h-1400v1800h170v-664h364v664h170zM1232 343v1007l-429 -75v-850zM1372 1600h560v-170h-560v170z" />
    <glyph glyph-name="uniA854.init" horiz-adv-x="1956" 
d="M1600 1600v-170h-75q-49 0 -84.5 -1.5t-63.5 -5t-51 -8.5t-49 -11q153 -89 231 -215.5t78 -297.5q0 -102 -31 -184.5t-92.5 -141t-153 -90.5t-213.5 -32q-105 0 -195 29t-155 85t-102 140t-37 193q0 69 20 139.5t57.5 136t92 123.5t123.5 102q-36 9 -68.5 16.5t-67 12.5
t-73 7.5t-86.5 2.5h-335v-1460h1330v-170h-1500v1800h502q116 0 241.5 -23.5t238.5 -69.5q47 22 94.5 39.5t101 29.5t116 18t139.5 6h67zM1413 899q0 69 -20.5 133t-61 119.5t-102 101t-144.5 78.5q-78 -37 -135.5 -86.5t-95 -106.5t-56 -119t-18.5 -123q0 -67 23 -119.5
t65 -89t100 -55.5t128 -19q152 0 234.5 74.5t82.5 211.5zM1591 1600h495v-170h-495v170z" />
    <glyph glyph-name="uniA855.init" 
d="M270 -200h-170v1800h1400v-1800h-170v1630h-445v-1630h-170v1630h-445v-1630zM1470 1600h560v-170h-560v170z" />
    <glyph glyph-name="uniA856.init" 
d="M100 1600h785v-815h445v815h170v-985h-785v815h-445v-1460h1230v-170h-1400v1800zM1470 1600h560v-170h-560v170z" />
    <glyph glyph-name="uniA857.init" horiz-adv-x="1870" 
d="M1168 785q332 0 332 -362v-261q0 -362 -332 -362h-1068v170h1064q91 0 128.5 49.5t37.5 147.5v251q0 98 -37.5 147.5t-128.5 49.5h-1064v170h556l615 645h-1171v170h1400v-168l-620 -647h288zM1440 1600h560v-170h-560v170z" />
    <glyph glyph-name="uniA858.init" horiz-adv-x="1500" 
d="M1100 1600v-1800h-170v815h-660v-815h-170v1800h170v-814h660v814h170zM1070 1600h560v-170h-560v170z" />
    <glyph glyph-name="uniA859.init" 
d="M883 568h447v862h-1230v170h1400v-1202h-786v516h-444v-944h1230v-170h-1400v1284h783v-516zM1470 1600h560v-170h-560v170z" />
    <glyph glyph-name="uniA85A.init" 
d="M1500 1600v-170h-1230v-1460h445v815h785v-985h-170v815h-445v-815h-785v1800h1400zM1470 1600h560v-170h-560v170z" />
    <glyph glyph-name="uniA85B.init" horiz-adv-x="1513" 
d="M270 -10h-170v962h170v-238l743 716h-913v170h1400v-170h-245l-988 -947l468 -273l428 456v-243l-397 -423l-496 285v-295zM1148 1600h495v-170h-495v170z" />
    <glyph glyph-name="uniA85C.init" horiz-adv-x="2000" 
d="M1259 1431q-147 0 -243 -37t-152 -93.5t-78.5 -123.5t-22.5 -128q0 -43 4.5 -84t18.5 -83.5t39 -88t66 -97.5t101 -112.5t142 -133.5l142 -125l-394 -509l-612 309v-325h-170v1800h170v-1285l563 -286l209 271q-134 117 -221 214t-138 185.5t-71 173.5t-20 176
q0 58 12.5 121.5t42 124.5t77.5 116.5t119.5 97.5t167.5 66.5t221 24.5q65 0 134.5 -10t131 -24t108.5 -29t68 -25q39 38 93.5 63t117.5 25h15v-170h-15q-27 0 -56 -8.5t-56.5 -22t-51.5 -31t-42 -36.5q-52 28 -117 50q-56 19 -132.5 34t-170.5 15zM1875 1600h255v-170h-255
v170z" />
    <glyph glyph-name="uniA85D.init" horiz-adv-x="1801" 
d="M270 1200v-259l881 489h-1051v170h1400v-172l-1230 -679l381 -194q44 54 92 97t101 72.5t112 45t126 15.5q100 0 177.5 -32t131 -93t81.5 -149t28 -200q0 -124 -27 -219t-84 -160t-146 -98.5t-214 -33.5h-929v170h926q99 0 159.5 28.5t92.5 76t42.5 109t10.5 127.5
q0 60 -11 115t-39.5 97t-77 67t-123.5 25q-57 0 -107.5 -15t-99 -46.5t-98 -80.5t-105.5 -118l-400 202v-257h-170v900h170zM1371 1600h560v-170h-560v170z" />
    <glyph glyph-name="uniA85E.init" 
d="M1328 300q0 61 -8 113t-23 100t-37.5 94.5t-52.5 96.5l149 81q70 -112 107 -231t37 -257q0 -103 -34 -193.5t-97 -158t-153 -106.5t-203 -39q-109 0 -199 35.5t-153.5 101t-98.5 157.5t-35 206q0 76 17 154.5t59.5 165.5t114.5 186t181 217l378 407h-1007v-1630h-170
v1800h1400v-170h-1l1 -1l-433 -463q-92 -99 -161 -185.5t-114.5 -166.5t-68.5 -157t-23 -155q0 -72 19 -133t58 -105.5t98.5 -69t139.5 -24.5q79 0 137.5 26.5t97.5 71.5t58.5 105t19.5 127zM1470 1600h560v-170h-560v170z" />
    <glyph glyph-name="uniA85F.init" horiz-adv-x="2088" 
d="M904 322q-70 0 -132.5 18.5t-112.5 55.5t-85 92t-49 127h-255v-815h-170v1800h170v-815h233q-1 132 34 247.5t106.5 201t178.5 135t250 49.5t257 -42.5t193.5 -128.5t122.5 -216t43 -304q0 -189 -45.5 -346.5t-132.5 -271.5t-213.5 -177t-288.5 -63h-182v170h177
q132 0 228.5 48.5t159.5 138.5t94 217.5t31 286.5q0 147 -34.5 246.5t-94.5 160t-141 86t-174 25.5q-97 0 -171.5 -33.5t-124 -92t-75 -138t-25.5 -172.5q0 -87 17 -149t48.5 -101.5t76 -58t100.5 -18.5q32 0 55 1t39.5 3t28.5 4.5t22 5.5l-1 -163q-23 -6 -61 -10t-97 -4z
M1658 786h560v-170h-560v170z" />
    <glyph glyph-name="uniA860.init" horiz-adv-x="1798" 
d="M1380 253l-407 -454h-178v1631h-525v-1630h-170v1800h1298v-170h-433v-1402l202 225h213zM1368 1600h560v-170h-560v170z" />
    <glyph glyph-name="uniA861.init" horiz-adv-x="1379" 
d="M270 785h109q114 94 201.5 190.5t154 198t115.5 207.5t86 219h192q-37 -103 -86 -209.5t-113 -211t-144 -204.5t-179 -190h903l-1 -170h-893q102 -85 181 -186t140.5 -208.5t107 -215t81.5 -205.5h-192q-38 114 -85 220t-111.5 206.5t-151.5 196.5t-206 192h-109v-815
h-170v1800h170v-815z" />
    <glyph glyph-name="uniA862.init" horiz-adv-x="1600" 
d="M1500 -30v-170h-1400v1800h1001v-1225h-176l-655 237v-642h1230zM931 553v877h-661v-636zM1020 1600h675v-170h-675v170z" />
    <glyph glyph-name="uniA863.init" horiz-adv-x="1700" 
d="M1500 -30v-170h-1400v1800h1220v-1280h-149q-35 41 -76 85.5t-88 84t-100 70.5t-112 44v-284h-145q-35 41 -76.5 85.5t-89 84.5t-101.5 71t-113 44v-635h1230zM795 775q50 -10 99 -31.5t94.5 -49.5t86.5 -60t75 -65v861h-355v-655zM270 775q50 -10 98.5 -31.5t94 -49
t87 -59.5t75.5 -65v860h-355v-655zM1270 1600h560v-170h-560v170z" />
    <glyph glyph-name="uniA864.init" horiz-adv-x="2300" 
d="M1718 1600h182v-1800l-700 1400q-51 102 -117 147.5t-153 45.5q-63 0 -110.5 -21.5t-79.5 -60t-48 -90.5t-16 -113q0 -84 23.5 -154.5t77.5 -145t141.5 -160t215.5 -198.5l142 -125l-394 -509l-612 309v-325h-170v1800h170v-1263l562 -285l191 246q-92 83 -166 153.5
t-131.5 134.5t-99 124.5t-68.5 123t-40 130t-13 144.5q0 103 28.5 187t82.5 143.5t133 92t181 32.5q107 0 180 -23.5t130 -64.5zM1333 1321l397 -793v902zM1870 1600h560v-170h-560v170z" />
    <glyph glyph-name="uniA865.init" horiz-adv-x="1501" 
d="M925 994h176v-1194h-1001v1800h1400v-170h-1230v-674zM931 -30v846l-661 -241v-605h661zM956 1600h675v-170h-675v170z" />
    <glyph glyph-name="uniA866.init" horiz-adv-x="1299" 
d="M100 1600h170v-1631h459v1187q0 106 27 188.5t79.5 139.5t130.5 86.5t180 29.5h18v-170h-17q-128 0 -188 -68.5t-60 -211.5v-1351h-799v1801zM1149 1600h280v-170h-280v170z" />
    <glyph glyph-name="uniA867.init" horiz-adv-x="1593" 
d="M100 1600h1093v-1800zM401 1430l622 -1031v1031h-622zM1163 1600h560v-170h-560v170z" />
    <glyph glyph-name="uniA868.init" horiz-adv-x="1503" 
d="M292 1600q44 -106 74 -208.5t48.5 -203t26.5 -201t8 -203.5q0 -123 -13 -239.5t-31.5 -214.5t-39.5 -172.5t-38 -114.5q61 18 129.5 57.5t136 101t128.5 145t108 190t75 236.5t28 284v543h171v-543q0 -181 -34.5 -336.5t-98.5 -285.5t-154.5 -234t-202 -183t-241 -133.5
t-272.5 -84.5q86 241 131.5 481.5t45.5 492.5q0 103 -8 205t-28 205t-54 206.5t-85 209.5h190zM1073 1600h560v-170h-560v170z" />
    <glyph glyph-name="uniA869.init" 
d="M1516 -30v-170h-15q-31 0 -61 8t-56.5 20.5t-50 28.5t-43.5 31q-21 -10 -50 -25t-67 -29t-86 -24t-106 -10q-120 0 -210 31.5t-150 87.5t-90.5 134t-30.5 171q0 71 20.5 133t52 112t69.5 87t73 59h-445v-815h-170v1800h1400v-170h-1230v-645h1230v-170h-574
q-48 -23 -94 -59.5t-82 -84.5t-57.5 -106.5t-21.5 -126.5q0 -64 17 -114t55.5 -84.5t100 -52t150.5 -17.5q61 0 115 15.5t96 34.5q48 22 89 50q18 -15 42 -32.5t51.5 -32.5t56.5 -25t56 -10h16zM1470 -29h560v-170h-560v170z" />
    <glyph glyph-name="uniA86A.init" horiz-adv-x="1800" 
d="M835 1600v-284q59 14 123 46t123 72.5t109 84.5t81 81h129v-1630h100v-169h-1400v1799h170v-285q59 14 123.5 46t124.5 73t110.5 85t81.5 81h125zM835 -29h395v1392q-34 -33 -81.5 -67t-100.5 -64t-108 -53t-105 -34v-1174zM665 -29v1391q-34 -33 -81.5 -67t-100.5 -64
t-108 -52.5t-105 -33.5v-1174h395zM1370 -28h560v-170h-560v170z" />
    <glyph glyph-name="uniA86B.init" horiz-adv-x="1235" 
d="M100 1600h170v-284q59 15 123 47t123.5 72.5t109.5 84t81 80.5h128v-1350q0 -143 60 -211.5t188 -68.5h17v-170h-18q-102 0 -180 29.5t-130.5 86.5t-79.5 139.5t-27 188.5v1118q-34 -32 -81 -66t-100.5 -63.5t-108.5 -53t-105 -34.5v-1345h-170v1800zM1085 -29h280v-170
h-280v170z" />
    <glyph glyph-name="uniA86C.init" 
d="M100 -200v1800h170v-1630h1016l-496 589q-64 76 -113.5 145t-83 137t-50.5 138t-17 148q0 99 36 185.5t100.5 150t155 100.5t198.5 37q117 0 207 -42.5t151.5 -114.5t93.5 -166t32 -197q0 -117 -30 -217t-80.5 -183.5t-117 -151.5t-138.5 -122l366 -435l-1 -1h1v-170
h-1400zM1330 1079q0 86 -23.5 152t-65 110t-99 66.5t-126.5 22.5q-76 0 -135.5 -24.5t-100.5 -66.5t-62 -97t-21 -115q0 -52 12 -105t41 -112t77 -128t120 -154l89 -105q55 44 108 99t94 123t66.5 151t25.5 183zM1470 -29h560v-170h-560v170z" />
    <glyph glyph-name="uniA86D.init" 
d="M1168 785q332 0 332 -362v-61q0 -362 -332 -362h-535q-59 0 -127.5 -15.5t-138.5 -42.5t-138.5 -63.5t-128.5 -78.5v182q60 41 129 75.5t139 59.5t137.5 39t124.5 14h534q91 0 128.5 49.5t37.5 147.5v51q0 98 -37.5 147.5t-128.5 49.5h-538q-53 0 -119.5 16.5t-137 44.5
t-140 64t-129.5 75v185q61 -39 131 -77t142.5 -69t144.5 -50t138 -19l615 645h-1171v170h1400v-168l-619 -647h287zM1470 1600h560v-170h-560v170z" />
    <glyph glyph-name="uniA86E.init" 
d="M1500 1600v-170h-1230v-1408l445 124v639h785v-985h-170v815h-445v-586l-785 -229v1800h1400zM1470 1600h560v-170h-560v170z" />
    <glyph glyph-name="uniA86F.init" horiz-adv-x="1800" 
d="M1028 1600h902v-170h-907q-90 0 -155.5 -25.5t-108 -69t-63 -102.5t-20.5 -125q0 -84 23.5 -154.5t77.5 -145t141.5 -160t215.5 -198.5l142 -125l-394 -509l-612 309v-325h-170v1800h170v-1285l563 -286l209 271q-138 124 -239 223t-167 191.5t-98.5 186.5t-32.5 207
q0 110 37.5 201t106.5 155.5t165.5 100t213.5 35.5z" />
    <glyph glyph-name="uniA870.init" horiz-adv-x="2300" 
d="M1156 1424q-49 0 -87 -58t-62 -176h-114q-14 48 -32.5 92t-41.5 77t-52 52.5t-64 19.5q-26 0 -44.5 -13t-30 -36t-17 -53t-5.5 -65q0 -84 34.5 -180t99.5 -201.5t159.5 -220t215.5 -235.5l135 -135l-368 -476l-612 309v-325h-170v1800h170v-1286l564 -285l183 237
q-122 128 -228.5 256.5t-185 254.5t-123.5 248.5t-45 238.5q0 71 15 132.5t46.5 106.5t80 71t115.5 26q43 0 83.5 -19t74 -51t58.5 -73t36 -85q27 119 86.5 173.5t135.5 54.5h734v-1800l-570 1387q-27 65 -47.5 110t-39.5 73.5t-39.5 41t-47.5 12.5zM1415 1430l315 -794v794
h-315zM1870 1600h560v-170h-560v170z" />
    <glyph glyph-name="uniA871.init" horiz-adv-x="1150" 
d="M350 -200q0 143 14.5 299.5t38.5 313t56 308t66 284.5t69 242.5t66 182.5h-560v170h908v-170h-170q-30 -73 -65 -181.5t-69.5 -240t-66.5 -281.5t-56.5 -306.5t-39.5 -314.5t-15 -306h-176zM720 1600h560v-170h-560v170z" />
    <glyph glyph-name="uniA872.init" horiz-adv-x="720" 
d="M270 785h330v-170h-330v-815h-170v1800h170v-815zM355 786h495v-170h-495v170z" />
    <glyph glyph-name="uniA840.medi" horiz-adv-x="2400" 
d="M570 785h1470v-170h-1470v-445h1470v-170h-653v-200h-173v200h-644v-200h-170v1800h1640v-170h-1470v-645zM1970 1600h560v-170h-560v170zM-130 1600h560v-170h-560v170z" />
    <glyph glyph-name="uniA841.medi" horiz-adv-x="2441" 
d="M970 1600h1071v-1151h-1071v500h-400v-980h1470v-170h-1640v1801h170v-481h400v481zM1142 620h721v809h-721v-809zM2011 1600h560v-170h-560v170zM-130 1600h560v-170h-560v170z" />
    <glyph glyph-name="uniA842.medi" horiz-adv-x="2441" 
d="M970 280h-400v-481h-170v1801h1640v-170h-1470v-980h400v500h1071v-1151h-1071v481zM1142 -30h721v809h-721v-809zM2011 1600h560v-170h-560v170zM-130 1600h560v-170h-560v170z" />
    <glyph glyph-name="uniA843.medi" horiz-adv-x="2200" 
d="M570 -200h-170v1800h785v-1630h445v1630h170v-1800h-785v1630h-445v-1630zM1770 1600h560v-170h-560v170zM-130 1600h560v-170h-560v170z" />
    <glyph glyph-name="uniA844.medi" horiz-adv-x="2200" 
d="M570 -200h-170v1800h1400v-1800h-785v1630h-445v-1630zM1630 1430h-445v-1460h445v1460zM1770 1600h560v-170h-560v170zM-130 1600h560v-170h-560v170z" />
    <glyph glyph-name="uniA845.medi" horiz-adv-x="2200" 
d="M999 615h-429v-815h-170v1800h170v-815h429v815h801v-1800h-801v815zM1171 -29h451v644h-451v-644zM1622 1429h-451v-644h451v644zM1770 1600h560v-170h-560v170zM-130 1600h560v-170h-560v170z" />
    <glyph glyph-name="uniA846.medi" horiz-adv-x="2200" 
d="M1015 -30v1630h170v-1630h445v1630h170v-1800h-1400v1800h170v-1630h445zM1770 1600h560v-170h-560v170zM-130 1600h560v-170h-560v170z" />
    <glyph glyph-name="uniA847.medi" horiz-adv-x="2200" 
d="M400 1600h1400v-170h-596l338 -645h258v-170h-354l-432 815h-444v-1460h1230v-170h-1400v1800zM1770 1600h560v-170h-560v170zM-130 1600h560v-170h-560v170z" />
    <glyph glyph-name="uniA848.medi" horiz-adv-x="2200" 
d="M1816 1430h-29q-26 0 -53.5 -7.5t-53 -21t-48 -31.5t-37.5 -39q-41 28 -89 50q-42 19 -96 34t-115 15q-89 0 -150.5 -18t-100 -52.5t-56 -85.5t-17.5 -118q0 -65 21 -122.5t55.5 -105t79.5 -84t93 -59.5h580v-170h-1230v-645h1230v-170h-1400v1800h170v-815h433
q-35 22 -71 59t-65.5 87t-48 112t-18.5 133q0 93 30.5 171t90.5 134t150 87.5t210 31.5q58 0 106 -10t86 -24t67 -29t50 -25q16 19 38 35t47 28t52.5 18.5t53.5 6.5h35v-170zM1770 1600h560v-170h-560v170zM-130 1600h560v-170h-560v170z" />
    <glyph glyph-name="uniA849.medi" horiz-adv-x="2100" 
d="M1010 -199q-31 37 -81.5 81t-110.5 85t-124.5 73.5t-123.5 45.5v-285h-170v1799h1400v-170h-100v-1629h-129q-31 37 -81 81t-109 84.5t-123 73t-123 45.5v-284h-125zM1135 256q50 -10 105 -33.5t108 -53.5t100.5 -64t81.5 -67v1392h-395v-1174zM570 256q50 -10 105 -33
t108 -53t100.5 -64t81.5 -67v1391h-395v-1174zM1670 1600h560v-170h-560v170zM-130 1600h560v-170h-560v170z" />
    <glyph glyph-name="uniA84A.medi" horiz-adv-x="1535" 
d="M400 1600h170v-1345q50 -11 105 -34.5t108.5 -53t100.5 -63.5t81 -66v1118q0 106 27 188.5t79.5 139.5t130.5 86.5t180 29.5h18v-170h-17q-128 0 -188 -68.5t-60 -211.5v-1350h-128q-31 37 -81 80.5t-109.5 84t-123.5 72.5t-123 47v-284h-170v1800zM1385 1600h280v-170
h-280v170zM-130 1600h560v-170h-560v170z" />
    <glyph glyph-name="uniA84B.medi" horiz-adv-x="2200" 
d="M1800 1600v-170h-1l1 -1l-366 -435q72 -54 138.5 -122t117 -151.5t80.5 -183.5t30 -217q0 -103 -34 -197t-98.5 -166t-156.5 -114.5t-209 -42.5q-108 0 -196 37t-150.5 100.5t-96 150t-33.5 185.5q0 78 19 150.5t58 147t97.5 154t136.5 172.5l449 533h-1016v-1630h-170
v1800h1400zM1628 321q0 100 -25 183t-66 151t-93.5 123t-107.5 99l-85 -100q-73 -87 -121.5 -157t-77 -129.5t-40.5 -112t-12 -105.5q0 -60 20.5 -115t59.5 -96.5t95 -66t127 -24.5q74 0 134 22.5t103 66.5t66 109.5t23 151.5zM1770 1600h560v-170h-560v170zM-130 1600h560
v-170h-560v170z" />
    <glyph glyph-name="uniA84C.medi" horiz-adv-x="2200" 
d="M1015 -200v815h-445v-815h-170v985h785v-815h445v1460h-1230v170h1400v-1800h-785zM1770 1600h560v-170h-560v170zM-130 1600h560v-170h-560v170z" />
    <glyph glyph-name="uniA84D.medi" horiz-adv-x="2300" 
d="M1900 1600v-1394q0 -205 -112.5 -305.5t-337.5 -100.5q-118 0 -201.5 25.5t-136 76.5t-76.5 129t-24 183v226q0 78 -42 126.5t-126 48.5h-274v-815h-170v1800h1500zM570 785h276q88 0 151.5 -20t104.5 -61.5t60.5 -105.5t19.5 -152v-235q0 -68 17 -114t50.5 -74.5
t84 -40.5t117.5 -12q63 0 114 12t88 40.5t57 74.5t20 114v1219h-1160v-645zM1870 1600h560v-170h-560v170zM-130 1600h560v-170h-560v170z" />
    <glyph glyph-name="uniA84E.medi" horiz-adv-x="2300" 
d="M1900 1600v-1800h-835v815h-495v-815h-170v1800h1500zM570 785h665v-815h495v1460h-1160v-645zM1870 1600h560v-170h-560v170zM-130 1600h560v-170h-560v170z" />
    <glyph glyph-name="uniA84F.medi" horiz-adv-x="2260" 
d="M400 1600h1460v-170v-1l-417 -491q115 -49 194.5 -117.5t129 -149.5t71.5 -170t22 -181q0 -103 -34 -197t-98.5 -166t-156.5 -114.5t-209 -42.5q-106 0 -193.5 32t-150.5 93t-97.5 148t-34.5 197q0 78 15 145.5t46.5 133t79 132t111.5 141.5h-568v-1022h-170v1192h880
l376 438h-1256v170zM1689 318q0 78 -19 148.5t-61.5 132.5t-110.5 113.5t-167 91.5l-16 -17q-75 -80 -125 -148t-80 -129t-42 -118.5t-12 -116.5q0 -68 22 -124.5t62.5 -96.5t97.5 -62t126 -22q73 0 133 22t102.5 65.5t66 109t23.5 151.5zM1830 1600h560v-170h-560v170z
M-130 1600h560v-170h-560v170z" />
    <glyph glyph-name="uniA850.medi" horiz-adv-x="2200" 
d="M400 -200v1800h1400v-170h-515v-227q152 -10 251.5 -67t158 -146t82 -202.5t23.5 -237.5q0 -168 -46.5 -306t-135.5 -236.5t-219.5 -153t-298.5 -54.5h-188v170h184q113 0 210.5 27t169 93.5t112 178t40.5 280.5q0 140 -24.5 233t-71 149t-114 79.5t-153.5 23.5
q-81 0 -136.5 -20t-90.5 -60.5t-50.5 -101.5t-15.5 -144q0 -75 9 -124.5t25.5 -79.5t40.5 -42t53 -12q53 0 78 45.5t25 145.5h170q0 -102 -20 -169.5t-56 -108.5t-86.5 -58t-112.5 -17q-55 0 -104.5 16t-89 54t-65.5 101t-35 156h-234v-815h-170zM570 785h234q2 79 25.5 147
t64 120.5t97 88t124.5 49.5v240h-545v-645zM1770 1600h560v-170h-560v170zM-130 1600h560v-170h-560v170z" />
    <glyph glyph-name="uniA851.medi" horiz-adv-x="2171" 
d="M1632 302q0 60 -9 116t-39.5 100t-89.5 70.5t-158 26.5h-504l553 815h-815v-1630h-170v1800h1400v-170h-218l-435 -645h179q126 0 216 -33.5t147 -96t84 -152t27 -201.5q0 -124 -27 -218t-84 -157t-146 -95t-214 -32h-453v170h461q99 0 157.5 27t89 73t39.5 106t9 126z
M1741 1600h560v-170h-560v170zM-130 1600h560v-170h-560v170z" />
    <glyph glyph-name="uniA852.medi" horiz-adv-x="2200" 
d="M1800 1600v-1800h-170v815h-445v-815h-170v421h-445v-421h-170v1800h1400zM570 379h445v406h615v645h-1060v-1051zM1770 1600h560v-170h-560v170zM-130 1600h560v-170h-560v170z" />
    <glyph glyph-name="uniA853.medi" horiz-adv-x="2102" 
d="M1104 1600v-149l428 70v79h170v-1499h-172v69l-427 79v-149h-169v666h-364v-796h1230v-170h-1400v1800h170v-664h364v664h170zM1532 343v1007l-429 -75v-850zM1672 1600h560v-170h-560v170zM-130 1600h560v-170h-560v170z" />
    <glyph glyph-name="uniA854.medi" horiz-adv-x="2256" 
d="M1900 1600v-170h-75q-49 0 -84.5 -1.5t-63.5 -5t-51 -8.5t-49 -11q153 -89 231 -215.5t78 -297.5q0 -102 -31 -184.5t-92.5 -141t-153 -90.5t-213.5 -32q-105 0 -195 29t-155 85t-102 140t-37 193q0 69 20 139.5t57.5 136t92 123.5t123.5 102q-36 9 -68.5 16.5t-67 12.5
t-73 7.5t-86.5 2.5h-335v-1460h1330v-170h-1500v1800h502q116 0 241.5 -23.5t238.5 -69.5q47 22 94.5 39.5t101 29.5t116 18t139.5 6h67zM1713 899q0 69 -20.5 133t-61 119.5t-102 101t-144.5 78.5q-78 -37 -135.5 -86.5t-95 -106.5t-56 -119t-18.5 -123q0 -67 23 -119.5
t65 -89t100 -55.5t128 -19q152 0 234.5 74.5t82.5 211.5zM1891 1600h495v-170h-495v170zM-130 1600h560v-170h-560v170z" />
    <glyph glyph-name="uniA855.medi" horiz-adv-x="2200" 
d="M570 -200h-170v1800h1400v-1800h-170v1630h-445v-1630h-170v1630h-445v-1630zM1770 1600h560v-170h-560v170zM-130 1600h560v-170h-560v170z" />
    <glyph glyph-name="uniA856.medi" horiz-adv-x="2200" 
d="M400 1600h785v-815h445v815h170v-985h-785v815h-445v-1460h1230v-170h-1400v1800zM1770 1600h560v-170h-560v170zM-130 1600h560v-170h-560v170z" />
    <glyph glyph-name="uniA857.medi" horiz-adv-x="2170" 
d="M1468 785q332 0 332 -362v-261q0 -362 -332 -362h-1068v170h1064q91 0 128.5 49.5t37.5 147.5v251q0 98 -37.5 147.5t-128.5 49.5h-1064v170h556l615 645h-1171v170h1400v-168l-620 -647h288zM1740 1600h560v-170h-560v170zM-130 1600h560v-170h-560v170z" />
    <glyph glyph-name="uniA858.medi" horiz-adv-x="1800" 
d="M1400 1600v-1800h-170v815h-660v-815h-170v1800h170v-814h660v814h170zM1370 1600h560v-170h-560v170zM-130 1600h560v-170h-560v170z" />
    <glyph glyph-name="uniA859.medi" horiz-adv-x="2200" 
d="M1183 568h447v862h-1230v170h1400v-1202h-786v516h-444v-944h1230v-170h-1400v1284h783v-516zM1770 1600h560v-170h-560v170zM-130 1600h560v-170h-560v170z" />
    <glyph glyph-name="uniA85A.medi" horiz-adv-x="2200" 
d="M1800 1600v-170h-1230v-1460h445v815h785v-985h-170v815h-445v-815h-785v1800h1400zM1770 1600h560v-170h-560v170zM-130 1600h560v-170h-560v170z" />
    <glyph glyph-name="uniA85B.medi" horiz-adv-x="1813" 
d="M570 -10h-170v962h170v-238l743 716h-913v170h1400v-170h-245l-988 -947l468 -273l428 456v-243l-397 -423l-496 285v-295zM1448 1600h495v-170h-495v170zM-130 1600h560v-170h-560v170z" />
    <glyph glyph-name="uniA85C.medi" horiz-adv-x="2300" 
d="M1559 1431q-147 0 -243 -37t-152 -93.5t-78.5 -123.5t-22.5 -128q0 -43 4.5 -84t18.5 -83.5t39 -88t66 -97.5t101 -112.5t142 -133.5l142 -125l-394 -509l-612 309v-325h-170v1800h170v-1285l563 -286l209 271q-134 117 -221 214t-138 185.5t-71 173.5t-20 176
q0 58 12.5 121.5t42 124.5t77.5 116.5t119.5 97.5t167.5 66.5t221 24.5q65 0 134.5 -10t131 -24t108.5 -29t68 -25q39 38 93.5 63t117.5 25h15v-170h-15q-27 0 -56 -8.5t-56.5 -22t-51.5 -31t-42 -36.5q-52 28 -117 50q-56 19 -132.5 34t-170.5 15zM2175 1600h255v-170h-255
v170zM-130 1600h560v-170h-560v170z" />
    <glyph glyph-name="uniA85D.medi" horiz-adv-x="2101" 
d="M570 1200v-259l881 489h-1051v170h1400v-172l-1230 -679l381 -194q44 54 92 97t101 72.5t112 45t126 15.5q100 0 177.5 -32t131 -93t81.5 -149t28 -200q0 -124 -27 -219t-84 -160t-146 -98.5t-214 -33.5h-929v170h926q99 0 159.5 28.5t92.5 76t42.5 109t10.5 127.5
q0 60 -11 115t-39.5 97t-77 67t-123.5 25q-57 0 -107.5 -15t-99 -46.5t-98 -80.5t-105.5 -118l-400 202v-257h-170v900h170zM1671 1600h560v-170h-560v170zM-130 1600h560v-170h-560v170z" />
    </font>
</defs>
</svg>
