<?xml version="1.0" standalone="no"?>
<!DOCTYPE svg PUBLIC "-//W3C//DTD SVG 1.1//EN" "http://www.w3.org/Graphics/SVG/1.1/DTD/svg11.dtd" >
<svg xmlns="http://www.w3.org/2000/svg" xmlns:xlink="http://www.w3.org/1999/xlink" version="1.1">
<metadata>
Created by FontForge 20170731 at Sat Sep 18 03:12:35 2010
 By Aleksey,,,
Copyright (c) Takis Katsoulidis and George D. Matthiopoulos, 2001. All rights reserved.
</metadata>
<defs>
<font id="GFSDidot-Regular" horiz-adv-x="536" >
  <font-face 
    font-family="GFS Didot"
    font-weight="400"
    font-stretch="normal"
    units-per-em="1000"
    panose-1="2 0 5 0 0 0 0 2 0 3"
    ascent="800"
    descent="-200"
    x-height="456"
    cap-height="689"
    bbox="-172 -336 1248 1145"
    underline-thickness="40"
    underline-position="-350"
    unicode-range="U+0020-FFFC"
  />
<missing-glyph horiz-adv-x="499" 
d="M437 0h-374v741h374v-741zM124 678v-615h250v615h-250z" />
    <glyph glyph-name="ff" unicode="ff" horiz-adv-x="582" 
d="M102 439l2 35q4 99 44 149t128 52q60 2 97 -32q22 61 109 61q61 0 92 -29q21 -21 23 -51q1 -53 -49 -53q-12 0 -28.5 9t-12.5 23q1 4 12.5 15t9.5 26.5t-15.5 27.5t-30 11t-27.5 -15.5t-11 -32.5q0 -58 1 -99v-97h118v-37h-119v-352q3 -23 22 -23h59v-27h-243v27h58
q20 0 23 23l-1 352h-177l-2 -352q5 -23 23 -23h58v-27h-243v27h56q19 0 22 23v352h-78v37h80zM363 586q-6 33 -38 52q-25 16 -51.5 16t-51.5 -28q-34 -38 -34 -123v-64h174q2 66 1 147z" />
    <glyph glyph-name="fi" unicode="fi" horiz-adv-x="550" 
d="M108 463q0 242 215 240q65 0 113 -26.5t56 -69.5q4 -24 -10 -39t-31 -15t-32 7.5t-12 23.5q0 4 8 13t8 16t-3 14q-10 24 -37 39t-59 15q-134 -1 -134 -214v-14l1 9v-22h79q111 0 148 19h35v-359q0 -28 2 -50.5t22 -22.5h58v-27h-244v27h56q18 0 23 23v275q0 53 -5 60
q-11 20 -94 18h-80v-303q0 -28 2 -50.5t22 -22.5h56v-27h-244v27h56q18 0 23 23q1 22 1 48l1 305h-80v37h80v23z" />
    <glyph glyph-name="fl" unicode="fl" horiz-adv-x="551" 
d="M538 27v-27h-243v27h55q19 0 24 23v352h-188l-2 -352q6 -23 24 -23h57v-27h-243v27h58q19 0 22 23v352h-71v37h71v75q0 58 12 88q42 102 174 102h169v-654q3 -23 23 -23h58zM374 439v154q0 36 -17 59q-23 33 -69 33q-101 0 -101 -141v-105h187z" />
    <glyph glyph-name="ffi" unicode="ffi" horiz-adv-x="801" 
d="M363 50l-1 24v327h-180v-301q0 -29 2 -51t23 -22h58v-27h-243v27h56q22 0 22 23v351h-78v37h82v35q0 200 172 200q68 0 120 -54q50 86 146 84q62 0 106.5 -27.5t51.5 -71.5q4 -24 -9.5 -38.5t-31 -14.5t-31.5 7.5t-13 23.5q0 4 8.5 13t8.5 15.5t-4 14.5q-21 58 -86 56
q-51 0 -74.5 -47t-23.5 -169v-27h78q110 0 147 19h35v-357q0 -29 2.5 -51t21.5 -22h58v-27h-243v27h56q10 0 16.5 6t6.5 17v273q0 53 -5 60q-10 19 -94 18h-79v-351q0 -23 22 -23h59v-27h-242v27h58q22 0 22 23zM372 557q-4 45 -43 74q-28 22 -56 22t-53 -28
q-36 -41 -36 -123v-64h177l1 23q3 65 10 96z" />
    <glyph glyph-name="ffl" unicode="ffl" horiz-adv-x="816" 
d="M803 27v-27h-243v27h56q20 0 21 24q3 48 3 351h-190l1 -352q0 -11 6.5 -17t16.5 -6h57v-27h-243v27h58q18 0 19.5 20t1.5 355h-180v-352q0 -23 23 -23h60v-27h-243v27h56q22 0 22 23v352h-78v36h82v37q0 97 46 150t126.5 53t113.5 -65q16 44 61.5 67t96.5 23h169v-653
q0 -11 6.5 -17t16.5 -6h58zM640 438v154q0 34 -17 59q-22 33 -70 33q-101 0 -101 -141v-105h188zM368 513q0 143 -85 143q-34 0 -59 -29q-36 -41 -36 -122v-67h179q1 21 1 75z" />
    <glyph glyph-name=".notdef" horiz-adv-x="499" 
d="M437 0h-374v741h374v-741zM124 678v-615h250v615h-250z" />
    <glyph glyph-name=".null" horiz-adv-x="0" 
 />
    <glyph glyph-name="nonmarkingreturn" horiz-adv-x="333" 
 />
    <glyph glyph-name="space" unicode=" " horiz-adv-x="352" 
 />
    <glyph glyph-name="exclam" unicode="!" horiz-adv-x="294" 
d="M84 570l-4 51q0 30 18 57.5t49.5 27.5t49 -27t17.5 -58q0 -3 -4 -51l-57 -386h-14zM190 92.5q19 -18.5 19 -45t-18.5 -45t-45 -18.5t-45.5 18.5t-19 45t19 45t45 18.5t45 -18.5z" />
    <glyph glyph-name="quotedbl" unicode="&#x22;" horiz-adv-x="425" 
d="M349 668l-34 -204h-16l-35 204q-2 16 11.5 31.5t31.5 15.5t31.5 -15.5t10.5 -31.5zM160 668l-35 -204h-16l-34 204q-3 16 11 31.5t32.5 15.5t32 -15.5t9.5 -31.5z" />
    <glyph glyph-name="numbersign" unicode="#" horiz-adv-x="521" 
d="M514 471v-48h-121l-24 -153h115v-48h-123l-34 -222h-48l36 222h-150l-36 -222h-47l35 222h-112v48h119l24 153h-114v48h121l35 218h47l-34 -218h152l33 218h46l-33 -218h113zM323 270l24 153h-151l-25 -153h152z" />
    <glyph glyph-name="dollar" unicode="$" horiz-adv-x="513" 
d="M276 650h4q27 0 64 -8t47 -8t15 14h26v-165h-28q-5 64 -36 94.5t-92 33.5v-242q205 -23 205 -169q0 -107 -86 -164q-50 -34 -119 -44v-105h-37v101q-10 -1 -30 -1q-67 0 -151 31l1 148h28q6 -75 43 -106q50 -38 86 -46q23 -5 23 12v267q-189 25 -189 164q0 98 75 149
q51 35 114 42v59h37v-57zM239 375v235q-114 -10 -112 -120q1 -43 31.5 -72t80.5 -43zM276 288v-259q47 8 80 31q47 33 49 92q0 60 -44 99q-32 26 -85 37z" />
    <glyph glyph-name="percent" unicode="%" horiz-adv-x="895" 
d="M238 679q50 0 116 -36v1q56 -32 100 -32q108 0 178 98h61l-445 -758h-69l375 639q-37 -25 -101 -25q-36 0 -58 8q9 -27 9 -60q0 -96 -62.5 -158t-135 -62t-119 43t-46.5 128t60.5 149.5t136.5 64.5zM301 390.5q39 48.5 39 110t-26 97t-79 35.5t-91.5 -51.5t-38.5 -113.5
t25.5 -94t78.5 -32t92 48.5zM544.5 304q60.5 65 139.5 65t120.5 -49t41.5 -116q0 -97 -62.5 -159t-135 -62t-118.5 43t-46 128t60.5 150zM782 201q0 50 -26 85.5t-79 35.5t-91.5 -51.5t-38.5 -113.5t26 -94t79 -32t91.5 49t38.5 121z" />
    <glyph glyph-name="ampersand" unicode="&#x26;" horiz-adv-x="754" 
d="M435 376l96 -2l187 7q-11 -39 -11 -70q-51 9 -136 13q5 -18 5 -46q0 -78 -78 -164q104 -62 163 -62q20 0 62 20l5 -24l-84 -62q-8 -5 -38 -5t-88 25.5t-83 48.5q-91 -74 -186.5 -74t-151 52.5t-55.5 134.5q0 126 150 206q-29 73 -29 133t23 80l66 57q25 23 66 23
q92 0 92 -89q0 -98 -139 -194q77 -125 196 -247q48 59 48 105q0 72 -23 81q-10 4 -88 10zM255 417q33 20 61.5 59.5t28.5 69t-14 50t-38 20.5q-63 0 -63 -85q0 -48 25 -114zM406 80q-82 92 -123.5 144.5t-76.5 115.5q-81 -58 -81 -139q0 -66 48 -116q50 -50 112.5 -50
t120.5 45z" />
    <glyph glyph-name="quotesingle" unicode="'" horiz-adv-x="209" 
d="M27 677q0 46 66 46q40 0 64 -23t24 -62q0 -59 -44 -96q-31 -27 -65 -27v19q55 16 67 65q5 14 0 31t-18 21q-10 2 -11.5 2t-7.5 -3q-18 -8 -37 -8q-38 2 -38 35z" />
    <glyph glyph-name="parenleft" unicode="(" horiz-adv-x="381" 
d="M349 -80l-14 -16q-280 169 -280 455q0 135 73 246.5t211 187.5l10 -18q-196 -123 -196 -406q0 -151 33 -241q43 -120 163 -208z" />
    <glyph glyph-name="parenright" unicode=")" horiz-adv-x="381" 
d="M326 331q0 -133 -77 -246t-206 -181l-9 16q195 128 195 407q0 156 -34 249q-47 127 -161 199l13 18q76 -34 157 -130q122 -146 122 -332z" />
    <glyph glyph-name="asterisk" unicode="*" horiz-adv-x="401" 
d="M361.5 616.5q11.5 -11.5 11.5 -32.5t-23 -33q-3 -2 -22 -6q-54 -12 -106 -34q42 -20 83.5 -30t44.5 -12q24 -13 24 -37q0 -12 -7 -20q-9 -19 -33 -19q-11 0 -22.5 5.5t-38.5 34t-63 55.5q5 -49 18 -88.5t13 -50t-13 -24.5t-29 -14q-41 2 -41 46q0 7 12 45.5t15 84.5
q-34 -23 -65 -54q-28 -30 -37.5 -36t-22.5 -6q-38 0 -38 39q0 25 22 37q10 6 47 14t81 29q-47 20 -86.5 29t-41.5 10q-23 14 -23 35t12.5 32t27 11t24.5 -6.5t35 -34.5t65 -55q-4 45 -15 86q-12 36 -12 50t12 27.5t28.5 13.5t28 -13.5t11.5 -27t-12 -50t-15 -85.5
q34 22 62.5 54t38 37t24 5t26 -11.5z" />
    <glyph glyph-name="plus" unicode="+" horiz-adv-x="625" 
d="M575 299v-68h-229v-231h-67v231h-229v68h229v228h67v-228h229z" />
    <glyph glyph-name="comma" unicode="," horiz-adv-x="224" 
d="M124 0l-34 -8q-17 0 -31.5 15t-14.5 35.5t15 35t43 14.5t53 -26.5t25 -65.5t-37 -83.5t-86 -66.5l-7 10q95 59 95 117q0 23 -21 23z" />
    <glyph glyph-name="hyphen" unicode="-" horiz-adv-x="389" 
d="M339 299v-68h-289v68h289z" />
    <glyph glyph-name="period" unicode="." horiz-adv-x="288" 
d="M189.5 95.5q18.5 -18.5 18.5 -45t-18 -45t-45.5 -18.5t-46 18.5t-18.5 45t19 45t45.5 18.5t45 -18.5z" />
    <glyph glyph-name="slash" unicode="/" horiz-adv-x="291" 
d="M251 711h53l-263 -824h-54z" />
    <glyph glyph-name="zero" unicode="0" horiz-adv-x="573" 
d="M527 342q0 -118 -61 -227q-71 -129 -179 -128q-123 -1 -189 123q-52 98 -52 231t54 236q68 126 186 126q133 0 193 -121q48 -93 48 -240zM400 148q30 97 30 203t-25 193q-37 132 -119 132q-79 0 -118 -134q-28 -90 -28 -196t24.5 -185.5t53.5 -112.5t68 -32
q74 -2 114 132z" />
    <glyph glyph-name="one" unicode="1" horiz-adv-x="482" 
d="M404 31v-31h-274v31h93v529l-102 -179h-33l168 308h54v-658h94z" />
    <glyph glyph-name="two" unicode="2" horiz-adv-x="568" 
d="M493 185v-185h-413v16q121 102 205 224q106 151 106 276q0 64 -32.5 110.5t-91.5 46.5q-42 0 -79 -26.5t-37 -65.5q0 -19 20.5 -42t20.5 -39.5t-20 -27t-45 -10.5t-43 19.5t-18 50.5q0 76 71 127q65 44 150 44t143.5 -55.5t58.5 -144.5t-42.5 -158.5t-119.5 -140.5
l-130 -120h203q66 0 64 101h29z" />
    <glyph glyph-name="three" unicode="3" horiz-adv-x="568" 
d="M449 323q67 -51 67 -139.5t-81.5 -142.5t-180.5 -54q-71 0 -129 34q-69 41 -69 105q0 31 17 54t41 23t42.5 -14.5t18.5 -28.5t-13 -39t-13 -35q0 -31 32 -49.5t67 -18.5q82 0 126 56q40 49 40 136t-75 120q-53 22 -156 21v34h17q97 0 144 29q59 38 59 131q0 128 -127 128
q-34 0 -61 -18.5t-27 -51.5q0 -10 8 -25.5t8 -27t-16 -24t-35 -12.5q-56 2 -56 70q0 56 58 87.5t142 31.5t138 -46t54 -121.5t-57 -120.5q-52 -45 -127 -46q85 0 144 -46z" />
    <glyph glyph-name="four" unicode="4" horiz-adv-x="545" 
d="M497 31v-31h-279v31h94v123h-253q0 39 202 489q27 60 63 60q49 0 49 -43q0 -31 -127.5 -228.5t-144.5 -236.5h211v159l91 35v-194h94v-41h-94v-123h94z" />
    <glyph glyph-name="five" unicode="5" horiz-adv-x="570" 
d="M174 132l-11 -53q0 -29 27.5 -46t58.5 -17q77 0 121 69q35 59 35 137.5t-31 125.5q-38 59 -109 59t-135 -88h-35l14 379l30 10q68 -34 156 -34t136 36l17 -21q-33 -45 -97.5 -71.5t-115.5 -26.5t-88 15l-9 -233q18 37 62.5 55.5t90.5 18.5q103 0 160.5 -55t57.5 -153.5
t-70.5 -175t-162 -76.5t-143.5 30q-67 36 -67 113q0 24 18.5 40.5t45.5 16.5q44 0 44 -55z" />
    <glyph glyph-name="six" unicode="6" horiz-adv-x="585" 
d="M536 229q0 -111 -71.5 -176.5t-186 -65.5t-173.5 99q-48 81 -48 222t66 256q79 139 220 139q56 0 103 -29q53 -35 53 -88q0 -71 -73 -71q-12 0 -25 11.5t-13 20.5t7.5 27.5t7.5 29.5q0 28 -20.5 49t-48.5 21q-97 0 -146 -133q-36 -99 -34 -214v-25q16 52 65.5 89.5
t106.5 37.5q92 0 151 -55t59 -145zM427 200q0 190 -128 190q-61 0 -100 -64.5t-39 -130t27 -114.5q34 -64 101.5 -64t106.5 58q32 50 32 125z" />
    <glyph glyph-name="seven" unicode="7" horiz-adv-x="471" 
d="M441 689v-33l-26 -72l-11 -30q-59 -176 -92 -300l-24 -113q-16 -72 -32 -113t-68 -41q-18 0 -28.5 13.5t-10.5 28.5t26 79t63 147l133 299q24 54 21 50h-252q-38 0 -49.5 -16t-10.5 -60h-28v161h389z" />
    <glyph glyph-name="eight" unicode="8" horiz-adv-x="568" 
d="M523 188q0 -103 -75 -155q-64 -46 -167 -46t-159 41q-64 46 -64 140q0 64 51 111q47 41 111 51q-59 24 -100.5 71.5t-41.5 107.5q0 88 63 142q58 52 144 52t140 -45q61 -48 61 -125q0 -58 -40.5 -95.5t-103.5 -49.5q181 -61 181 -200zM420 547q0 56 -36.5 88.5t-91 32.5
t-99 -33t-44.5 -81q0 -61 58 -101q15 -12 110 -54q103 52 103 148zM388 54q56 39 56 94.5t-30 89.5q-25 26 -75 47l-89 35q-52 -24 -85.5 -72t-33.5 -104t40.5 -90t102.5 -34t114 34z" />
    <glyph glyph-name="nine" unicode="9" horiz-adv-x="568" 
d="M475 604q48 -81 48 -221t-66 -257q-79 -139 -220 -139q-57 0 -104 29q-53 35 -53 89q0 70 73 70q13 0 26 -11t13 -20.5t-8 -28t-8 -29.5q0 -28 21 -49t48 -21q100 0 151 154q32 96 40 236q-17 -62 -68 -103.5t-114 -41.5q-89 0 -147 55t-58 144q0 111 69 177t183.5 66
t173.5 -99zM383 367q38 61 38 126t-32 122.5t-99.5 57.5t-104.5 -53.5t-37 -130.5q0 -191 131 -191q62 0 104 69z" />
    <glyph glyph-name="colon" unicode=":" horiz-adv-x="291" 
d="M189 445.5q19 -18.5 19 -45t-19 -45t-45 -18.5t-45 18.5t-19 45t19 45t45 18.5t45 -18.5zM192.5 92.5q18.5 -18.5 18.5 -45t-18 -45t-45.5 -18.5t-46 18.5t-18.5 45t19 45t45.5 18.5t45 -18.5z" />
    <glyph glyph-name="semicolon" unicode=";" horiz-adv-x="309" 
d="M190.5 445.5q18.5 -18.5 18.5 -45t-18.5 -45t-45 -18.5t-45 18.5t-18.5 45t18.5 45t45 18.5t45 -18.5zM229 13q0 -74 -57 -128q-40 -39 -81 -39v24q57 18 83 83q8 32 -2 45q-14 -14 -34.5 -14t-39 19t-18.5 45t18 43t51.5 21t56.5 -24.5t23 -74.5z" />
    <glyph glyph-name="less" unicode="&#x3c;" horiz-adv-x="588" 
d="M559 -76v-67l-531 388v55l531 387v-66l-479 -349z" />
    <glyph glyph-name="equalorig" unicode="=" horiz-adv-x="647" 
d="M591 400v-61h-535v61h535zM591 198v-61h-535v61h535z" />
    <glyph glyph-name="greater" unicode="&#x3e;" horiz-adv-x="588" 
d="M563 300v-55l-530 -388v67l479 348l-479 349v66z" />
    <glyph glyph-name="question" unicode="?" horiz-adv-x="450" 
d="M300 366q-83 -81 -85 -195h-16q-4 81 -4 87q0 67 29 117q6 13 52 82q42 60 42 120q0 96 -91 96q-84 0 -88 -70q0 -10 8 -25t8.5 -27.5t-11 -22.5t-34 -13.5t-40.5 8.5q-26 20 -23 60q1 43 47 78q50 40 130.5 40t131 -38.5t50.5 -108.5q0 -88 -106 -188zM253 92.5
q19 -18.5 19 -45t-19 -45t-46 -18.5t-45 18.5t-18 45t19 45t45 18.5t45 -18.5z" />
    <glyph glyph-name="at" unicode="@" horiz-adv-x="788" 
d="M736 400q0 -107 -73.5 -188t-153.5 -81q-33 0 -53 23.5t-21 57.5q-31 -38 -56 -57t-64 -19q-56 0 -93 40t-37 101q0 83 64 152t147 69q72 0 84 -75h4l17 65h85l-75 -274q-4 -12 -4 -25q0 -29 27 -29q47 0 99.5 71t52.5 166.5t-76 162.5q-75 69 -191 69q-136 0 -224 -85
t-88 -216.5t91.5 -215.5t226.5 -84q155 0 247 140h59q-43 -85 -129 -136t-182 -51q-152 0 -260 96t-108 245.5t103 252.5t257 103q130 0 223 -75q101 -80 101 -203zM464 399q0 26 -13 49.5t-39 23.5q-58 0 -103 -87q-37 -73 -37 -138q0 -33 14.5 -58.5t44.5 -25.5
q59 0 99 94q34 75 34 142z" />
    <glyph glyph-name="A" unicode="A" horiz-adv-x="748" 
d="M725 31v-31h-260v31h80l-68 197h-241l-38 -90q-18 -46 -18 -67.5t6 -30.5t63 -9v-31h-218v31q52 -1 75.5 13.5t51.5 93.5l217 570h40l236 -677h74zM250 266h213l-99 293z" />
    <glyph glyph-name="B" unicode="B" horiz-adv-x="714" 
d="M637 173q-2 -173 -237 -173h-348v31h94v627h-94v31h350q95 0 149.5 -46t54.5 -118t-44 -116t-113 -56q66 -1 121 -41q69 -50 67 -139zM507 519q0 139 -123 139h-147v-293h131q48 0 88 32q51 42 51 122zM474 57q54 36 53 120.5t-56 126.5q-41 31 -102 31h-132v-304h140
q57 0 97 26z" />
    <glyph glyph-name="C" unicode="C" horiz-adv-x="608" 
d="M585 128l14 -16q-53 -74 -113 -101t-147 -27q-128 0 -218 105q-90 107 -88.5 262.5t89.5 254t217 98.5q82 0 119 -7.5t89 -27.5v-157h-30q-7 88 -47 127.5t-128 35.5q-194 -9 -194 -331q0 -142 50 -233q52 -90 136 -91.5t138 24t113 84.5z" />
    <glyph glyph-name="D" unicode="D" horiz-adv-x="754" 
d="M691 336q0 -140 -92.5 -241t-213.5 -97q-182 6 -341 2v31h94v627h-94v31q89 -5 158 -4t186 0q141 -2 222 -95.5t81 -253.5zM538 127q49 78 47.5 215.5t-39.5 211.5q-47 95 -158 104q-90 5 -161 -4v-623q68 -6 102.5 -6t56.5 2q103 15 152 100z" />
    <glyph glyph-name="E" unicode="E" horiz-adv-x="698" 
d="M611 239h32l-11 -239h-581v31h94v627h-94v31h565l2 -203h-31q-7 87 -48 127.5t-134 42.5l-171 2v-290h122q43 0 64 25q23 32 23 93h31v-277h-31q0 59 -24.5 92t-62.5 33h-122v-303l187 3q28 0 67.5 15t58.5 34q60 56 64 156z" />
    <glyph glyph-name="F" unicode="F" horiz-adv-x="646" 
d="M609 689l2 -203h-31q-7 87 -47.5 127.5t-134.5 42.5l-171 2v-290h122q44 0 63 25q23 32 23 93h32v-277h-32q0 59 -24 92t-62 33h-122v-303h93v-31h-276v31h94v627h-94v31h565z" />
    <glyph glyph-name="G" unicode="G" horiz-adv-x="695" 
d="M647 271v-32h-34v-204q-21 -6 -59 -18.5t-45 -14.5q-66 -16 -149 -16q-125 0 -218 104q-88 106 -87 260.5t90 256.5q88 97 215 97q86 0 135 -12q20 -4 74 -25v-157h-30q-7 87 -48 127t-126 36q-195 -12 -195 -328q0 -143 51 -232.5t136 -90.5q50 -1 109 22q52 18 57 36
q5 10 5 40v119h-113v32h232z" />
    <glyph glyph-name="H" unicode="H" horiz-adv-x="758" 
d="M718 31v-31h-278v31h94v314h-307v-314h93v-31h-276v31h94v627h-94v31h276v-31h-93v-278h307v278h-94v31h278v-31h-93v-627h93z" />
    <glyph glyph-name="I" unicode="I" horiz-adv-x="380" 
d="M335 31v-31h-286v31h94v627h-94v31h286v-31h-93v-627h93z" />
    <glyph glyph-name="J" unicode="J" horiz-adv-x="316" 
d="M309 689v-31h-95v-543q0 -156 -67 -242q-46 -59 -130 -65q-19 -1 -31 13t-12 34q0 31 30 39q8 2 31.5 -13t41.5 -12q23 3 33 34q6 16 6 82v673h-94v31h287z" />
    <glyph glyph-name="K" unicode="K" horiz-adv-x="775" 
d="M747 31v-31h-296v31q72 0 72 26q0 15 -10 32l-169 288l-129 -147v-199h93v-31h-277v31h93v627h-93v31h279v-31h-93v-370l269 298q19 19 19 34t-8.5 27t-63.5 11v31h250v-31q-65 0 -90.5 -17t-77.5 -76l-100 -112l211 -366q1 -3 5 -10l6 -11q15 -25 32 -31q9 -4 78 -4z
" />
    <glyph glyph-name="L" unicode="L" horiz-adv-x="645" 
d="M570 239h32l-13 -239h-545v31h94v627h-94v31h277v-31h-94v-627l153 3q27 0 67 15t59 34q60 56 64 156z" />
    <glyph glyph-name="M" unicode="M" horiz-adv-x="911" 
d="M848 31v-31h-278v31h93v589l-242 -609l-15 -1l-221 607v-500q0 -51 25 -76q10 -10 68 -10v-31h-220v31q56 0 66 9q28 24 28 77v518q-3 23 -30 23h-56v31h197l184 -520l210 520h191v-31h-93v-627h93z" />
    <glyph glyph-name="N" unicode="N" horiz-adv-x="733" 
d="M708 689v-31q-58 0 -68 -10q-26 -26 -26 -77l2 -588h-23l-423 652v-518q0 -52 25 -76q10 -10 68 -10v-31h-221v31q56 0 66 9q28 24 28 77v518q-3 23 -30 23h-56v31h200l331 -515v397q0 51 -28 78q-11 9 -66 9v31h221z" />
    <glyph glyph-name="O" unicode="O" horiz-adv-x="718" 
d="M581 607q82 -98 82 -256.5t-86 -261.5t-214.5 -103t-220.5 105q-90 106 -88 261.5t88.5 255t222 99.5t216.5 -100zM363 21q93 0 141 89t48 236.5t-42 231.5q-50 98 -153.5 98t-151.5 -93q-40 -79 -40 -236q0 -326 198 -326z" />
    <glyph glyph-name="P" unicode="P" horiz-adv-x="605" 
d="M336 689q123 0 186 -54t63 -146t-85 -144q-74 -46 -198 -46h-84v-268h93v-31h-278v31h94v627h-94v31h303zM426 363q57 43 55 129t-39.5 126t-117.5 40h-106v-332h86q75 0 122 37z" />
    <glyph glyph-name="Q" unicode="Q" horiz-adv-x="722" 
d="M366 21q96 0 143 89.5t47 236.5t-43 232q-48 97 -151.5 97t-151.5 -93q-40 -79 -40 -236q0 -326 196 -326zM718 -84v-24q-18 -16 -25 -21q-36 -23 -70.5 -24t-75.5 24l-95 72q-60 42 -106 45q-123 11 -206.5 115t-82.5 244q2 162 91 262q84 97 219.5 97t216.5 -98
t81 -268q0 -120 -59 -212t-158 -127q80 0 132.5 -49t93.5 -49q18 0 44 13z" />
    <glyph glyph-name="R" unicode="R" horiz-adv-x="658" 
d="M469 54l-191 273h-61l2 -296h93v-31h-278v31h93v627h-93v31h303q121 0 184 -48t63 -128t-56 -130q-54 -45 -142 -51l205 -278q16 -20 71 -25v-30q-73 3 -231 0l1 32h28q14 3 14 10.5t-5 12.5zM304 356q182 0 178 157q-4 145 -157 145h-106l-2 -302h87z" />
    <glyph glyph-name="S" unicode="S" horiz-adv-x="513" 
d="M491 220q0 -116 -93 -177q-80 -53 -201 -53q-73 0 -163 34l1 159h30q6 -79 47 -114q19 -16 56 -27t67 -10q69 1 121 37q51 37 53 99q0 65 -45.5 104t-125.5 48q-213 26 -213 178q0 106 81 161q69 48 168 48q29 0 69 -8.5t51.5 -8.5t15.5 15h28v-179h-30q-7 74 -44.5 107
t-111.5 32q-146 -2 -144 -131q2 -115 160 -131q223 -24 223 -183z" />
    <glyph glyph-name="T" unicode="T" horiz-adv-x="668" 
d="M642 689l2 -203h-30q-6 84 -45 124.5t-137 45.5l-46 2v-627h94v-31h-278v31h93v627l-45 -2q-97 -4 -135.5 -42.5t-47.5 -127.5h-29l2 203h602z" />
    <glyph glyph-name="U" unicode="U" horiz-adv-x="747" 
d="M723 692v-31q-59 0 -69 -10q-25 -25 -25 -78v-294q0 -160 -55 -227t-201 -67q-118 0 -183.5 71.5t-65.5 162.5v442h-92v31h275v-31h-94v-438q0 -208 189 -208q194 0 194 232v326q0 55 -26 79q-10 9 -67 9v31h220z" />
    <glyph glyph-name="V" unicode="V" horiz-adv-x="719" 
d="M712 687v-30q-52 1 -71 -12q-28 -18 -56 -96l-217 -570h-40l-235 678h-75v30h259v-30h-80l184 -528l164 420q18 47 18 68t-6 30q-4 10 -63 10v30h218z" />
    <glyph glyph-name="W" unicode="W" horiz-adv-x="1010" 
d="M1020 707v-31q-53 2 -71.5 -11t-30.5 -29.5t-25 -66.5l-167 -570h-40l-184 545l-211 -545h-40l-171 677h-74v31h263v-31h-76l117 -514l213 545h31l180 -529l111 391q17 59 17 76t-10.5 24t-56.5 7v31h225z" />
    <glyph glyph-name="X" unicode="X" horiz-adv-x="744" 
d="M542 628q0 30 -71 30v31h234v-31q-54 0 -81 -16.5t-63 -60.5l-148 -192l261 -358h70v-31h-278v31h82l-199 276l-156 -202q-23 -28 -23 -40.5t6 -17.5q17 -14 31 -15q3 -1 35 -1v-31h-239v31q55 0 81.5 15t68.5 60l175 228l-232 324h-71v31h267v-31h-75l174 -241l129 167
q22 25 22 44z" />
    <glyph glyph-name="Y" unicode="Y" horiz-adv-x="684" 
d="M666 689l1 -37q-59 2 -74 -14q-21 -19 -50 -81l-145 -281v-246l96 1v-32l-282 1v31l92 -1v241l-220 387h-76v31h261v-31h-74l181 -335l114 223q30 52 30 79q0 12 -16 25q-8 8 -58 6l1 33h219z" />
    <glyph glyph-name="Z" unicode="Z" horiz-adv-x="658" 
d="M595 239h32l-13 -239l-579 -1l422 659l-181 -2q-105 -1 -139 -40q-38 -46 -47 -130h-26l2 204l518 -1l-416 -658l237 3q27 0 67 15t59 34q58 54 64 156z" />
    <glyph glyph-name="bracketleft" unicode="[" horiz-adv-x="347" 
d="M311 -108v-30h-220v853h220v-31h-141v-792h141z" />
    <glyph glyph-name="backslash" unicode="\" horiz-adv-x="587" 
d="M136 702l360 -702h-58l-359 702h57z" />
    <glyph glyph-name="bracketright" unicode="]" horiz-adv-x="347" 
d="M258 715v-853h-220v30h141v792h-141v31h220z" />
    <glyph glyph-name="asciicircum" unicode="^" horiz-adv-x="499" 
d="M274 625l175 -381h-61l-138 310l-138 -310h-63l177 381h48z" />
    <glyph glyph-name="underscore" unicode="_" horiz-adv-x="483" 
d="M483 -73v-48h-483v48h483z" />
    <glyph glyph-name="grave" unicode="`" horiz-adv-x="323" 
d="M119 632l133 -134h-38l-140 87q-39 24 -39 45q0 33 32 33q21 0 52 -31z" />
    <glyph glyph-name="a" unicode="a" horiz-adv-x="500" 
d="M480 28v-28h-160v82q-89 -94 -168 -94q-53 0 -85 31q-35 31 -35 88q0 79 61 118q46 28 129 43l98 17q2 71 -12 104q-20 47 -69 47q-85 0 -86 -57q0 -10 11.5 -23.5t11.5 -14.5q1 -15 -14.5 -25t-28.5 -7q-50 0 -49 55.5t69 83.5q42 16 89 16q79 0 118 -44q39 -48 39 -152
v-218q0 -10 7 -16t16 -6h58zM320 122v130q-87 -11 -143 -33q-26 -10 -43 -37t-17 -59t22.5 -54t54 -23.5t67 21t59.5 55.5z" />
    <glyph glyph-name="b" unicode="b" horiz-adv-x="548" 
d="M150 703v-320q16 28 49 52q55 46 133 46t126 -61q48 -55 48 -142q0 -110 -79 -198.5t-189 -88.5q-72 0 -122 36l-36 -36h-13v649q-1 35 -35 35h-47v28h165zM377.5 101q41.5 55 41.5 135t-32 127q-38 53 -105 53q-52 0 -95 -36q-37 -34 -37 -60v-224q0 -18 37 -36.5
t86 -17.5q63 4 104.5 59z" />
    <glyph glyph-name="c" unicode="c" horiz-adv-x="432" 
d="M111 254q0 -108 53 -161t128 -53q51 0 100 28l10 -14q-60 -63 -153.5 -63t-156.5 57q-66 63 -66 165.5t74 179.5q77 75 184 71q62 -4 90 -30.5t26.5 -54t-18.5 -41.5t-36 -14t-35 8.5t-13 19.5t19 19q18 11 15 23q-3 34 -69 34q-45 0 -92 -39q-60 -49 -60 -135z" />
    <glyph glyph-name="d" unicode="d" horiz-adv-x="605" 
d="M588 27v-27h-165l4 88q-18 -37 -60 -65q-49 -36 -113 -36q-100 0 -153 68.5t-53 177t74 179.5t182 67q42 -5 78 -20q32 -17 42 -35v216q-1 35 -36 35h-47v28h165v-652q2 -24 22 -24h60zM424 231v127q-11 34 -51 59t-92.5 25t-92.5 -42q-47 -51 -54 -151q-6 -77 37 -137
q46 -67 118 -67t107 61q28 49 28 125z" />
    <glyph glyph-name="e" unicode="e" horiz-adv-x="465" 
d="M431 232h-318q0 -88 44 -137q45 -53 132 -53q46 0 119 46l13 -10q-71 -87 -176 -87t-165 63q-56 61 -56 162t60.5 174.5t162.5 73.5q84 0 135 -56.5t51 -138.5q0 -11 -2 -37zM345 268q0 72 -26.5 118t-79.5 46t-89 -43t-36 -119q187 -5 231 -2z" />
    <glyph glyph-name="f" unicode="f" horiz-adv-x="323" 
d="M338 627q1 -52 -49 -52q-14 0 -28.5 8.5t-13 18t14.5 22.5q10 8 7 21q-3 37 -46 37q-38 0 -38 -44v-99q1 -40 1 -98h119v-36h-120v-355q3 -23 23 -23h58v-27h-244v27h58q20 0 23 23v355h-80v36h80v155q0 107 120 107q62 0 92 -27q21 -20 23 -49z" />
    <glyph glyph-name="g" unicode="g" horiz-adv-x="526" 
d="M353 464h161l-20 -53l-115 10q47 -44 48 -101q2 -45 -24 -88t-67 -64q-52 -29 -103 -29q-16 0 -28 4l-28 -24q-17 -17 -17 -31q0 -23 26 -32q12 -4 48 -6l156 -12q115 -8 115 -111q0 -79 -71.5 -138t-192.5 -59q-90 0 -150 42q-60 40 -60 99.5t41 89.5q27 23 71 29
q-63 16 -63 57q0 31 36 64q14 12 53 36q-30 1 -71 38t-42 93q-3 87 59 136.5t154 50.5q53 0 84 -1zM317.5 206.5q28.5 32.5 27 89t-25.5 89.5q-29 45 -80.5 45t-77.5 -36t-26 -93.5t30.5 -92t77 -34.5t75 32.5zM292 -31l-104 9q-27 -1 -52 -25q-30 -25 -30 -66
q0 -62 39.5 -93.5t111 -31.5t121.5 36t50 95q0 41 -34 56q-27 13 -102 20z" />
    <glyph glyph-name="h" unicode="h" horiz-adv-x="602" 
d="M589 28v-28h-248v28h59q20 0 23 23q-1 42 -1 230q0 61 -32 98.5t-77.5 37.5t-89.5 -44q-38 -40 -38 -60v-262q3 -23 23 -23h60v-28h-249v28h59q19 0 24 23l-2 590q-1 34 -34 34h-48v28h166v-325q54 99 157 99q167 0 164 -182q-1 -62 2 -244q3 -23 23 -23h59z" />
    <glyph glyph-name="i" unicode="i" horiz-adv-x="284" 
d="M181.5 651q15.5 -15 16 -37.5t-16.5 -38.5t-38 -16t-37.5 16t-16.5 36.5t16.5 37.5t38.5 17t37.5 -15zM189 456v-406q0 -23 22 -23h58v-27h-242v27h58q22 0 22 23v356q-3 23 -22 23h-58v27h162z" />
    <glyph glyph-name="j" unicode="j" horiz-adv-x="241" 
d="M162.5 652.5q16.5 -16.5 16.5 -37t-16.5 -37.5t-37.5 -17t-37.5 17t-16.5 37.5t16.5 37t37.5 16.5t37.5 -16.5zM171 457v-478q0 -88 -39 -158q-49 -83 -142 -98l-1 20q8 -2 36.5 18t38.5 38q28 53 27 192l-1 417q-5 22 -25 22h-58v27h164z" />
    <glyph glyph-name="k" unicode="k" horiz-adv-x="578" 
d="M322 27q43 -3 43 15q0 9 -7 16l-177 171l-1 -180q3 -22 22 -22h56v-27h-237v27h57q19 0 22 22v590q-3 22 -22 22h-57v27h160v-439l70 55l98 89q10 7 10 17.5t-16 10.5h-57v26h238v-26l-46 -2q-37 -2 -92 -55l-123 -95q10 -15 61 -66q176 -176 212 -176h34v-27h-248v27z
" />
    <glyph glyph-name="l" unicode="l" horiz-adv-x="285" 
d="M272 27v-27h-244v27h58q23 0 23 23l-1 577q-1 34 -34 34h-47v27h164v-638q0 -23 23 -23h58z" />
    <glyph glyph-name="m" unicode="m" horiz-adv-x="881" 
d="M851 27v-27h-243v27h59q19 0 25 23v236q0 53 -24 87.5t-67 34.5t-82 -33q-39 -31 -39 -58l-1 -267q5 -23 23 -23h58v-27h-242v27h57q19 0 24 23v236q0 51 -23 85q-23 37 -67.5 37t-82 -30.5t-37.5 -60.5v-267q3 -23 22 -23h58v-27h-243v27h58q19 0 22 23v345
q-1 34 -35 34h-46v28h164v-76q20 36 53 57q44 30 98 30q95 0 134 -91q59 91 159 91q61 0 100.5 -42.5t39.5 -114.5l-1 -261q2 -23 21 -23h58z" />
    <glyph glyph-name="n" unicode="n" horiz-adv-x="595" 
d="M572 27v-27h-244v27h59q19 0 22 23v237q0 58 -30 90.5t-77 32.5t-87 -31q-38 -32 -38 -60v-269q3 -23 23 -23h58v-27h-244v27h58q20 0 23 23v346q-1 34 -34 34h-47v27h164v-27q-1 -12 -1 -28v-20q8 19 42 48q51 40 111 40q161 0 161 -171v-249q3 -23 23 -23h58z" />
    <glyph glyph-name="o" unicode="o" 
d="M442 402q64 -63 64 -166.5t-71 -173.5t-186 -72q-91 -1 -154 63q-60 65 -60 171.5t67 174.5t182 68q95 0 158 -65zM289 22q63 0 94.5 53t31.5 137.5t-43 153.5q-44 68 -109 68q-137 0 -137 -175q0 -93 34 -157q43 -80 129 -80z" />
    <glyph glyph-name="p" unicode="p" horiz-adv-x="590" 
d="M546 267q0 -112 -78.5 -199t-185.5 -82q-73 1 -106 25l-3 -230q5 -22 23 -22h59v-28h-247v28h59q18 0 24 22v614q-3 34 -35 34h-47v28h165q0 -55 2 -104q16 33 41 57q59 56 150 59q83 0 131 -57.5t48 -144.5zM416 88q44 53 44 135.5t-32 127.5q-35 53 -105 53t-147 -98
v-213q52 -60 138 -57q63 2 102 52z" />
    <glyph glyph-name="q" unicode="q" horiz-adv-x="557" 
d="M554 -243v-28h-247v28h59q20 0 23 23v306q-12 -33 -46 -61q-45 -39 -108 -39q-100 0 -152 68t-52 175.5t68 176.5t175 67q41 0 72 -18t44 -36l52 54h30v-693q5 -23 23 -23h59zM390 227v127q-10 34 -48 58.5t-88 24.5t-86 -41q-52 -61 -52 -148t37 -138q46 -67 119 -67
q118 0 118 184z" />
    <glyph glyph-name="r" unicode="r" horiz-adv-x="407" 
d="M107 50v345q-1 34 -34 34h-46v28h164v-92q11 27 41 58q45 45 95 45q30 0 48 -20t18 -48q0 -55 -50 -60q-20 44 -66 44q-33 0 -60 -33t-27 -75v-226q3 -23 23 -23h58v-27h-243v27h56q18 0 23 23z" />
    <glyph glyph-name="s" unicode="s" horiz-adv-x="414" 
d="M391 141q0 -69 -53.5 -111.5t-122 -42.5t-123.5 26q-16 6 -19 -18q-17 3 -23 0v164h29v-29q0 -32 38.5 -69.5t88.5 -36.5t81 21t31 59t-52 61q-71 25 -138 52q-83 34 -83 107t58 110q48 32 125 32q32 0 97 -21v19h27v-133h-29v21q0 36 -33.5 58.5t-85 22.5t-75.5 -27
q-19 -24 -14.5 -53t28.5 -43q11 -8 87.5 -35.5t112.5 -49.5q48 -33 48 -84z" />
    <glyph glyph-name="t" unicode="t" horiz-adv-x="319" 
d="M129 541h51v-123l125 2l-2 -46h-123v-258q0 -67 52 -67q23 0 57 18l7 -11q-34 -69 -104 -69q-96 2 -96 105v282l-75 -2v27q7 2 19 5q46 11 67 43.5t22 93.5z" />
    <glyph glyph-name="u" unicode="u" horiz-adv-x="603" 
d="M573 27v-28h-160l-1 81q-62 -93 -177 -93q-91 0 -120 54q-17 31 -17 114v241q-3 34 -34 34h-47v27h163v-292q0 -63 21.5 -90.5t83.5 -27.5q44 0 84 38q40 40 40 75v236q-2 34 -36 34h-46v27h163v-408q0 -11 8.5 -16.5t16.5 -5.5h58z" />
    <glyph glyph-name="v" unicode="v" horiz-adv-x="530" 
d="M527 457v-27h-26q-27 0 -47 -43l-167 -387h-48l-167 407q-9 23 -34 23h-32v27h232v-27h-47q-26 0 -26 -19q0 -4 2 -10l120 -312l117 298q7 17 7 27q0 16 -17 16h-50v27h183z" />
    <glyph glyph-name="w" unicode="w" horiz-adv-x="790" 
d="M771 457v-28h-26q-28 0 -47 -43l-155 -386h-49l-114 322l-125 -322h-51l-130 407q-6 22 -34 22h-32v28h231v-28h-46q-25 0 -25 -20q0 -6 1 -9l86 -307l138 375h33l117 -375l105 293q7 17 7 28q0 15 -17 15h-50v28h183z" />
    <glyph glyph-name="x" unicode="x" horiz-adv-x="512" 
d="M280 27l30 -1q14 0 17 3q6 6 6 16.5t-6 19.5l-80 120l-89 -112q-12 -16 -12 -32q0 -14 17 -14h28v-27h-172v27h37q11 0 51 43l117 147l-117 174q-25 38 -56 38h-21v27h211v-27h-28q-17 0 -17 -11.5t11 -26.5l73 -106l68 91q16 27 16 40t-15 13h-28v27h165v-27h-23
q-18 0 -54 -44l-111 -133l129 -187q29 -38 43 -38h32v-27h-222v27z" />
    <glyph glyph-name="y" unicode="y" 
d="M69 407q-9 23 -35 23h-31v27h231v-27h-47q-26 0 -26 -19q0 -5 3 -11l119 -310l118 297q6 15 6 27q0 16 -17 16h-50v27h182v-27h-26q-28 0 -46 -43l-167 -386q-15 -48 -31 -87q-40 -95 -72 -124.5t-49 -35.5t-37.5 -6t-40 10t-13.5 35q4 35 48 32q11 -4 29 -7.5t27.5 0
t29.5 23.5q29 34 39 64q17 36 26 73q-1 8 -6 23.5t-9.5 33.5t-154.5 372z" />
    <glyph glyph-name="z" unicode="z" horiz-adv-x="461" 
d="M436 141v-141q-136 0 -420 -3v22l295 400l-168 1q-15 0 -30 -5.5t-18 -16.5q-7 -27 -14 -72h-28v131q268 -3 368 0v-29l-287 -394l224 1q20 0 32 23q13 32 19 83h27z" />
    <glyph glyph-name="braceleft" unicode="{" horiz-adv-x="500" 
d="M356 -171q-93 -3 -127.5 28.5t-34.5 124.5v166q0 56 -15 81t-64 39q47 14 63 39.5t16 77.5v183q0 86 42 118q36 26 120 25q-49 -12 -68 -41.5t-19 -86.5v-182q0 -59 -17.5 -89.5t-66.5 -43.5q52 -13 68 -46.5t16 -96.5v-169q0 -110 87 -127z" />
    <glyph glyph-name="bar" unicode="|" horiz-adv-x="209" 
d="M138 711v-711h-67v711h67z" />
    <glyph glyph-name="braceright" unicode="}" horiz-adv-x="500" 
d="M385 268q-48 -13 -63 -38t-15 -82v-166q0 -94 -35 -125t-127 -28q86 17 86 127v169q0 63 16 96t69 47q-49 13 -69 47q-16 26 -16 86v182q0 56 -18.5 86t-67.5 42q83 1 122.5 -27.5t39.5 -115.5v-183q0 -51 14 -76q19 -28 64 -41z" />
    <glyph glyph-name="asciitilde" unicode="~" horiz-adv-x="629" 
d="M538 361l39 -42q-57 -117 -148 -117q-49 0 -118 36.5t-106 38.5q-71 1 -117 -96q-8 12 -36 42q21 52 62.5 86.5t85.5 34.5q28 0 118.5 -35t110.5 -35q68 0 109 87z" />
    <glyph glyph-name="ch202" unicode="&#xa0;" horiz-adv-x="250" 
 />
    <glyph glyph-name="exclamdown" unicode="&#xa1;" horiz-adv-x="294" 
d="M214 -168v-3q0 -31 -17.5 -58t-49 -27t-49.5 27.5t-18 57.5l4 51l55 386h14l57 -386q2 -14 2 -26zM190.5 447.5q18.5 -18.5 18.5 -45t-19 -45t-45 -18.5t-45 18.5t-19 45t19 45t45.5 18.5t45 -18.5z" />
    <glyph glyph-name="cent" unicode="&#xa2;" horiz-adv-x="418" 
d="M297 508q89 -14 89 -52q0 -15 -9 -25.5t-23 -10.5q-28 0 -39 30q-4 13 -22 21l-39 -322h2q47 -1 96 32q13 8 20 8q12 0 12 -10t-9 -19q-49 -43 -124 -45l-3 -15l-12 -100q-32 -4 -33 0l15 117q-73 10 -119.5 64t-46.5 134.5t58 138.5t141 58h13l2 9l10 85h33zM223 158
l39 325h-10q-53 -2 -87 -50q-33 -50 -32 -117q2 -131 90 -158z" />
    <glyph glyph-name="sterling" unicode="&#xa3;" horiz-adv-x="569" 
d="M87 345l57 2v103q0 134 68 199q62 56 144 56q9 0 27 -2q111 -11 114 -78q3 -52 -49 -52q-12 -3 -27.5 7.5t-14.5 23.5q1 2 12.5 14t10.5 23t-16 20t-31 9t-38 -6t-31 -11q-25 -14 -47 -57q-42 -76 -34 -169v-78q88 0 172 2l1 -47q-31 1 -113 0h-66q-3 -108 -96 -236
q43 7 97 7t207 -7q42 -2 72.5 32.5t25.5 40.5q0 -131 -74 -151q-23 -6 -51.5 -6t-114 20.5t-176.5 26.5q-12 -26 -36 -41t-39 -4q-6 4 -6 20.5t13.5 29.5t48.5 31q14 30 29 80.5t18 131.5v25l-47 2q-19 1 -46 1l2 40q0 -2 34 -2z" />
    <glyph glyph-name="currency" unicode="&#xa4;" horiz-adv-x="499" 
d="M418 457q47 -56 47 -131.5t-47 -131.5l46 -45q0 -3 -22 -24t-27 -24l-41 51q-55 -40 -125 -40t-125 40l-41 -51q-10 10 -30.5 27.5t-18.5 20.5l46 45q-46 55 -46 131.5t46 131.5l-46 45l12 12q40 32 37 35l41 -50q53 38 122.5 39.5t127.5 -39.5l41 50q-1 -1 24 -26
q16 -14 25 -21zM361 205q48 49 48 118t-47 118.5t-112 49.5t-111.5 -49.5t-46.5 -118t47 -118.5q48 -49 112 -49t110 49z" />
    <glyph glyph-name="yen" unicode="&#xa5;" horiz-adv-x="656" 
d="M276 678q0 -13 -18 -12.5t-43 -10t-25 -26t144 -314.5h8q117 209 163 328q5 11 -14 17t-48 6q-14 0 -14 12.5t14 12.5q55 -4 98 -4t96 4q15 0 15 -13t-15 -13q-10 0 -18 -4q-23 -8 -49.5 -29.5t-180.5 -316.5h132v-35h-149l-11 -19v-50h158v-34h-156q2 -87 3 -103
q2 -43 76 -50q15 2 15 -13q0 -11 -15 -11l-125 3l-110 -3q-15 0 -15 13q0 11 19.5 11t41.5 14.5t23 37.5t2 101h-135v34h136v50q-1 2 -8 19h-126v35h110q-83 176 -160 305q-20 33 -68 46q-16 0 -16 12.5t15 12.5q87 -5 123.5 -5t111.5 5q15 0 15 -13z" />
    <glyph glyph-name="brokenbar" unicode="&#xa6;" horiz-adv-x="238" 
d="M148 684v-293h-58v293h58zM148 277v-293h-58v293h58z" />
    <glyph glyph-name="section" unicode="&#xa7;" horiz-adv-x="521" 
d="M374 396q71 -69 71 -134t-39 -101.5t-99 -30.5q45 -39 70 -75t25 -83q0 -61 -49 -95q-44 -32 -100.5 -32t-97.5 30q-46 31 -46 84q0 22 18 35t36.5 13t30 -9.5t11.5 -18.5t-6.5 -22t-6.5 -15q0 -24 20.5 -49t51 -25t56 21.5t25.5 56.5q0 54 -70 109l-130 98
q-70 64 -70 142q0 62 39.5 97t100.5 29q-46 39 -73 75.5t-27 88.5t43.5 86.5t101.5 34.5t99 -30q46 -31 46 -84q0 -22 -18 -35t-37 -13t-30.5 9.5t-11.5 17t6.5 24t6.5 24.5q0 24 -21 44t-51 20t-53.5 -20t-23.5 -55q0 -46 71 -105zM391 229q0 43 -74.5 107.5t-117.5 64.5
q-30 0 -51 -21.5t-21 -52.5q0 -44 71 -109t116 -65q34 0 55.5 21t21.5 55z" />
    <glyph glyph-name="dieresis" unicode="&#xa8;" horiz-adv-x="489" 
d="M389 579q0 -49 -48.5 -49t-48.5 49t48.5 49t48.5 -49zM194 579q0 -49 -49 -49t-49 49t49 49t49 -49z" />
    <glyph glyph-name="copyright" unicode="&#xa9;" horiz-adv-x="731" 
d="M615 587q104 -104 104 -250.5t-103.5 -250t-250.5 -103.5t-250.5 103.5t-103.5 249.5t103 250.5t250 104.5t251 -104zM145 116q91 -91 219.5 -91t220 91.5t91.5 220t-91.5 219t-220 90.5t-219.5 -92t-91 -219.5t91 -218.5zM505 237l19 -9q-17 -43 -61.5 -69.5
t-96.5 -26.5q-87 0 -140 56q-52 56 -52 146t55 146t148 56q63 0 138 -26v-104h-25q-2 104 -106 104q-69 0 -106 -49t-37 -119t38 -124.5t105 -54.5q85 0 121 74z" />
    <glyph glyph-name="ordfeminine" unicode="&#xaa;" horiz-adv-x="332" 
d="M283 272h-83l-1 48q-51 -55 -98 -55q-31 0 -50 18t-19 57t35 62q24 16 75 25l57 10q1 39 -8.5 63t-38.5 24q-48 0 -50 -32q0 -6 6.5 -14t7 -12.5t-8.5 -9.5t-16 -5q-31 0 -29 32.5t40 47.5q24 9 51 9q48 0 69.5 -26.5t21.5 -86.5v-140h39v-15zM199 343v75q-45 -4 -83 -19
q-15 -6 -25 -22t-10 -34t13 -31t31.5 -14t39.5 12.5t34 32.5z" />
    <glyph glyph-name="guillemotleft" unicode="&#xab;" horiz-adv-x="630" 
d="M382 198l169 -176l-20 -20l-256 197l260 200l16 -22zM145 198l169 -176l-20 -20l-256 197l260 200l16 -22z" />
    <glyph glyph-name="logicalnot" unicode="&#xac;" horiz-adv-x="499" 
d="M466 304v-254h-59v205h-374v49h433z" />
    <glyph glyph-name="registered" unicode="&#xae;" horiz-adv-x="731" 
d="M615 587q104 -104 104 -250.5t-103.5 -250t-250.5 -103.5t-250.5 103.5t-103.5 249.5t103 250.5t250 104.5t251 -104zM145 116q91 -91 219.5 -91t220 91.5t91.5 220t-91.5 219t-220 90.5t-219.5 -92t-91 -219.5t91 -218.5zM549 170v-16h-26q-45 0 -60.5 12.5t-34.5 59.5
q-29 73 -46 92q-14 14 -63 14h-17v-162h47v-16h-147v16h45l-1 354h-45v16h151q66 0 102 -14q51 -23 51 -83q0 -43 -34 -70q-29 -25 -75 -31v-1q48 -6 85 -100q16 -41 31 -60q14 -11 37 -11zM449 439q0 84 -91 84h-56v-172h26q121 0 121 88z" />
    <glyph glyph-name="degree" unicode="&#xb0;" horiz-adv-x="348" 
d="M268 602q40 -34 40 -92.5t-38.5 -93.5t-96.5 -35t-93 34q-40 34 -40 92.5t38 94.5t94.5 36t95.5 -36zM229.5 442q22.5 26 22.5 67.5t-22.5 67.5t-56 26t-55.5 -25.5t-22 -67.5t22 -68t55.5 -26t56 26z" />
    <glyph glyph-name="plusminus" unicode="&#xb1;" horiz-adv-x="499" 
d="M442 287v-49h-163v-154h-59v154h-162v49h162v148h59v-148h163zM442 49v-49h-384v49h384z" />
    <glyph glyph-name="twosuperior" unicode="&#xb2;" horiz-adv-x="289" 
d="M35 702q-2 35 28 66t82.5 30t82 -26.5t29.5 -72.5q0 -84 -135 -196h67q18 1 31 18t12 42h28v-120h-218v19q145 123 145 237q0 32 -12 52t-33.5 20t-38 -12.5t-16.5 -27t12.5 -27.5t13.5 -24q2 -23 -33 -23q-17 0 -30.5 14t-14.5 31z" />
    <glyph glyph-name="threesuperior" unicode="&#xb3;" horiz-adv-x="323" 
d="M157 798q45 0 75 -21t30 -61.5t-27.5 -62.5t-65.5 -23q41 0 73.5 -27t32.5 -71t-38 -70t-85 -26t-77.5 19t-30.5 53q0 15 9.5 27.5t24.5 12.5q35 0 35 -25q0 -9 -5.5 -16.5t-5.5 -17.5t12.5 -18t31.5 -8q59 0 59 74q0 79 -97 79v28h8q85 0 85 71q0 27 -12.5 41.5
t-33.5 14.5q-42 -2 -42 -30q0 -6 5 -14.5t5 -15t-9.5 -13.5t-20.5 -7q-34 2 -34 36t31 51.5t67 19.5z" />
    <glyph glyph-name="acute" unicode="&#xb4;" horiz-adv-x="408" 
d="M348 661q0 -21 -13 -34l-133 -136l-21 5l97 181q11 20 37 20q33 0 33 -36z" />
    <glyph glyph-name="uni00B5" unicode="&#xb5;" horiz-adv-x="570" 
d="M562 122q3 -10 3 -35.5t-18.5 -60t-55 -34.5t-60.5 38q-19 28 -24 73q-63 -111 -147 -111q-53 0 -95 36t-60 89q-4 -29 -4 -73.5t22 -98.5q10 -28 36 -71.5t26 -63.5q0 -38 -51 -38t-67 55q-8 29 -8 84.5t9.5 144t9.5 129.5t-6 102t-6 100t11.5 62t51.5 23t40 -45
q0 -33 -17 -109t-17 -130q0 -142 94 -142q157 0 157 342q0 84 38 84q35 0 44 -14t9 -52q0 -146 -53 -269q17 -65 58 -65q47 0 80 50z" />
    <glyph glyph-name="paragraph" unicode="&#xb6;" horiz-adv-x="613" 
d="M564 677v-32h-76q-5 -20 -5 -83l-2 -589q0 -18 5 -73h77v-27h-371v27h76q6 49 6 73l1 364q-84 0 -154 49q-83 56 -83 144q0 67 49 107q51 46 142.5 41.5t176.5 -4.5t158 3zM275 374v266q-47 5 -83 -23q-46 -36 -46 -107q0 -52 37 -89.5t92 -46.5zM412 -27v667h-68
l-1 -667q0 -18 5 -73h58q6 49 6 73z" />
    <glyph glyph-name="middot" unicode="&#xb7;" horiz-adv-x="250" 
d="M83 340.5q17 16.5 41.5 16.5t41 -17t16.5 -41t-17 -41t-41 -17t-41 17t-17 41.5t17 41z" />
    <glyph glyph-name="cedilla" unicode="&#xb8;" horiz-adv-x="323" 
d="M271 -86.5q23 -18.5 23 -55.5t-36 -56.5t-75 -19.5t-91 15l15 31q31 -10 58 -10q56 0 56 43q0 35 -39 35q-17 0 -38 -7l-7 6l41 95h32l-24 -63q12 5 37 5t48 -18.5z" />
    <glyph glyph-name="onesuperior" unicode="&#xb9;" horiz-adv-x="288" 
d="M74 443v24h47v230l-35 -63h-35l86 157h44v-324h47v-24h-154z" />
    <glyph glyph-name="ordmasculine" unicode="&#xba;" horiz-adv-x="370" 
d="M271 500.5q37 -37.5 37 -97t-41.5 -101.5t-101.5 -42t-95.5 37.5t-35.5 99.5t39 101.5t100 39.5t98 -37.5zM182 279q36 0 55 30.5t19 81t-25 89.5t-64 39q-80 0 -80 -102q0 -53 23 -95.5t72 -42.5z" />
    <glyph glyph-name="guillemotright" unicode="&#xbb;" horiz-adv-x="630" 
d="M367 399l260 -200l-257 -197l-19 20l169 176l-169 179zM130 399l260 -200l-257 -197l-19 20l169 176l-169 179z" />
    <glyph glyph-name="onequarter" unicode="&#xbc;" horiz-adv-x="672" 
d="M109 0l4 -5h37l448 698l-2 6h-39zM93 357v24h47v230l-35 -63h-35l86 157h44v-324h47v-24h-154zM602 -1v24h-47v48h47v29h-47v100l-60 -23v-77h-92q4 9 15 25l65 91q63 100 63 111q0 26 -30.5 26t-45.5 -34l-68 -148q-41 -86 -41 -100h134v-48h-45v-24h152z" />
    <glyph glyph-name="onehalf" unicode="&#xbd;" horiz-adv-x="666" 
d="M73 0l4 -5h37l448 698l-2 6h-39zM93 357v24h47v230l-35 -63h-35l86 157h44v-324h47v-24h-154zM371 259q1 -17 14.5 -31t29 -14t25.5 5.5t9 17t-13.5 24.5t-12.5 27.5t16.5 27t38 12.5t33.5 -20t12 -52q0 -114 -145 -237v-19h218v120h-28q1 -25 -12 -42t-31 -18h-67
q135 112 135 196q0 47 -29.5 72.5t-82 26.5t-82.5 -30t-28 -66z" />
    <glyph glyph-name="threequarters" unicode="&#xbe;" horiz-adv-x="694" 
d="M133 -5l-2 5l448 699h39l2 -6l-448 -698h-39zM183 704q45 0 75 -21t30 -61.5t-27.5 -62.5t-65.5 -23q41 0 73.5 -27t32.5 -71t-38 -70t-85.5 -26t-77.5 19t-30 53q0 15 9.5 27.5t24.5 12.5q35 0 35 -25q0 -9 -5.5 -16.5t-5.5 -17.5t12.5 -18t31.5 -8q59 0 59 74
q0 79 -97 79v28h8q85 0 85 71q0 27 -12.5 41.5t-33.5 14.5q-42 -2 -42 -30q0 -6 5 -14.5t5 -15t-9.5 -13.5t-20.5 -7q-34 2 -34 36t31 51.5t67 19.5zM624 24v-24h-152v24h45v48h-134q0 14 26 69l84 181q14 32 44.5 32t30.5 -26q0 -11 -63 -111l-65 -91q-11 -16 -15 -25h92
v77l60 23v-100h47v-29h-47v-48h47z" />
    <glyph glyph-name="questiondown" unicode="&#xbf;" horiz-adv-x="450" 
d="M149 83q84 81 87 197h16l2 -87q0 -68 -27 -119q-8 -13 -52 -78.5t-44 -122.5q0 -95 91 -95q85 0 88 68q1 11 -7.5 26t-8.5 22q-2 34 48 42q19 3 41.5 -12.5t19.5 -57.5t-51.5 -80t-128.5 -38t-126 37q-53 41 -53 110q0 87 105 188zM179 402q0 27 18 45t45 18t45.5 -18
t18.5 -45t-18.5 -45t-45.5 -18t-45 18t-18 45z" />
    <glyph glyph-name="Agrave" unicode="&#xc0;" horiz-adv-x="748" 
d="M725 31v-31h-260v31h80l-68 197h-241l-38 -90q-18 -46 -18 -67.5t6 -30.5t63 -9v-31h-218v31q52 -1 75.5 13.5t51.5 93.5l217 570h40l236 -677h74zM250 266h213l-99 293zM277 876l133 -134h-38l-140 87q-39 24 -39 45q0 33 32 33q21 0 52 -31z" />
    <glyph glyph-name="Aacute" unicode="&#xc1;" horiz-adv-x="748" 
d="M725 31v-31h-260v31h80l-68 197h-241l-38 -90q-18 -46 -18 -67.5t6 -30.5t63 -9v-31h-218v31q52 -1 75.5 13.5t51.5 93.5l217 570h40l236 -677h74zM250 266h213l-99 293zM553 908q0 -21 -13 -34l-133 -136l-21 5l97 181q11 20 37 20q33 0 33 -36z" />
    <glyph glyph-name="Acircumflex" unicode="&#xc2;" horiz-adv-x="748" 
d="M725 31v-31h-260v31h80l-68 197h-241l-38 -90q-18 -46 -18 -67.5t6 -30.5t63 -9v-31h-218v31q52 -1 75.5 13.5t51.5 93.5l217 570h40l236 -677h74zM250 266h213l-99 293zM430 905l122 -164h-34l-119 101l-117 -101h-35l122 164h61z" />
    <glyph glyph-name="Atilde" unicode="&#xc3;" horiz-adv-x="748" 
d="M725 31v-31h-260v31h80l-68 197h-241l-38 -90q-18 -46 -18 -67.5t6 -30.5t63 -9v-31h-218v31q52 -1 75.5 13.5t51.5 93.5l217 570h40l236 -677h74zM250 266h213l-99 293zM520 842h28q0 -39 -31.5 -70.5t-65 -31.5t-81.5 22t-62 22q-34 0 -51 -44h-28q17 96 106 96
q20 0 72 -23q45 -22 63 -20.5t29 13t21 36.5z" />
    <glyph glyph-name="Adieresis" unicode="&#xc4;" horiz-adv-x="748" 
d="M725 31v-31h-260v31h80l-68 197h-241l-38 -90q-18 -46 -18 -67.5t6 -30.5t63 -9v-31h-218v31q52 -1 75.5 13.5t51.5 93.5l217 570h40l236 -677h74zM250 266h213l-99 293zM542 789q0 -49 -48.5 -49t-48.5 49t48.5 49t48.5 -49zM347 789q0 -49 -49 -49t-49 49t49 49t49 -49
z" />
    <glyph glyph-name="Aring" unicode="&#xc5;" horiz-adv-x="748" 
d="M489 817q0 -40 -29 -69t-69 -29t-69 29t-29 69t28.5 68.5t69 28.5t69.5 -28.5t29 -68.5zM725 31v-31h-260v31h80l-68 197h-242l-36 -90q-20 -48 -20 -68.5t6 -29.5t64 -9v-31h-218v31q52 -1 75 13.5t53 93.5l216 570h40l235 -677h75zM434 772q16 17 16 45.5t-15.5 45.5
t-43 17t-44 -17t-16.5 -45.5t16.5 -45.5t43.5 -17t43 17zM250 266h213l-100 293z" />
    <glyph glyph-name="AE" unicode="&#xc6;" horiz-adv-x="1085" 
d="M1019 239h32l-11 -239h-581v31h94v197h-254l-79 -104q-40 -52 -40 -70q0 -23 23 -23h39v-31h-218v31q40 5 77 17q18 11 67 77l385 533h-94v31h565l2 -203h-31q-7 87 -47.5 127.5t-134.5 42.5l-171 2v-290h122q86 0 86 118h32v-277h-32q0 59 -24 92t-62 33h-122v-303
l187 3q28 0 67.5 15t58.5 34q59 55 64 156zM323 266h230v321z" />
    <glyph glyph-name="Ccedilla" unicode="&#xc7;" horiz-adv-x="693" 
d="M441 -86.5q23 -18.5 23 -55.5t-36 -56.5t-75 -19.5t-91 15l14 31q33 -10 59 -10q56 0 56 43q0 35 -39 35q-17 0 -38 -7l-7 6l38 90q-121 11 -203.5 114.5t-81.5 254.5t92 252q85 97 215 97q85 0 144 -13q30 -9 82 -28q-18 -82 -18 -147h-30v70q0 18 -23.5 41.5
t-46.5 30.5q-59 20 -103 18q-195 -13 -195 -331q0 -142 49.5 -231.5t134 -92t139 23t113.5 84.5l12 -14l-28 -46l-45 -34q-69 -47 -175 -50l-21 -57q12 5 37 5t48 -18.5z" />
    <glyph glyph-name="Egrave" unicode="&#xc8;" horiz-adv-x="698" 
d="M611 239h32l-11 -239h-581v31h94v627h-94v31h565l2 -203h-31q-7 87 -48 127.5t-134 42.5l-171 2v-290h122q43 0 64 25q23 32 23 93h31v-277h-31q0 59 -24.5 92t-62.5 33h-122v-303l187 3q28 0 67.5 15t58.5 34q60 56 64 156zM244 877l133 -134h-38l-140 87q-39 24 -39 45
q0 33 32 33q21 0 52 -31z" />
    <glyph glyph-name="Eacute" unicode="&#xc9;" horiz-adv-x="698" 
d="M611 239h32l-11 -239h-581v31h94v627h-94v31h565l2 -203h-31q-7 87 -47.5 127.5t-134.5 42.5l-171 2v-290h122q44 0 63 25q23 32 23 93h32v-277h-32q0 59 -24 92t-62 33h-122v-303l187 3q28 0 67.5 15t58.5 34q59 55 64 156zM487 911q0 -21 -13 -33l-132 -136l-21 4
l96 181q10 19 37 19q33 0 33 -35z" />
    <glyph glyph-name="Ecircumflex" unicode="&#xca;" horiz-adv-x="698" 
d="M611 239h32l-11 -239h-581v31h94v627h-94v31h565l2 -203h-31q-7 87 -48 127.5t-134 42.5l-171 2v-290h122q43 0 64 25q23 32 23 93h31v-277h-31q0 59 -24.5 92t-62.5 33h-122v-303l187 3q28 0 67.5 15t58.5 34q60 56 64 156zM349 905l122 -164h-34l-119 101l-117 -101
h-35l122 164h61z" />
    <glyph glyph-name="Edieresis" unicode="&#xcb;" horiz-adv-x="698" 
d="M611 239h32l-11 -239h-581v31h94v627h-94v31h565l2 -203h-31q-7 87 -48 127.5t-134 42.5l-171 2v-290h122q43 0 64 25q23 32 23 93h31v-277h-31q0 59 -24.5 92t-62.5 33h-122v-303l187 3q28 0 67.5 15t58.5 34q60 56 64 156zM496 786q0 -49 -48.5 -49t-48.5 49t48.5 49
t48.5 -49zM301 786q0 -49 -49 -49t-49 49t49 49t49 -49z" />
    <glyph glyph-name="Igrave" unicode="&#xcc;" horiz-adv-x="380" 
d="M335 31v-31h-286v31h94v627h-94v31h286v-31h-93v-627h93zM85 873l133 -134h-38l-140 87q-39 24 -39 45q0 33 32 33q21 0 52 -31z" />
    <glyph glyph-name="Iacute" unicode="&#xcd;" horiz-adv-x="380" 
d="M335 31v-31h-286v31h94v627h-94v31h286v-31h-93v-627h93zM351 911q0 -21 -13 -34l-133 -136l-21 5l97 181q11 20 37 20q33 0 33 -36z" />
    <glyph glyph-name="Icircumflex" unicode="&#xce;" horiz-adv-x="380" 
d="M335 31v-31h-286v31h94v627h-94v31h286v-31h-93v-627h93zM220 911l122 -164h-34l-119 101l-117 -101h-35l122 164h61z" />
    <glyph glyph-name="Idieresis" unicode="&#xcf;" horiz-adv-x="380" 
d="M335 31v-31h-286v31h94v627h-94v31h286v-31h-93v-627h93zM333 786q0 -49 -48.5 -49t-48.5 49t48.5 49t48.5 -49zM138 786q0 -49 -49 -49t-49 49t49 49t49 -49z" />
    <glyph glyph-name="Eth" unicode="&#xd0;" horiz-adv-x="709" 
d="M691 336q0 -140 -92.5 -241t-213.5 -97q-182 6 -341 2v31h94v296h-92v34h92v297h-94v31q89 -5 158 -4t186 0q141 -2 222 -95.5t81 -253.5zM538 127q49 78 47.5 215.5t-39.5 211.5q-47 95 -158 104q-90 5 -161 -4v-293h149v-34h-149v-296q68 -6 102.5 -6t56.5 2
q103 15 152 100z" />
    <glyph glyph-name="Ntilde" unicode="&#xd1;" horiz-adv-x="733" 
d="M708 689v-31q-58 0 -68 -10q-26 -26 -26 -77l2 -588h-23l-423 652v-518q0 -52 25 -76q10 -10 68 -10v-31h-221v31q56 0 66 9q28 24 28 77v518q-3 23 -30 23h-56v31h200l331 -515v397q0 51 -28 78q-11 9 -66 9v31h221zM544 849l3 -3q-9 -40 -38 -73t-64 -33t-86 24t-67 24
q-43 0 -59 -48h-22l-3 3q6 42 36 74t64 32t85 -24t70 -24q39 0 59 48h22z" />
    <glyph glyph-name="Ograve" unicode="&#xd2;" horiz-adv-x="718" 
d="M581 607q82 -98 82 -256.5t-86 -261.5t-214.5 -103t-220.5 105q-90 106 -88 261.5t88.5 255t222 99.5t216.5 -100zM363 21q93 0 141 89t48 236.5t-42 231.5q-50 98 -153.5 98t-151.5 -93q-40 -79 -40 -236q0 -326 198 -326zM260 877l133 -134h-38l-140 87q-39 24 -39 45
q0 33 32 33q21 0 52 -31z" />
    <glyph glyph-name="Oacute" unicode="&#xd3;" horiz-adv-x="718" 
d="M581 607q82 -98 82 -256.5t-86 -261.5t-214.5 -103t-220.5 105q-90 106 -88 261.5t88.5 255t222 99.5t216.5 -100zM363 21q93 0 141 89t48 236.5t-42 231.5q-50 98 -153.5 98t-151.5 -93q-40 -79 -40 -236q0 -326 198 -326zM513 907q0 -21 -13 -34l-133 -136l-21 5
l97 181q11 20 37 20q33 0 33 -36z" />
    <glyph glyph-name="Ocircumflex" unicode="&#xd4;" horiz-adv-x="718" 
d="M581 607q82 -98 82 -256.5t-86 -261.5t-214.5 -103t-220.5 105q-90 106 -88 261.5t88.5 255t222 99.5t216.5 -100zM363 21q93 0 141 89t48 236.5t-42 231.5q-50 98 -153.5 98t-151.5 -93q-40 -79 -40 -236q0 -326 198 -326zM392 911l122 -164h-34l-119 101l-117 -101h-35
l122 164h61z" />
    <glyph glyph-name="Otilde" unicode="&#xd5;" horiz-adv-x="718" 
d="M581 607q82 -98 82 -256.5t-86 -261.5t-214.5 -103t-220.5 105q-90 106 -88 261.5t88.5 255t222 99.5t216.5 -100zM363 21q93 0 141 89t48 236.5t-42 231.5q-50 98 -153.5 98t-151.5 -93q-40 -79 -40 -236q0 -326 198 -326zM483 843h28q0 -39 -31.5 -70.5t-65 -31.5
t-82 22t-61.5 22q-34 0 -51 -44h-28q16 96 106 96q20 0 72 -23q45 -22 63.5 -20t29 13t20.5 36z" />
    <glyph glyph-name="Odieresis" unicode="&#xd6;" horiz-adv-x="718" 
d="M522 793q0 -47 -49.5 -47t-49.5 47q0 49 49.5 49t49.5 -49zM279 842q48 0 48 -48t-49 -48t-49 47q0 22 14 35.5t36 13.5zM581 605q82 -98 82 -256.5t-86.5 -261.5t-216 -103t-219.5 105q-89 108 -88 262t90 255q85 99 221 99t217 -100zM361 18q94 0 142 89t48 236.5
t-43 232.5q-50 98 -153.5 98t-149.5 -94q-40 -79 -40 -236q0 -326 196 -326z" />
    <glyph glyph-name="multiply" unicode="&#xd7;" horiz-adv-x="499" 
d="M290 266l149 -145l-39 -38l-150 144l-151 -144l-39 38l150 145l-150 145l39 37l151 -143l150 143l39 -37z" />
    <glyph glyph-name="Oslash" unicode="&#xd8;" horiz-adv-x="727" 
d="M699 695l28 -32l-107 -103q50 -92 50 -231t-86 -242t-220 -103t-224 117l-108 -101l-29 34l112 105q-55 91 -55 205q1 161 88.5 261t218.5 100q147 0 229 -109zM184 204l348 332q-45 138 -165 138q-107 0 -155 -94q-40 -79 -40 -236q0 -82 12 -140zM559 340q0 81 -14 148
l-349 -333q44 -137 173 -137q95 0 144 94q46 83 46 228z" />
    <glyph glyph-name="Ugrave" unicode="&#xd9;" horiz-adv-x="747" 
d="M723 692v-31q-59 0 -69 -10q-25 -25 -25 -78v-294q0 -160 -55 -227t-201 -67q-118 0 -183.5 71.5t-65.5 162.5v442h-92v31h275v-31h-94v-438q0 -208 189 -208q194 0 194 232v326q0 55 -26 79q-10 9 -67 9v31h220zM299 873l133 -134h-38l-140 87q-39 24 -39 45q0 33 32 33
q21 0 52 -31z" />
    <glyph glyph-name="Uacute" unicode="&#xda;" horiz-adv-x="747" 
d="M723 692v-31q-59 0 -69 -10q-25 -25 -25 -78v-294q0 -160 -55 -227t-201 -67q-118 0 -183.5 71.5t-65.5 162.5v442h-92v31h275v-31h-94v-438q0 -208 189 -208q194 0 194 232v326q0 55 -26 79q-10 9 -67 9v31h220zM562 912q0 -21 -13 -34l-133 -136l-21 5l97 181
q11 20 37 20q33 0 33 -36z" />
    <glyph glyph-name="Ucircumflex" unicode="&#xdb;" horiz-adv-x="747" 
d="M723 692v-31q-59 0 -69 -10q-25 -25 -25 -78v-294q0 -160 -55 -227t-201 -67q-118 0 -183.5 71.5t-65.5 162.5v442h-92v31h275v-31h-94v-438q0 -208 189 -208q194 0 194 232v326q0 55 -26 79q-10 9 -67 9v31h220zM438 910l122 -164h-34l-119 101l-117 -101h-35l122 164
h61z" />
    <glyph glyph-name="Udieresis" unicode="&#xdc;" horiz-adv-x="747" 
d="M723 692v-31q-59 0 -69 -10q-25 -25 -25 -78v-294q0 -160 -55 -227t-201 -67q-118 0 -183.5 71.5t-65.5 162.5v442h-92v31h275v-31h-94v-438q0 -208 189 -208q194 0 194 232v326q0 55 -26 79q-10 9 -67 9v31h220zM555 783q0 -49 -48.5 -49t-48.5 49t48.5 49t48.5 -49z
M360 783q0 -49 -49 -49t-49 49t49 49t49 -49z" />
    <glyph glyph-name="Yacute" unicode="&#xdd;" horiz-adv-x="684" 
d="M674 689l1 -37q-59 2 -74 -14q-21 -19 -50 -81l-145 -281v-246l96 1v-32l-282 1v31l92 -1v241l-220 387h-76v31h261v-31h-74l181 -335l114 223q30 52 30 79q0 12 -16 25q-8 8 -58 6l1 33h219zM541 910q0 -21 -13 -34l-133 -136l-21 5l97 181q11 20 37 20q33 0 33 -36z
" />
    <glyph glyph-name="Thorn" unicode="&#xde;" horiz-adv-x="596" 
d="M561 418q-2 -101 -57 -164q-21 -22 -105 -80q-25 -16 -96 -18l-19 63q12 -16 48 -16t68.5 11.5t42.5 28.5q26 43 35 74q1 9 6 54.5t-23 89.5q-25 44 -56 52q-55 11 -65 11q-48 0 -74 -32q-14 -12 -35 -36v-425h94v-31h-286v31h93v625h-93v30h286v-30h-94v-165l63 62
q20 18 45 21.5t42 8.5q6 -2 13 -2q48 0 104 -45q63 -53 63 -118z" />
    <glyph glyph-name="germandbls" unicode="&#xdf;" horiz-adv-x="555" 
d="M179 512v-511h-162v27h58q19 0 22 22v353h-79v36h79v19q-1 26 0 45q0 79 39 132q51 68 169 68q71 0 119 -27q58 -35 64 -102q9 -78 -43 -177q-19 9 -61 21q-61 7 -70 -41q-6 -33 42 -61l74 -40q87 -53 91 -116q9 -83 -61 -138q-32 -26 -82 -26t-94 23q-17 5 -19 -18h-24
v163h30v-29q0 -35 22 -66q27 -39 78 -39q28 0 51 23t23 53q0 54 -46 88l-90 51q-51 34 -52 78q-3 40 17 74t55.5 49.5t102.5 11.5q9 50 9 85q0 61 -42 99t-96 36t-89 -33t-35 -133z" />
    <glyph glyph-name="agrave" unicode="&#xe0;" horiz-adv-x="500" 
d="M480 28v-28h-160v82q-89 -94 -168 -94q-53 0 -85 31q-35 31 -35 88q0 79 61 118q46 28 129 43l98 17q2 71 -12 104q-20 47 -69 47q-85 0 -86 -57q0 -10 11.5 -23.5t11.5 -14.5q1 -15 -14.5 -25t-28.5 -7q-50 0 -49 55.5t69 83.5q42 16 89 16q79 0 118 -44q39 -48 39 -152
v-218q0 -10 7 -16t16 -6h58zM320 122v130q-87 -11 -143 -33q-26 -10 -43 -37t-17 -59t22.5 -54t54 -23.5t67 21t59.5 55.5zM174 632l133 -134h-38l-140 87q-39 24 -39 45q0 33 32 33q21 0 52 -31z" />
    <glyph glyph-name="aacute" unicode="&#xe1;" horiz-adv-x="500" 
d="M480 28v-28h-160v82q-89 -94 -168 -94q-53 0 -85 31q-35 31 -35 88q0 79 61 118q46 28 129 43l98 17q2 71 -12 104q-20 47 -69 47q-85 0 -86 -57q0 -10 11.5 -23.5t11.5 -14.5q1 -15 -14.5 -25t-28.5 -7q-50 0 -49 55.5t69 83.5q42 16 89 16q79 0 118 -44q39 -48 39 -152
v-218q0 -10 7 -16t16 -6h58zM320 122v130q-87 -11 -143 -33q-26 -10 -43 -37t-17 -59t22.5 -54t54 -23.5t67 21t59.5 55.5zM392 661q0 -21 -13 -34l-133 -136l-21 5l97 181q11 20 37 20q33 0 33 -36z" />
    <glyph glyph-name="acircumflex" unicode="&#xe2;" horiz-adv-x="500" 
d="M271 683l122 -164h-34l-118 100l-118 -100h-34l122 164h60zM480 28v-28h-160v82q-89 -94 -168 -94q-53 0 -85 31q-35 31 -35 88q0 79 61 118q46 28 129 43l98 17q2 71 -12 104q-20 47 -69 47q-85 0 -86 -57q0 -10 11.5 -23.5t11.5 -14.5q1 -15 -14.5 -25t-28.5 -7
q-50 0 -49 55.5t69 83.5q42 16 89 16q79 0 118 -44q39 -48 39 -152v-218q0 -10 7 -16t16 -6h58zM320 122v130q-87 -11 -143 -33q-26 -10 -43 -37t-17 -59t22.5 -54t54 -23.5t67 21t59.5 55.5z" />
    <glyph glyph-name="atilde" unicode="&#xe3;" horiz-adv-x="500" 
d="M480 28v-28h-160v82q-89 -94 -168 -94q-53 0 -85 31q-35 31 -35 88q0 79 61 118q46 28 129 43l98 17q2 71 -12 104q-20 47 -69 47q-85 0 -86 -57q0 -10 11.5 -23.5t11.5 -14.5q1 -15 -14.5 -25t-28.5 -7q-50 0 -49 55.5t69 83.5q42 16 89 16q79 0 118 -44q39 -48 39 -152
v-218q0 -10 7 -16t16 -6h58zM320 122v130q-87 -11 -143 -33q-26 -10 -43 -37t-17 -59t22.5 -54t54 -23.5t67 21t59.5 55.5zM372 628h28q0 -39 -31.5 -70.5t-65 -31.5t-81.5 22t-62 22q-34 0 -51 -44h-28q16 96 106 96q20 0 72 -23q45 -22 63 -20.5t29 13t21 36.5z" />
    <glyph glyph-name="adieresis" unicode="&#xe4;" horiz-adv-x="500" 
d="M386 575q0 -49 -50 -49q-48 0 -48 48t49 48t49 -47zM192 575q0 -49 -49.5 -49t-49.5 49q0 47 49.5 47t49.5 -47zM480 28v-28h-160v82q-89 -94 -168 -94q-53 0 -85 31q-35 31 -35 88q0 79 61 118q46 28 129 43l98 17q2 71 -12 104q-20 47 -69 47q-85 0 -86 -57
q0 -10 11.5 -23.5t11.5 -14.5q1 -15 -14.5 -25t-28.5 -7q-50 0 -49 55.5t69 83.5q42 16 89 16q79 0 118 -44q39 -48 39 -152v-218q0 -10 7 -16t16 -6h58zM320 122v130q-87 -11 -143 -33q-26 -10 -43 -37t-17 -59t22.5 -54t54 -23.5t67 21t59.5 55.5z" />
    <glyph glyph-name="aring" unicode="&#xe5;" horiz-adv-x="500" 
d="M308.5 696.5q28.5 -28.5 28.5 -69t-28.5 -69.5t-69 -29t-69.5 29t-29 69.5t29 69t69.5 28.5t69 -28.5zM284 581.5q17 17.5 17 46t-17 45.5t-44.5 17t-43.5 -17t-16 -45.5t16.5 -46t43.5 -17.5t44 17.5zM480 28v-28h-160v82q-89 -94 -168 -94q-53 0 -85 31q-35 31 -35 88
q0 79 61 118q46 28 129 43l98 17q2 71 -12 104q-20 47 -69 47q-85 0 -86 -57q0 -10 11.5 -23.5t11.5 -14.5q1 -15 -14.5 -25t-28.5 -7q-50 0 -49 55.5t69 83.5q42 16 89 16q79 0 118 -44q39 -48 39 -152v-218q0 -10 7 -16t16 -6h58zM320 122v130q-87 -11 -143 -33
q-26 -10 -43 -37t-17 -59t22.5 -54t54 -23.5t67 21t59.5 55.5z" />
    <glyph glyph-name="ae" unicode="&#xe6;" horiz-adv-x="755" 
d="M720 228h-320q0 -91 45.5 -142.5t132.5 -51.5q46 0 123 47l13 -10q-83 -88 -177 -88q-138 0 -195 106q-43 -52 -83.5 -79t-94.5 -27t-93 31t-38 88q1 79 80 119q50 23 155 35l54 7q8 171 -81 171q-84 0 -85 -55q0 -11 10.5 -24t11.5 -15q4 -14 -12.5 -23t-34.5 -9
t-32.5 14t-11.5 39q12 101 157 100q64 -2 102 -29q12 -10 34 -38q21 30 65 50t92 20q82 0 134 -58t52 -140q0 -20 -3 -38zM402 268l240 -2q2 67 -29 115q-28 49 -72 49q-139 0 -139 -162zM322 117v114q-106 -12 -130 -20q-73 -24 -73 -88q0 -80 87 -80q65 0 116 74z" />
    <glyph glyph-name="ccedilla" unicode="&#xe7;" horiz-adv-x="434" 
d="M181 -106l42 98q-77 6 -131 56q-66 63 -66 165.5t74 179.5q77 75 184 71q62 -4 90 -30.5t26.5 -54t-18.5 -41.5t-36 -14t-35 8.5t-13 19.5t19 19q18 11 15 23q-3 34 -69 34q-45 0 -92 -39q-60 -49 -60 -135q0 -108 53 -161t128 -53q51 0 100 28l10 -14q-57 -60 -146 -63
l-26 -65q12 4 38.5 4t49 -18t22.5 -55.5t-36 -57t-76 -19.5t-91 16l13 30q39 -11 61 -11q57 0 57 45q0 35 -40 35q-19 0 -40 -7z" />
    <glyph glyph-name="egrave" unicode="&#xe8;" horiz-adv-x="470" 
d="M141 632l134 -134h-38l-140 87q-39 24 -39 45q0 33 32 33q20 0 51 -31zM431 232h-318q0 -88 44 -137q45 -53 132 -53q46 0 119 46l13 -10q-71 -87 -176 -87t-165 63q-56 61 -56 162t60.5 174.5t162.5 73.5q84 0 135 -56.5t51 -138.5q0 -11 -2 -37zM345 268
q0 72 -26.5 118t-79.5 46t-89 -43t-36 -119q187 -5 231 -2z" />
    <glyph glyph-name="eacute" unicode="&#xe9;" horiz-adv-x="470" 
d="M393 661q0 -21 -12 -34l-134 -136l-20 5l97 181q11 20 36 20q33 0 33 -36zM431 232h-318q0 -88 44 -137q45 -53 132 -53q46 0 119 46l13 -10q-71 -87 -176 -87t-165 63q-56 61 -56 162t60.5 174.5t162.5 73.5q84 0 135 -56.5t51 -138.5q0 -11 -2 -37zM345 268
q0 72 -26.5 118t-79.5 46t-89 -43t-36 -119q187 -5 231 -2z" />
    <glyph glyph-name="ecircumflex" unicode="&#xea;" horiz-adv-x="470" 
d="M276 694l122 -164h-34l-119 100l-117 -100h-35l122 164h61zM431 232h-318q0 -88 44 -137q45 -53 132 -53q46 0 119 46l13 -10q-71 -87 -176 -87t-165 63q-56 61 -56 162t60.5 174.5t162.5 73.5q84 0 135 -56.5t51 -138.5q0 -11 -2 -37zM345 268q0 72 -26.5 118t-79.5 46
t-89 -43t-36 -119q187 -5 231 -2z" />
    <glyph glyph-name="edieresis" unicode="&#xeb;" horiz-adv-x="470" 
d="M386 581q0 -49 -50 -49q-48 0 -48 49t48 49q50 0 50 -49zM190 581q0 -49 -49 -49t-49 49t49 49t49 -49zM431 232h-318q0 -88 44 -137q45 -53 132 -53q46 0 119 46l13 -10q-71 -87 -176 -87t-165 63q-56 61 -56 162t60.5 174.5t162.5 73.5q84 0 135 -56.5t51 -138.5
q0 -11 -2 -37zM345 268q0 72 -26.5 118t-79.5 46t-89 -43t-36 -119q187 -5 231 -2z" />
    <glyph glyph-name="igrave" unicode="&#xec;" horiz-adv-x="287" 
d="M43 633l135 -134h-39l-139 87q-39 24 -39 44q0 35 32 35q18 0 50 -32zM189 456v-406q3 -23 22 -23h58v-27h-242v27h58q19 0 22 23v356q-3 23 -22 23h-58v27h162z" />
    <glyph glyph-name="iacute" unicode="&#xed;" horiz-adv-x="287" 
d="M279 661q0 -21 -12 -34l-134 -136l-20 5l97 181q11 20 36 20q33 0 33 -36zM189 456v-406q3 -23 22 -23h58v-27h-242v27h58q19 0 22 23v356q-3 23 -22 23h-58v27h162z" />
    <glyph glyph-name="icircumflex" unicode="&#xee;" horiz-adv-x="287" 
d="M170 689l122 -163h-34l-119 100l-118 -100h-34l121 163h62zM189 456v-406q3 -23 22 -23h58v-27h-242v27h58q19 0 22 23v356q-3 23 -22 23h-58v27h162z" />
    <glyph glyph-name="idieresis" unicode="&#xef;" horiz-adv-x="287" 
d="M283 575.5q0 -48.5 -49 -48.5t-49 48.5t49 48.5t49 -48.5zM38 624q49 0 49 -48.5t-49 -48.5t-49 48.5t49 48.5zM189 456v-406q3 -23 22 -23h58v-27h-242v27h58q19 0 22 23v356q-3 23 -22 23h-58v27h162z" />
    <glyph glyph-name="eth" unicode="&#xf0;" horiz-adv-x="534" 
d="M503 238v-3q0 -112 -72 -182.5t-186 -71.5q-92 -2 -153 62t-61 171t66 176q67 69 183 69q56 0 101 -22q-33 91 -99 150l-138 -68l-20 28q104 50 132 65q-32 32 -117 83l27 27q69 -25 146 -81l134 65l19 -30q-65 -30 -123 -60q160 -142 161 -378zM381 68q31 49 31 136
t-43.5 154.5t-109.5 67.5q-137 0 -137 -175q0 -94 34 -158q44 -80 128 -80q64 0 97 55z" />
    <glyph glyph-name="ntilde" unicode="&#xf1;" horiz-adv-x="595" 
d="M572 27v-27h-244v27h59q19 0 22 23v237q0 58 -30 90.5t-77 32.5t-87 -31q-38 -32 -38 -60v-269q3 -23 23 -23h58v-27h-244v27h58q20 0 23 23v346q-1 34 -34 34h-47v27h164v-27q-1 -12 -1 -28v-20q8 19 42 48q51 40 111 40q161 0 161 -171v-249q3 -23 23 -23h58zM430 660
h28q0 -39 -31.5 -70.5t-65 -31.5t-81.5 22t-62 22q-34 0 -51 -44h-28q17 96 106 96q20 0 72 -23q45 -22 63 -20.5t29 13t21 36.5z" />
    <glyph glyph-name="ograve" unicode="&#xf2;" 
d="M442 402q64 -63 64 -166.5t-71 -173.5t-186 -72q-91 -1 -154 63q-60 65 -60 171.5t67 174.5t182 68q95 0 158 -65zM289 22q63 0 94.5 53t31.5 137.5t-43 153.5q-44 68 -109 68q-137 0 -137 -175q0 -93 34 -157q43 -80 129 -80zM153 632l133 -134h-38l-140 87
q-39 24 -39 45q0 33 32 33q21 0 52 -31z" />
    <glyph glyph-name="oacute" unicode="&#xf3;" 
d="M393 685q0 -21 -14 -35l-131 -136l-23 4l97 181q10 19 36 19q35 0 35 -33zM442 402q64 -63 64 -166.5t-71 -173.5t-186 -72q-91 -1 -154 63q-60 65 -60 171.5t67 174.5t182 68q95 0 158 -65zM289 22q63 0 94.5 53t31.5 137.5t-43 153.5q-44 68 -109 68q-137 0 -137 -175
q0 -93 34 -157q43 -80 129 -80z" />
    <glyph glyph-name="ocircumflex" unicode="&#xf4;" 
d="M300 684l122 -163h-34l-118 100l-117 -100h-36l122 163h61zM442 402q64 -63 64 -166.5t-71 -173.5t-186 -72q-91 -1 -154 63q-60 65 -60 171.5t67 174.5t182 68q95 0 158 -65zM289 22q63 0 94.5 53t31.5 137.5t-43 153.5q-44 68 -109 68q-137 0 -137 -175q0 -93 34 -157
q43 -80 129 -80z" />
    <glyph glyph-name="otilde" unicode="&#xf5;" 
d="M442 402q64 -63 64 -166.5t-71 -173.5t-186 -72q-91 -1 -154 63q-60 65 -60 171.5t67 174.5t182 68q95 0 158 -65zM289 22q63 0 94.5 53t31.5 137.5t-43 153.5q-44 68 -109 68q-137 0 -137 -175q0 -93 34 -157q43 -80 129 -80zM392 647h28q0 -39 -31.5 -70.5t-65 -31.5
t-81.5 22t-62 22q-34 0 -51 -44h-28q16 96 106 96q20 0 72 -23q45 -22 63 -20t29 13t21 36z" />
    <glyph glyph-name="odieresis" unicode="&#xf6;" 
d="M422 594q0 -49 -49 -49t-49 49t49 49t49 -49zM227 594q0 -49 -48 -49q-50 0 -50 49t50 49q48 0 48 -49zM442 402q64 -63 64 -166.5t-71 -173.5t-186 -72q-91 -1 -154 63q-60 65 -60 171.5t67 174.5t182 68q95 0 158 -65zM289 22q63 0 94.5 53t31.5 137.5t-43 153.5
q-44 68 -109 68q-137 0 -137 -175q0 -93 34 -157q43 -80 129 -80z" />
    <glyph glyph-name="divide" unicode="&#xf7;" horiz-adv-x="593" 
d="M355 443q0 -23 -17.5 -39t-40.5 -16t-39.5 16.5t-16.5 38.5t17 39.5t39 17.5t40 -17t18 -40zM542 283v-55h-493v55h493zM337 106q18 -17 18 -40t-17.5 -39.5t-40.5 -16.5t-39.5 17t-16.5 39.5t17 39.5t39 17t40 -17z" />
    <glyph glyph-name="oslash" unicode="&#xf8;" horiz-adv-x="534" 
d="M494 483l30 -31l-67 -66q49 -59 49 -141q0 -113 -72 -183t-186 -72q-86 -2 -145 55l-64 -62l-28 33l64 61q-41 62 -41 142q0 111 66 180q68 69 183 69q83 0 144 -51zM142 142l230 223q-43 70 -110 70q-137 0 -137 -175q0 -62 17 -118zM384 77q31 49 31 121.5t-22 126.5
l-233 -225q44 -78 127 -78q64 0 97 55z" />
    <glyph glyph-name="ugrave" unicode="&#xf9;" horiz-adv-x="589" 
d="M181 657l133 -134h-38l-140 87q-39 24 -39 46q0 33 32 33q20 0 52 -32zM573 27v-28h-160l-1 81q-62 -93 -177 -93q-91 0 -120 54q-17 31 -17 114v241q-3 34 -34 34h-47v27h163v-292q0 -63 21.5 -90.5t83.5 -27.5q44 0 84 38q40 40 40 75v236q-2 34 -36 34h-46v27h163
v-408q0 -11 8.5 -16.5t16.5 -5.5h58z" />
    <glyph glyph-name="uacute" unicode="&#xfa;" horiz-adv-x="589" 
d="M399 661q0 -21 -12 -34l-134 -136l-20 5l97 181q11 20 36 20q33 0 33 -36zM573 27v-28h-160l-1 81q-62 -93 -177 -93q-91 0 -120 54q-17 31 -17 114v241q-3 34 -34 34h-47v27h163v-292q0 -63 21.5 -90.5t83.5 -27.5q44 0 84 38q40 40 40 75v236q-2 34 -36 34h-46v27h163
v-408q0 -11 8.5 -16.5t16.5 -5.5h58z" />
    <glyph glyph-name="ucircumflex" unicode="&#xfb;" horiz-adv-x="589" 
d="M311 690l120 -164h-33l-118 101l-118 -101h-34l122 164h61zM573 27v-28h-160l-1 81q-62 -93 -177 -93q-91 0 -120 54q-17 31 -17 114v241q-3 34 -34 34h-47v27h163v-292q0 -63 21.5 -90.5t83.5 -27.5q44 0 84 38q40 40 40 75v236q-2 34 -36 34h-46v27h163v-408
q0 -11 8.5 -16.5t16.5 -5.5h58z" />
    <glyph glyph-name="udieresis" unicode="&#xfc;" horiz-adv-x="589" 
d="M429 571q0 -49 -49 -49t-49 49t49 49t49 -49zM234 571q0 -49 -48 -49q-50 0 -50 49q0 22 14 35.5t36 13.5q48 0 48 -49zM573 27v-28h-160l-1 81q-62 -93 -177 -93q-91 0 -120 54q-17 31 -17 114v241q-3 34 -34 34h-47v27h163v-292q0 -63 21.5 -90.5t83.5 -27.5
q44 0 84 38q40 40 40 75v236q-2 34 -36 34h-46v27h163v-408q0 -11 8.5 -16.5t16.5 -5.5h58z" />
    <glyph glyph-name="yacute" unicode="&#xfd;" 
d="M69 407q-9 23 -35 23h-31v27h231v-27h-47q-26 0 -26 -19q0 -5 3 -11l119 -310l118 297q6 15 6 27q0 16 -17 16h-50v27h182v-27h-26q-28 0 -46 -43l-167 -386q-15 -48 -31 -87q-40 -95 -72 -124.5t-49 -35.5t-37.5 -6t-40 10t-13.5 35q4 35 48 32q11 -4 29 -7.5t27.5 0
t29.5 23.5q29 34 39 64q17 36 26 73q-1 8 -6 23.5t-9.5 33.5t-154.5 372zM455 661q0 -21 -13 -34l-133 -136l-21 5l97 181q11 20 37 20q33 0 33 -36z" />
    <glyph glyph-name="thorn" unicode="&#xfe;" horiz-adv-x="549" 
d="M540 260q0 -46 -29 -107t-54 -77l-113 -71q-26 -18 -80 -18t-92 26l-1 -186q0 -19 5 -74h76v-27h-245v27h77q5 55 5 74v824q-37 -8 -79 -11v27q81 9 153 41l9 -3v-341h1l78 70q25 25 98 25t132 -56t59 -143zM309 38q61 0 104.5 55t43.5 132.5t-39.5 124t-113.5 46.5
q-87 0 -127 -76q-5 -10 -5 -26v-198q49 -58 137 -58z" />
    <glyph glyph-name="ydieresis" unicode="&#xff;" 
d="M69 407q-9 23 -35 23h-31v27h231v-27h-47q-26 0 -26 -19q0 -5 3 -11l119 -310l118 297q6 15 6 27q0 16 -17 16h-50v27h182v-27h-26q-28 0 -46 -43l-167 -386q-15 -48 -31 -87q-40 -95 -72 -124.5t-49 -35.5t-37.5 -6t-40 10t-13.5 35q4 35 48 32q11 -4 29 -7.5t27.5 0
t29.5 23.5q29 34 39 64q17 36 26 73q-1 8 -6 23.5t-9.5 33.5t-154.5 372zM418 573q0 -49 -48.5 -49t-48.5 49t48.5 49t48.5 -49zM223 573q0 -49 -49 -49t-49 49t49 49t49 -49z" />
    <glyph glyph-name="Amacron" unicode="&#x100;" horiz-adv-x="748" 
d="M725 31v-31h-260v31h80l-68 197h-241l-38 -90q-18 -46 -18 -67.5t6 -30.5t63 -9v-31h-218v31q52 -1 75.5 13.5t51.5 93.5l217 570h40l236 -677h74zM250 266h213l-99 293zM546 794v-50h-316v50h316z" />
    <glyph glyph-name="amacron" unicode="&#x101;" horiz-adv-x="500" 
d="M480 28v-28h-160v82q-89 -94 -168 -94q-53 0 -85 31q-35 31 -35 88q0 79 61 118q46 28 129 43l98 17q2 71 -12 104q-20 47 -69 47q-85 0 -86 -57q0 -10 11.5 -23.5t11.5 -14.5q1 -15 -14.5 -25t-28.5 -7q-50 0 -49 55.5t69 83.5q42 16 89 16q79 0 118 -44q39 -48 39 -152
v-218q0 -10 7 -16t16 -6h58zM320 122v130q-87 -11 -143 -33q-26 -10 -43 -37t-17 -59t22.5 -54t54 -23.5t67 21t59.5 55.5zM419 664v-58h-350v58h350z" />
    <glyph glyph-name="Abreve" unicode="&#x102;" horiz-adv-x="748" 
d="M725 31v-31h-260v31h80l-68 197h-241l-38 -90q-18 -46 -18 -67.5t6 -30.5t63 -9v-31h-218v31q52 -1 75.5 13.5t51.5 93.5l217 570h40l236 -677h74zM250 266h213l-99 293zM528 901l3 -3q0 -66 -40.5 -110t-107 -44t-107.5 42.5t-41 111.5l3 3h26q20 -93 121 -93t117 93h26
z" />
    <glyph glyph-name="abreve" unicode="&#x103;" horiz-adv-x="500" 
d="M480 28v-28h-160v82q-89 -94 -168 -94q-53 0 -85 31q-35 31 -35 88q0 79 61 118q46 28 129 43l98 17q2 71 -12 104q-20 47 -69 47q-85 0 -86 -57q0 -10 11.5 -23.5t11.5 -14.5q1 -15 -14.5 -25t-28.5 -7q-50 0 -49 55.5t69 83.5q42 16 89 16q79 0 118 -44q39 -48 39 -152
v-218q0 -10 7 -16t16 -6h58zM320 122v130q-87 -11 -143 -33q-26 -10 -43 -37t-17 -59t22.5 -54t54 -23.5t67 21t59.5 55.5zM379 659q4 -133 -131 -133q-133 0 -132 133q4 4 10 4t9 -4q18 -80 113 -80t113 80q3 4 9 4t9 -4z" />
    <glyph glyph-name="Aogonek" unicode="&#x104;" horiz-adv-x="747" 
d="M698 -132q-21 -26 -59.5 -46t-73.5 -20t-55.5 23.5t-20.5 53.5q0 61 80 121h-104v31h80l-68 197h-241l-38 -90q-18 -46 -18 -67.5t6 -30.5t63 -9v-31h-218v31q52 -1 75.5 13.5t51.5 93.5l217 570h40l236 -677h74v-31h-119q-54 -63 -54 -106q0 -38 44 -38q35 0 87 32
q16 -20 15 -20zM250 266h213l-99 293z" />
    <glyph glyph-name="aogonek" unicode="&#x105;" horiz-adv-x="490" 
d="M480 0h-78q-54 -63 -54 -106q0 -38 44 -38q34 0 87 32q16 -20 15 -20q-21 -25 -60.5 -45.5t-73.5 -20.5t-54.5 23.5t-20.5 53.5q0 61 80 121h-45v82q-89 -94 -168 -94q-53 0 -85 31q-35 31 -35 88q0 79 61 118q46 28 129 43l98 17q2 71 -12 104q-20 47 -69 47
q-85 0 -86 -57q0 -10 11.5 -23.5t11.5 -14.5q1 -15 -14.5 -25t-28.5 -7q-50 0 -49 55.5t69 83.5q42 16 89 16q79 0 118 -44q39 -48 39 -152v-218q0 -10 7 -16t16 -6h58v-28zM320 122v130q-87 -11 -143 -33q-26 -10 -43 -37t-17 -59t22.5 -54t54 -23.5t67 21t59.5 55.5z" />
    <glyph glyph-name="Cacute" unicode="&#x106;" horiz-adv-x="608" 
d="M585 128l14 -16q-53 -74 -113 -101t-147 -27q-128 0 -218 105q-90 107 -88.5 262.5t89.5 254t217 98.5q82 0 119 -7.5t89 -27.5v-157h-30q-7 88 -47 127.5t-128 35.5q-194 -9 -194 -331q0 -142 50 -233q52 -90 136 -91.5t138 24t113 84.5zM483 911q0 -21 -13 -34
l-133 -136l-21 5l97 181q11 20 37 20q33 0 33 -36z" />
    <glyph glyph-name="cacute" unicode="&#x107;" horiz-adv-x="432" 
d="M111 254q0 -108 53 -161t128 -53q51 0 100 28l10 -14q-60 -63 -153.5 -63t-156.5 57q-66 63 -66 165.5t74 179.5q77 75 184 71q62 -4 90 -30.5t26.5 -54t-18.5 -41.5t-36 -14t-35 8.5t-13 19.5t19 19q18 11 15 23q-3 34 -69 34q-45 0 -92 -39q-60 -49 -60 -135zM364 670
q0 -21 -13 -34l-133 -136l-21 5l97 181q11 20 37 20q33 0 33 -36z" />
    <glyph glyph-name="Ccircumflex" unicode="&#x108;" horiz-adv-x="608" 
d="M585 128l14 -16q-53 -74 -113 -101t-147 -27q-128 0 -218 105q-90 107 -88.5 262.5t89.5 254t217 98.5q82 0 119 -7.5t89 -27.5v-157h-30q-7 88 -47 127.5t-128 35.5q-194 -9 -194 -331q0 -142 50 -233q52 -90 136 -91.5t138 24t113 84.5zM372 903l122 -164h-34l-119 101
l-117 -101h-35l122 164h61z" />
    <glyph glyph-name="ccircumflex" unicode="&#x109;" horiz-adv-x="432" 
d="M111 254q0 -108 53 -161t128 -53q51 0 100 28l10 -14q-60 -63 -153.5 -63t-156.5 57q-66 63 -66 165.5t74 179.5q77 75 184 71q62 -4 90 -30.5t26.5 -54t-18.5 -41.5t-36 -14t-35 8.5t-13 19.5t19 19q18 11 15 23q-3 34 -69 34q-45 0 -92 -39q-60 -49 -60 -135zM272 693
l122 -164h-34l-119 101l-117 -101h-35l122 164h61z" />
    <glyph glyph-name="Cdotaccent" unicode="&#x10a;" horiz-adv-x="608" 
d="M585 128l14 -16q-53 -74 -113 -101t-147 -27q-128 0 -218 105q-90 107 -88.5 262.5t89.5 254t217 98.5q82 0 119 -7.5t89 -27.5v-157h-30q-7 88 -47 127.5t-128 35.5q-194 -9 -194 -331q0 -142 50 -233q52 -90 136 -91.5t138 24t113 84.5zM386 755q-16 -16 -38.5 -16
t-38.5 16t-16 38.5t16 38.5t38.5 16t38.5 -16t16 -38.5t-16 -38.5z" />
    <glyph glyph-name="cdotaccent" unicode="&#x10b;" horiz-adv-x="432" 
d="M111 254q0 -108 53 -161t128 -53q51 0 100 28l10 -14q-60 -63 -153.5 -63t-156.5 57q-66 63 -66 165.5t74 179.5q77 75 184 71q62 -4 90 -30.5t26.5 -54t-18.5 -41.5t-36 -14t-35 8.5t-13 19.5t19 19q18 11 15 23q-3 34 -69 34q-45 0 -92 -39q-60 -49 -60 -135zM306 577
q0 -49 -45 -49t-47 45q-1 21 12 34.5t33.5 13.5t33.5 -13t13 -31z" />
    <glyph glyph-name="Ccaron" unicode="&#x10c;" horiz-adv-x="608" 
d="M599 115l-14 16q-59 -59 -113 -84t-138 -24t-136 91q-50 91 -50 233q0 322 194 331q88 4 128 -35.5t47 -127.5h30v157q-52 20 -89 27.5t-119 7.5q-129 0 -217 -98.5t-89.5 -254t88.5 -262.5q90 -105 218 -105q87 0 147 27t113 101zM497 902l-122 -163h-60l-122 163h34
l117 -100l119 100h34z" />
    <glyph glyph-name="ccaron" unicode="&#x10d;" horiz-adv-x="432" 
d="M111 254q0 86 60 135q47 39 92 39q66 0 69 -34q3 -12 -15 -23q-16 -8 -19 -19t13 -19.5t35 -8.5t36 14t18.5 41.5t-26.5 54t-90 30.5q-107 4 -184 -71q-74 -77 -74 -179.5t66 -165.5q63 -57 156.5 -57t153.5 63l-10 14q-49 -28 -100 -28q-75 0 -128 53t-53 161zM392 692
l-122 -163h-60l-122 163h34l117 -100l119 100h34z" />
    <glyph glyph-name="Dcaron" unicode="&#x10e;" horiz-adv-x="754" 
d="M691 336q0 160 -81 253.5t-222 95.5q-117 1 -186 0t-158 4v-31h94v-627h-94v-31q159 4 341 -2q121 -4 213.5 97t92.5 241zM546 554q38 -74 39.5 -211.5t-47.5 -215.5q-49 -85 -152 -100q-22 -2 -57 -2t-102 6v623q71 9 161 4q111 -9 158 -104zM481 906l-122 -163h-60
l-122 163h34l117 -100l119 100h34z" />
    <glyph glyph-name="dcaron" unicode="&#x10f;" horiz-adv-x="605" 
d="M588 27v-27h-165l4 88q-18 -37 -60 -65q-49 -36 -113 -36q-100 0 -153 68.5t-53 177t74 179.5t182 67q42 -5 78 -20q32 -17 42 -35v216q-1 35 -36 35h-47v28h165v-652q2 -24 22 -24h60zM424 231v127q-11 34 -51 59t-92.5 25t-92.5 -42q-47 -51 -54 -151q-6 -77 37 -137
q46 -67 118 -67t107 61q28 49 28 125zM694 720q39 0 61 -32.5t22 -72t-39 -87.5q-36 -47 -79 -64l-11 22q27 10 57 45t30 62q0 16 -15 16l-34 -3q-55 7 -55 50q0 64 63 64z" />
    <glyph glyph-name="Dmacron" unicode="&#x110;" horiz-adv-x="754" 
d="M691 336q0 -140 -92.5 -241t-213.5 -97q-182 6 -341 2v31h94v296h-92v34h92v297h-94v31q89 -5 158 -4t186 0q141 -2 222 -95.5t81 -253.5zM538 127q49 78 47.5 215.5t-39.5 211.5q-47 95 -158 104q-90 5 -161 -4v-293h149v-34h-149v-296q68 -6 102.5 -6t56.5 2
q103 15 152 100z" />
    <glyph glyph-name="dcroat" unicode="&#x111;" horiz-adv-x="619" 
d="M591 543h-85v-492q2 -24 22 -24h60v-27h-165l4 88q-18 -37 -60 -65q-49 -36 -113 -36q-100 0 -153 68.5t-53 177t74 179.5t182 67q42 -5 78 -20q32 -17 42 -35v119h-93v32h93v65q-1 35 -36 35h-47v28h165v-128h85v-32zM424 231v127q-11 34 -51 59t-92.5 25t-92.5 -42
q-47 -51 -54 -151q-6 -77 37 -137q46 -67 118 -67t107 61q28 49 28 125z" />
    <glyph glyph-name="Emacron" unicode="&#x112;" horiz-adv-x="698" 
d="M611 239h32l-11 -239h-581v31h94v627h-94v31h565l2 -203h-31q-7 87 -48 127.5t-134 42.5l-171 2v-290h122q43 0 64 25q23 32 23 93h31v-277h-31q0 59 -24.5 92t-62.5 33h-122v-303l187 3q28 0 67.5 15t58.5 34q60 56 64 156zM501 788v-50h-316v50h316z" />
    <glyph glyph-name="emacron" unicode="&#x113;" horiz-adv-x="465" 
d="M431 232h-318q0 -88 44 -137q45 -53 132 -53q46 0 119 46l13 -10q-71 -87 -176 -87t-165 63q-56 61 -56 162t60.5 174.5t162.5 73.5q84 0 135 -56.5t51 -138.5q0 -11 -2 -37zM345 268q0 72 -26.5 118t-79.5 46t-89 -43t-36 -119q187 -5 231 -2zM418 656v-58h-350v58h350z
" />
    <glyph glyph-name="Ebreve" unicode="&#x114;" horiz-adv-x="698" 
d="M611 239h32l-11 -239h-581v31h94v627h-94v31h565l2 -203h-31q-7 87 -48 127.5t-134 42.5l-171 2v-290h122q43 0 64 25q23 32 23 93h31v-277h-31q0 59 -24.5 92t-62.5 33h-122v-303l187 3q28 0 67.5 15t58.5 34q60 56 64 156zM505 898l3 -3q0 -66 -40.5 -110t-107 -44
t-107.5 42.5t-41 111.5l3 3h26q19 -93 120 -93t118 93h26z" />
    <glyph glyph-name="ebreve" unicode="&#x115;" horiz-adv-x="465" 
d="M431 232h-318q0 -88 44 -137q45 -53 132 -53q46 0 119 46l13 -10q-71 -87 -176 -87t-165 63q-56 61 -56 162t60.5 174.5t162.5 73.5q84 0 135 -56.5t51 -138.5q0 -11 -2 -37zM345 268q0 72 -26.5 118t-79.5 46t-89 -43t-36 -119q187 -5 231 -2zM377 657q4 -133 -131 -133
q-133 0 -132 133q4 4 10 4t9 -4q18 -80 113 -80t113 80q3 4 9 4t9 -4z" />
    <glyph glyph-name="Edotaccent" unicode="&#x116;" horiz-adv-x="698" 
d="M611 239h32l-11 -239h-581v31h94v627h-94v31h565l2 -203h-31q-7 87 -48 127.5t-134 42.5l-171 2v-290h122q43 0 64 25q23 32 23 93h31v-277h-31q0 59 -24.5 92t-62.5 33h-122v-303l187 3q28 0 67.5 15t58.5 34q60 56 64 156zM400 764q-16 -16 -38.5 -16t-38.5 16
t-16 38.5t16 38.5t38.5 16t38.5 -16t16 -38.5t-16 -38.5z" />
    <glyph glyph-name="edotaccent" unicode="&#x117;" horiz-adv-x="465" 
d="M431 232h-318q0 -88 44 -137q45 -53 132 -53q46 0 119 46l13 -10q-71 -87 -176 -87t-165 63q-56 61 -56 162t60.5 174.5t162.5 73.5q84 0 135 -56.5t51 -138.5q0 -11 -2 -37zM345 268q0 72 -26.5 118t-79.5 46t-89 -43t-36 -119q187 -5 231 -2zM284 574q0 -49 -45 -49
t-47 45q-1 21 12 34.5t33.5 13.5t33.5 -13t13 -31z" />
    <glyph glyph-name="Eogonek" unicode="&#x118;" horiz-adv-x="698" 
d="M357 -144q34 0 86 32q18 -20 15 -20q-19 -25 -58.5 -45.5t-75.5 -20.5t-54.5 24.5t-18.5 51.5q0 59 77 122h-277v31h94v627h-94v31h565l2 -203h-31q-7 87 -48 127.5t-134 42.5l-171 2v-290h122q43 0 64 25q23 32 23 93h31v-277h-31q0 59 -24.5 92t-62.5 33h-122v-303
l187 3q28 0 67.5 15t58.5 34q60 56 64 156h32l-11 -239h-265q-55 -62 -55 -106q0 -38 45 -38z" />
    <glyph glyph-name="eogonek" unicode="&#x119;" horiz-adv-x="470" 
d="M266 -8q-47 -59 -47 -97.5t44 -38.5q35 0 87 32q16 -20 15 -20q-21 -26 -60 -46t-73.5 -20t-55 23.5t-20.5 53.5q0 56 71 112q-92 4 -147.5 64t-55.5 161t60.5 174.5t162.5 73.5q84 0 135 -56.5t51 -138.5q0 -11 -2 -37h-318q0 -88 44 -137q45 -53 132 -53q46 0 119 46
l13 -10q-64 -79 -155 -86zM345 268q0 72 -26.5 118t-79.5 46t-89 -43t-36 -119q187 -5 231 -2z" />
    <glyph glyph-name="Ecaron" unicode="&#x11a;" horiz-adv-x="698" 
d="M643 239h-32q-4 -100 -64 -156q-19 -19 -58.5 -34t-67.5 -15l-187 -3v303h122q38 0 62.5 -33t24.5 -92h31v277h-31q0 -61 -23 -93q-21 -25 -64 -25h-122v290l171 -2q93 -2 134 -42.5t48 -127.5h31l-2 203h-565v-31h94v-627h-94v-31h581zM512 903l-122 -163h-60l-122 163
h34l117 -100l119 100h34z" />
    <glyph glyph-name="ecaron" unicode="&#x11b;" horiz-adv-x="465" 
d="M431 232q2 26 2 37q0 82 -51 138.5t-135 56.5q-102 0 -162.5 -73.5t-60.5 -174.5t56 -162q60 -63 165 -63t176 87l-13 10q-73 -46 -119 -46q-87 0 -132 53q-44 49 -44 137h318zM345 268q-44 -3 -231 2q0 76 36 119t89 43t79.5 -46t26.5 -118zM390 685l-122 -163h-60
l-122 163h34l117 -100l119 100h34z" />
    <glyph glyph-name="Gcircumflex" unicode="&#x11c;" horiz-adv-x="695" 
d="M647 271v-32h-34v-204q-21 -6 -59 -18.5t-45 -14.5q-66 -16 -149 -16q-125 0 -218 104q-88 106 -87 260.5t90 256.5q88 97 215 97q86 0 135 -12q20 -4 74 -25v-157h-30q-7 87 -48 127t-126 36q-195 -12 -195 -328q0 -143 51 -232.5t136 -90.5q50 -1 109 22q52 18 57 36
q5 10 5 40v119h-113v32h232zM394 919l138 -173l-3 -5h-31l-128 114l-128 -114h-31l-4 5l141 173h46z" />
    <glyph glyph-name="gcircumflex" unicode="&#x11d;" horiz-adv-x="543" 
d="M353 464h161l-20 -53l-115 10q47 -44 48 -101q2 -45 -24 -88t-67 -64q-52 -29 -103 -29q-16 0 -28 4l-28 -24q-17 -17 -17 -31q0 -23 26 -32q12 -4 48 -6l156 -12q115 -8 115 -111q0 -79 -71.5 -138t-192.5 -59q-90 0 -150 42q-60 40 -60 99.5t41 89.5q27 23 71 29
q-63 16 -63 57q0 31 36 64q14 12 53 36q-30 1 -71 38t-42 93q-3 87 59 136.5t154 50.5q53 0 84 -1zM317.5 206.5q28.5 32.5 27 89t-25.5 89.5q-29 45 -80.5 45t-77.5 -36t-26 -93.5t30.5 -92t77 -34.5t75 32.5zM292 -31l-104 9q-27 -1 -52 -25q-30 -25 -30 -66
q0 -62 39.5 -93.5t111 -31.5t121.5 36t50 95q0 41 -34 56q-27 13 -102 20zM290 696l122 -164h-34l-119 101l-117 -101h-35l122 164h61z" />
    <glyph glyph-name="Gbreve" unicode="&#x11e;" horiz-adv-x="695" 
d="M647 271v-32h-34v-204q-21 -6 -59 -18.5t-45 -14.5q-66 -16 -149 -16q-125 0 -218 104q-88 106 -87 260.5t90 256.5q88 97 215 97q86 0 135 -12q20 -4 74 -25v-157h-30q-7 87 -48 127t-126 36q-195 -12 -195 -328q0 -143 51 -232.5t136 -90.5q50 -1 109 22q52 18 57 36
q5 10 5 40v119h-113v32h232zM520 900l3 -3q0 -66 -40.5 -110t-107 -44t-107.5 42.5t-41 111.5l3 3h26q20 -93 121 -93t117 93h26z" />
    <glyph glyph-name="gbreve" unicode="&#x11f;" horiz-adv-x="543" 
d="M353 464h161l-20 -53l-115 10q47 -44 48 -101q2 -45 -24 -88t-67 -64q-52 -29 -103 -29q-16 0 -28 4l-28 -24q-17 -17 -17 -31q0 -23 26 -32q12 -4 48 -6l156 -12q115 -8 115 -111q0 -79 -71.5 -138t-192.5 -59q-90 0 -150 42q-60 40 -60 99.5t41 89.5q27 23 71 29
q-63 16 -63 57q0 31 36 64q14 12 53 36q-30 1 -71 38t-42 93q-3 87 59 136.5t154 50.5q53 0 84 -1zM317.5 206.5q28.5 32.5 27 89t-25.5 89.5q-29 45 -80.5 45t-77.5 -36t-26 -93.5t30.5 -92t77 -34.5t75 32.5zM292 -31l-104 9q-27 -1 -52 -25q-30 -25 -30 -66
q0 -62 39.5 -93.5t111 -31.5t121.5 36t50 95q0 41 -34 56q-27 13 -102 20zM374 660q4 -133 -131 -133q-133 0 -132 133q4 4 10 4t9 -4q18 -80 113 -80t113 80q3 4 9 4t9 -4z" />
    <glyph glyph-name="Gdotaccent" unicode="&#x120;" horiz-adv-x="695" 
d="M647 271v-32h-34v-204q-21 -6 -59 -18.5t-45 -14.5q-66 -16 -149 -16q-125 0 -218 104q-88 106 -87 260.5t90 256.5q88 97 215 97q86 0 135 -12q20 -4 74 -25v-157h-30q-7 87 -48 127t-126 36q-195 -12 -195 -328q0 -143 51 -232.5t136 -90.5q50 -1 109 22q52 18 57 36
q5 10 5 40v119h-113v32h232zM417 754q-16 -16 -38.5 -16t-38.5 16t-16 38.5t16 38.5t38.5 16t38.5 -16t16 -38.5t-16 -38.5z" />
    <glyph glyph-name="gdotaccent" unicode="&#x121;" horiz-adv-x="543" 
d="M353 464h161l-20 -53l-115 10q47 -44 48 -101q2 -45 -24 -88t-67 -64q-52 -29 -103 -29q-16 0 -28 4l-28 -24q-17 -17 -17 -31q0 -23 26 -32q12 -4 48 -6l156 -12q115 -8 115 -111q0 -79 -71.5 -138t-192.5 -59q-90 0 -150 42q-60 40 -60 99.5t41 89.5q27 23 71 29
q-63 16 -63 57q0 31 36 64q14 12 53 36q-30 1 -71 38t-42 93q-3 87 59 136.5t154 50.5q53 0 84 -1zM317.5 206.5q28.5 32.5 27 89t-25.5 89.5q-29 45 -80.5 45t-77.5 -36t-26 -93.5t30.5 -92t77 -34.5t75 32.5zM292 -31l-104 9q-27 -1 -52 -25q-30 -25 -30 -66
q0 -62 39.5 -93.5t111 -31.5t121.5 36t50 95q0 41 -34 56q-27 13 -102 20zM290 570q0 -49 -45 -49t-47 45q-1 21 12 34.5t33.5 13.5t33.5 -13t13 -31z" />
    <glyph glyph-name="Gcommaaccent" unicode="&#x122;" horiz-adv-x="695" 
d="M647 271v-32h-34v-204q-21 -6 -59 -18.5t-45 -14.5q-66 -16 -149 -16q-125 0 -218 104q-88 106 -87 260.5t90 256.5q88 97 215 97q86 0 135 -12q20 -4 74 -25v-157h-30q-7 87 -48 127t-126 36q-195 -12 -195 -328q0 -143 51 -232.5t136 -90.5q50 -1 109 22q52 18 57 36
q5 10 5 40v119h-113v32h232zM358 -274l-5 21q86 14 86 63q0 14 -20 16q-65 2 -65 60q0 25 17 40.5t44 15.5q68 0 68 -80q0 -124 -125 -136z" />
    <glyph glyph-name="gcommaaccent" unicode="&#x123;" horiz-adv-x="543" 
d="M353 464h161l-20 -53l-115 10q47 -44 48 -101q2 -45 -24 -88t-67 -64q-52 -29 -103 -29q-16 0 -28 4l-28 -24q-17 -17 -17 -31q0 -23 26 -32q12 -4 48 -6l156 -12q115 -8 115 -111q0 -79 -71.5 -138t-192.5 -59q-90 0 -150 42q-60 40 -60 99.5t41 89.5q27 23 71 29
q-63 16 -63 57q0 31 36 64q14 12 53 36q-30 1 -71 38t-42 93q-3 87 59 136.5t154 50.5q53 0 84 -1zM317.5 206.5q28.5 32.5 27 89t-25.5 89.5q-29 45 -80.5 45t-77.5 -36t-26 -93.5t30.5 -92t77 -34.5t75 32.5zM292 -31l-104 9q-27 -1 -52 -25q-30 -25 -30 -66
q0 -62 39.5 -93.5t111 -31.5t121.5 36t50 95q0 41 -34 56q-27 13 -102 20zM304 713l5 -17q-77 -12 -77 -57q0 -15 16 -15q59 -2 59 -53q0 -23 -15 -36.5t-41.5 -13.5t-43 20t-16.5 51q0 110 113 121z" />
    <glyph glyph-name="Hcircumflex" unicode="&#x124;" horiz-adv-x="758" 
d="M718 31v-31h-278v31h94v314h-307v-314h93v-31h-276v31h94v627h-94v31h276v-31h-93v-278h307v278h-94v31h278v-31h-93v-627h93zM408 902l122 -164h-34l-119 101l-117 -101h-35l122 164h61z" />
    <glyph glyph-name="hcircumflex" unicode="&#x125;" horiz-adv-x="602" 
d="M589 28v-28h-248v28h59q20 0 23 23q-1 42 -1 230q0 61 -32 98.5t-77.5 37.5t-89.5 -44q-38 -40 -38 -60v-262q3 -23 23 -23h60v-28h-249v28h59q19 0 24 23l-2 590q-1 34 -34 34h-48v28h166v-325q54 99 157 99q167 0 164 -182q-1 -62 2 -244q3 -23 23 -23h59zM181 905
l122 -164h-34l-119 101l-117 -101h-35l122 164h61z" />
    <glyph glyph-name="Hbar" unicode="&#x126;" horiz-adv-x="758" 
d="M534 492h-307v-112h307v112zM718 31v-31h-278v31h94v314h-307v-314h93v-31h-276v31h94v461h-90v38h90v128h-94v31h276v-31h-93v-128h307v128h-94v31h278v-31h-93v-128h91v-38h-91v-461h93z" />
    <glyph glyph-name="hbar" unicode="&#x127;" horiz-adv-x="576" 
d="M283 530h-99v-152q54 99 157 99q167 0 164 -182q-1 -62 2 -244q3 -23 23 -23h59v-28h-248v28h59q20 0 23 23q-1 42 -1 230q0 61 -32 98.5t-77.5 37.5t-89.5 -44q-38 -40 -38 -60v-262q3 -23 23 -23h60v-28h-249v28h59q19 0 24 23l-2 479h-77v43h77v68q-1 34 -34 34h-48
v28h166v-130h99v-43z" />
    <glyph glyph-name="Itilde" unicode="&#x128;" horiz-adv-x="433" 
d="M358 31v-31h-286v31h94v627h-94v31h286v-31h-93v-627h93zM385 857l3 -3q-9 -40 -38 -73t-64 -33t-86 24t-67 24q-43 0 -59 -48h-22l-3 3q6 42 36 74t64 32t85 -24t70 -24q40 0 59 48h22z" />
    <glyph glyph-name="itilde" unicode="&#x129;" horiz-adv-x="266" 
d="M188 456v-406q3 -23 22 -23h58v-27h-242v27h58q19 0 22 23v356q-3 23 -22 23h-58v27h162zM275 629h28q0 -39 -31.5 -70.5t-65 -31.5t-82 22t-61.5 22q-34 0 -51 -44h-28q16 96 106 96q20 0 72 -23q45 -22 63.5 -20t29 13t20.5 36z" />
    <glyph glyph-name="Imacron" unicode="&#x12a;" horiz-adv-x="398" 
d="M344 31v-31h-286v31h94v627h-94v31h286v-31h-93v-627h93zM358 795v-50h-316v50h316z" />
    <glyph glyph-name="imacron" unicode="&#x12b;" horiz-adv-x="313" 
d="M207 456v-406q3 -23 22 -23h58v-27h-242v27h58q19 0 22 23v356q-3 23 -22 23h-58v27h162zM329 660v-58h-350v58h350z" />
    <glyph glyph-name="Ibreve" unicode="&#x12c;" horiz-adv-x="394" 
d="M349 31v-31h-286v31h94v627h-94v31h286v-31h-93v-627h93zM342 900l3 -3q0 -66 -40.5 -110t-107 -44t-107.5 42.5t-41 111.5l3 3h26q20 -93 121 -93t117 93h26z" />
    <glyph glyph-name="ibreve" unicode="&#x12d;" horiz-adv-x="297" 
d="M196 456v-406q3 -23 22 -23h58v-27h-242v27h58q19 0 22 23v356q-3 23 -22 23h-58v27h162zM270 658q4 -133 -131 -133q-133 0 -132 133q4 4 10 4t9 -4q18 -80 113 -80t113 80q3 4 9 4t9 -4z" />
    <glyph glyph-name="Iogonek" unicode="&#x12e;" horiz-adv-x="380" 
d="M210 -144q34 0 86 32q18 -20 15 -20q-19 -25 -58.5 -45.5t-75 -20.5t-54.5 23.5t-19 53.5q0 61 78 121h-133v31h94v627h-94v31h286v-31h-93v-627h93v-31h-116q-54 -62 -54 -106q0 -38 45 -38z" />
    <glyph glyph-name="iogonek" unicode="&#x12f;" horiz-adv-x="287" 
d="M269 0h-96q-53 -62 -53 -106q0 -38 44 -38q34 0 87 32q16 -20 15 -20q-22 -26 -61 -46t-73 -20t-54 23.5t-20 53.5q0 61 79 121h-110v27h58q22 0 22 23v356q-3 23 -22 23h-58v27h162v-406q0 -23 22 -23h58v-27zM181.5 651q15.5 -15 16 -37.5t-16.5 -38.5t-38 -16
t-37.5 16t-16.5 36.5t16.5 37.5t38.5 17t37.5 -15z" />
    <glyph glyph-name="Idotaccent" unicode="&#x130;" horiz-adv-x="380" 
d="M335 31v-31h-286v31h94v627h-94v31h286v-31h-93v-627h93zM230 758q-16 -16 -38.5 -16t-38.5 16t-16 38.5t16 38.5t38.5 16t38.5 -16t16 -38.5t-16 -38.5z" />
    <glyph glyph-name="dotlessi" unicode="&#x131;" horiz-adv-x="287" 
d="M189 456v-406q3 -23 22 -23h58v-27h-242v27h58q19 0 22 23v356q-3 23 -22 23h-58v27h162z" />
    <glyph glyph-name="IJ" unicode="&#x132;" horiz-adv-x="625" 
d="M425 658h-183v-627h93v-31h-286v31h94v627h-94v31h569v-31h-95v-543q0 -156 -67 -242q-46 -59 -130 -65q-19 -1 -31 13t-12 34q0 31 30 39q8 2 31.5 -13t41.5 -12q23 3 33 34q6 16 6 82v673z" />
    <glyph glyph-name="ij" unicode="&#x133;" horiz-adv-x="475" 
d="M181.5 651q15.5 -15 16 -37.5t-16.5 -38.5t-38 -16t-37.5 16t-16.5 36.5t16.5 37.5t38.5 17t37.5 -15zM189 456v-406q0 -23 22 -23h58v-27h-242v27h58q22 0 22 23v356q-3 23 -22 23h-58v27h162zM400.5 652.5q16.5 -16.5 16.5 -37t-16.5 -37.5t-37.5 -17t-37.5 17
t-16.5 37.5t16.5 37t37.5 16.5t37.5 -16.5zM409 457v-478q0 -88 -39 -158q-49 -83 -142 -98l-1 20q8 -2 36.5 18t38.5 38q28 53 27 192l-1 417q-5 22 -25 22h-58v27h164z" />
    <glyph glyph-name="Jcircumflex" unicode="&#x134;" horiz-adv-x="317" 
d="M309 689v-31h-95v-543q0 -156 -67 -242q-46 -59 -130 -65q-19 -1 -31 13t-12 34q0 31 30 39q8 2 31.5 -13t41.5 -12q23 3 33 34q6 16 6 82v673h-94v31h287zM193 909l122 -164h-34l-119 101l-117 -101h-35l122 164h61z" />
    <glyph glyph-name="jcircumflex" unicode="&#x135;" horiz-adv-x="228" 
d="M139 691l122 -164h-34l-118 101l-118 -101h-34l122 164h60zM171 457v-478q0 -88 -39 -158q-49 -83 -142 -98l-1 20q8 -2 36.5 18t38.5 38q28 53 27 192l-1 417q-5 22 -25 22h-58v27h164z" />
    <glyph glyph-name="Kcommaaccent" unicode="&#x136;" horiz-adv-x="773" 
d="M747 31v-31h-296v31q72 0 72 26q0 15 -10 32l-169 288l-129 -147v-199h93v-31h-277v31h93v627h-93v31h279v-31h-93v-370l269 298q19 19 19 34t-8.5 27t-63.5 11v31h250v-31q-65 0 -90.5 -17t-77.5 -76l-100 -112l211 -366q1 -3 5 -10l6 -11q15 -25 32 -31q9 -4 78 -4z
M312 -274l-5 21q86 14 86 63q0 14 -20 16q-65 2 -65 60q0 25 17 40.5t44 15.5q68 0 68 -80q0 -124 -125 -136z" />
    <glyph glyph-name="kcommaaccent" unicode="&#x137;" horiz-adv-x="578" 
d="M322 27q43 -3 43 15q0 9 -7 16l-177 171l-1 -180q3 -22 22 -22h56v-27h-237v27h57q19 0 22 22v590q-3 22 -22 22h-57v27h160v-439l70 55l98 89q10 7 10 17.5t-16 10.5h-57v26h238v-26l-46 -2q-37 -2 -92 -55l-123 -95q10 -15 61 -66q176 -176 212 -176h34v-27h-248v27z
M234 -259l-4 18q76 18 76 57q0 12 -17 14q-58 3 -58 53q0 23 15.5 36.5t41.5 13.5t42 -19.5t16 -51.5q0 -111 -112 -121z" />
    <glyph glyph-name="Lacute" unicode="&#x139;" horiz-adv-x="645" 
d="M570 239h32l-13 -239h-545v31h94v627h-94v31h277v-31h-94v-627l153 3q27 0 67 15t59 34q60 56 64 156zM339 912q0 -21 -13 -34l-133 -136l-21 5l97 181q11 20 37 20q33 0 33 -36z" />
    <glyph glyph-name="lacute" unicode="&#x13a;" horiz-adv-x="285" 
d="M272 27v-27h-244v27h58q23 0 23 23l-1 577q-1 34 -34 34h-47v27h164v-638q0 -23 23 -23h58zM283 908q0 -21 -13 -34l-133 -136l-21 5l97 181q11 20 37 20q33 0 33 -36z" />
    <glyph glyph-name="Lcommaaccent" unicode="&#x13b;" horiz-adv-x="645" 
d="M570 239h32l-13 -239h-545v31h94v627h-94v31h277v-31h-94v-627l153 3q27 0 67 15t59 34q60 56 64 156zM261 -260l-5 21q86 14 86 63q0 14 -20 16q-65 2 -65 60q0 25 17 40.5t44 15.5q68 0 68 -80q0 -124 -125 -136z" />
    <glyph glyph-name="lcommaaccent" unicode="&#x13c;" horiz-adv-x="285" 
d="M272 27v-27h-244v27h58q23 0 23 23l-1 577q-1 34 -34 34h-47v27h164v-638q0 -23 23 -23h58zM100 -263l-4 18q76 18 76 57q0 12 -17 14q-58 3 -58 53q0 23 15.5 36.5t41.5 13.5t42 -19.5t16 -51.5q0 -111 -112 -121z" />
    <glyph glyph-name="Lcaron" unicode="&#x13d;" horiz-adv-x="645" 
d="M570 239h32l-13 -239h-545v31h94v627h-94v31h277v-31h-94v-627l153 3q27 0 67 15t59 34q60 56 64 156zM567 711q39 0 61 -32.5t22 -72t-39 -87.5q-36 -47 -79 -64l-11 22q27 10 57 45.5t30 61.5q0 16 -15 16l-34 -3q-55 7 -55 50q0 64 63 64z" />
    <glyph glyph-name="lcaron" unicode="&#x13e;" horiz-adv-x="285" 
d="M272 27v-27h-244v27h58q23 0 23 23l-1 577q-1 34 -34 34h-47v27h164v-638q0 -23 23 -23h58zM391 717q39 0 61 -32.5t22 -72t-39 -87.5q-36 -47 -79 -64l-11 22q27 10 57 45.5t30 61.5q0 16 -15 16l-34 -3q-55 7 -55 50q0 64 63 64z" />
    <glyph glyph-name="Ldot" unicode="&#x13f;" horiz-adv-x="645" 
d="M570 239h32l-13 -239h-545v31h94v627h-94v31h277v-31h-94v-627l153 3q27 0 67 15t59 34q60 56 64 156zM469 366q-16 -16 -38.5 -16t-38.5 16t-16 38.5t16 38.5t38.5 16t38.5 -16t16 -38.5t-16 -38.5z" />
    <glyph glyph-name="ldot" unicode="&#x140;" horiz-adv-x="285" 
d="M272 27v-27h-244v27h58q23 0 23 23l-1 577q-1 34 -34 34h-47v27h164v-638q0 -23 23 -23h58zM367 350q0 -49 -45.5 -49t-46.5 45q-1 21 12 34.5t33.5 13.5t33.5 -13t13 -31z" />
    <glyph glyph-name="Lslash" unicode="&#x141;" horiz-adv-x="678" 
d="M601 239h32l-13 -239h-545v31h94v262l-107 -65l-18 29l125 75v326h-94v31h277v-31h-94v-272l135 83l20 -29l-155 -93v-316l152 3q28 0 67.5 15t59.5 34q60 56 64 156z" />
    <glyph glyph-name="lslash" unicode="&#x142;" horiz-adv-x="285" 
d="M272 26v-26h-245v26h77q4 44 4 74v245l-99 -58l-6 1l-12 24l1 6l116 67v272q-34 -7 -80 -12v29q96 14 154 35l8 -8v-268l96 56l6 -1l15 -25l-3 -5l-114 -66v-292q0 -24 6 -74h76z" />
    <glyph glyph-name="Nacute" unicode="&#x143;" horiz-adv-x="733" 
d="M708 689v-31q-58 0 -68 -10q-26 -26 -26 -77l2 -588h-23l-423 652v-518q0 -52 25 -76q10 -10 68 -10v-31h-221v31q56 0 66 9q28 24 28 77v518q-3 23 -30 23h-56v31h200l331 -515v397q0 51 -28 78q-11 9 -66 9v31h221zM525 907q0 -21 -13 -34l-133 -136l-21 5l97 181
q11 20 37 20q33 0 33 -36z" />
    <glyph glyph-name="nacute" unicode="&#x144;" horiz-adv-x="595" 
d="M572 27v-27h-244v27h59q19 0 22 23v237q0 58 -30 90.5t-77 32.5t-87 -31q-38 -32 -38 -60v-269q3 -23 23 -23h58v-27h-244v27h58q20 0 23 23v346q-1 34 -34 34h-47v27h164v-27q-1 -12 -1 -28v-20q8 19 42 48q51 40 111 40q161 0 161 -171v-249q3 -23 23 -23h58zM463 661
q0 -21 -13 -34l-133 -136l-21 5l97 181q11 20 37 20q33 0 33 -36z" />
    <glyph glyph-name="Ncommaaccent" unicode="&#x145;" horiz-adv-x="733" 
d="M708 689v-31q-58 0 -68 -10q-26 -26 -26 -77l2 -588h-23l-423 652v-518q0 -52 25 -76q10 -10 68 -10v-31h-221v31q56 0 66 9q28 24 28 77v518q-3 23 -30 23h-56v31h200l331 -515v397q0 51 -28 78q-11 9 -66 9v31h221zM336 -259l-5 21q86 14 86 63q0 14 -20 16
q-65 2 -65 60q0 25 17 40.5t44 15.5q68 0 68 -80q0 -124 -125 -136z" />
    <glyph glyph-name="ncommaaccent" unicode="&#x146;" horiz-adv-x="595" 
d="M572 27v-27h-244v27h59q19 0 22 23v237q0 58 -30 90.5t-77 32.5t-87 -31q-38 -32 -38 -60v-269q3 -23 23 -23h58v-27h-244v27h58q20 0 23 23v346q-1 34 -34 34h-47v27h164v-27q-1 -12 -1 -28v-20q8 19 42 48q51 40 111 40q161 0 161 -171v-249q3 -23 23 -23h58zM239 -256
l-4 18q76 18 76 57q0 12 -17 14q-58 3 -58 53q0 23 15.5 36.5t41.5 13.5t42 -19.5t16 -51.5q0 -111 -112 -121z" />
    <glyph glyph-name="Ncaron" unicode="&#x147;" horiz-adv-x="733" 
d="M708 658v31h-221v-31q55 0 66 -9q28 -27 28 -78v-397l-331 515h-200v-31h56q27 0 30 -23v-518q0 -53 -28 -77q-10 -9 -66 -9v-31h221v31q-58 0 -68 10q-25 24 -25 76v518l423 -652h23l-2 588q0 51 26 77q10 10 68 10zM511 906l-122 -163h-60l-122 163h34l117 -100
l119 100h34z" />
    <glyph glyph-name="ncaron" unicode="&#x148;" horiz-adv-x="595" 
d="M572 0v27h-58q-20 0 -23 23v249q0 171 -161 171q-60 0 -111 -40q-34 -29 -42 -48v20q0 16 1 28v27h-164v-27h47q33 0 34 -34v-346q-3 -23 -23 -23h-58v-27h244v27h-58q-20 0 -23 23v269q0 28 38 60q40 31 87 31t77 -32.5t30 -90.5v-237q-3 -23 -22 -23h-59v-27h244z
M436 685l-122 -163h-60l-122 163h34l117 -100l119 100h34z" />
    <glyph glyph-name="napostrophe" unicode="&#x149;" horiz-adv-x="595" 
d="M572 27v-27h-244v27h59q19 0 22 23v237q0 58 -30 90.5t-77 32.5t-87 -31q-38 -32 -38 -60v-269q3 -23 23 -23h58v-27h-244v27h58q20 0 23 23v346q-1 34 -34 34h-47v27h164v-27q-1 -12 -1 -28v-20q8 19 42 48q51 40 111 40q161 0 161 -171v-249q3 -23 23 -23h58zM282 750
q39 0 61 -32.5t22 -72t-39 -87.5q-36 -47 -79 -64l-11 22q27 10 57 45.5t30 61.5q0 16 -15 16l-34 -3q-55 7 -55 50q0 64 63 64z" />
    <glyph glyph-name="Eng" unicode="&#x14a;" horiz-adv-x="733" 
d="M708 689v-31q-58 0 -68 -10q-26 -26 -26 -77l3 -587q4 -151 -11 -187q-28 -69 -92 -69q-17 0 -37 4q-38 8 -38 42t24 44q40 -30 68.5 -26t38.5 35q4 12 5 84t-3 91l-402 633v-518q0 -52 25 -76q10 -10 68 -10v-31h-221v31q56 0 66 9q28 24 28 77v518q-3 23 -30 23h-56v31
h200l331 -515v397q0 51 -28 78q-11 9 -66 9v31h221z" />
    <glyph glyph-name="eng" unicode="&#x14b;" horiz-adv-x="527" 
d="M491 299v-231q0 -119 -54.5 -189.5t-127.5 -70.5l-8 31q61 0 85 51t24 189l-1 208q0 58 -30 90.5t-77 32.5t-87 -31q-38 -32 -38 -60v-269q3 -23 23 -23h58v-27h-244v27h58q20 0 23 23v346q-1 34 -34 34h-47v27h164v-27q-1 -12 -1 -28v-20q8 19 42 48q51 40 111 40
q161 0 161 -171z" />
    <glyph glyph-name="Omacron" unicode="&#x14c;" horiz-adv-x="718" 
d="M581 607q82 -98 82 -256.5t-86 -261.5t-214.5 -103t-220.5 105q-90 106 -88 261.5t88.5 255t222 99.5t216.5 -100zM363 21q93 0 141 89t48 236.5t-42 231.5q-50 98 -153.5 98t-151.5 -93q-40 -79 -40 -236q0 -326 198 -326zM513 788v-50h-316v50h316z" />
    <glyph glyph-name="omacron" unicode="&#x14d;" 
d="M442 402q64 -63 64 -166.5t-71 -173.5t-186 -72q-91 -1 -154 63q-60 65 -60 171.5t67 174.5t182 68q95 0 158 -65zM289 22q63 0 94.5 53t31.5 137.5t-43 153.5q-44 68 -109 68q-137 0 -137 -175q0 -93 34 -157q43 -80 129 -80zM458 657v-58h-350v58h350z" />
    <glyph glyph-name="Obreve" unicode="&#x14e;" horiz-adv-x="718" 
d="M581 607q82 -98 82 -256.5t-86 -261.5t-214.5 -103t-220.5 105q-90 106 -88 261.5t88.5 255t222 99.5t216.5 -100zM363 21q93 0 141 89t48 236.5t-42 231.5q-50 98 -153.5 98t-151.5 -93q-40 -79 -40 -236q0 -326 198 -326zM503 897l3 -3q0 -66 -40.5 -110t-107 -44
t-107.5 42.5t-41 111.5l3 3h26q19 -93 120 -93t118 93h26z" />
    <glyph glyph-name="obreve" unicode="&#x14f;" 
d="M442 402q64 -63 64 -166.5t-71 -173.5t-186 -72q-91 -1 -154 63q-60 65 -60 171.5t67 174.5t182 68q95 0 158 -65zM289 22q63 0 94.5 53t31.5 137.5t-43 153.5q-44 68 -109 68q-137 0 -137 -175q0 -93 34 -157q43 -80 129 -80zM403 657q4 -133 -131 -133q-133 0 -132 133
q4 4 10 4t9 -4q18 -80 113 -80t113 80q3 4 9 4t9 -4z" />
    <glyph glyph-name="Ohungarumlaut" unicode="&#x150;" horiz-adv-x="718" 
d="M581 607q82 -98 82 -256.5t-86 -261.5t-214.5 -103t-220.5 105q-90 106 -88 261.5t88.5 255t222 99.5t216.5 -100zM363 21q93 0 141 89t48 236.5t-42 231.5q-50 98 -153.5 98t-151.5 -93q-40 -79 -40 -236q0 -326 198 -326zM414 804l-177 -66l-18 12l165 123q17 14 41 3
q18 -10 18 -30q0 -31 -29 -42zM602 804l-177 -66l-18 12l165 123q17 14 41 3q20 -11 20 -30q0 -32 -31 -42z" />
    <glyph glyph-name="ohungarumlaut" unicode="&#x151;" 
d="M442 402q64 -63 64 -166.5t-71 -173.5t-186 -72q-91 -1 -154 63q-60 65 -60 171.5t67 174.5t182 68q95 0 158 -65zM289 22q63 0 94.5 53t31.5 137.5t-43 153.5q-44 68 -109 68q-137 0 -137 -175q0 -93 34 -157q43 -80 129 -80zM474 689q0 -19 -13 -35l-123 -158l-28 7
l94 202q9 18 36 18q34 0 34 -34zM326 689q0 -19 -12 -35l-124 -155l-27 4l94 202q9 18 36 18q33 0 33 -34z" />
    <glyph glyph-name="OE" unicode="&#x152;" horiz-adv-x="1045" 
d="M575 -2l-206 -12q-127 -3 -217 103.5t-89 262t87.5 252.5t218.5 103q24 0 98 -9t104 -9h384l3 -203h-30q-8 87 -49.5 127.5t-132.5 42.5l-173 2v-290h124q86 0 86 118h31v-277h-31q0 59 -24.5 92t-61.5 33h-124v-303l189 3q27 0 67 15t59 34q60 56 64 156h32l-13 -239z
M484 47v603q-43 27 -115 25q-107 -2 -154 -95q-41 -80 -41 -235t40 -234q46 -93 153 -93q56 0 117 29z" />
    <glyph glyph-name="oe" unicode="&#x153;" horiz-adv-x="825" 
d="M430 66q-75 -75 -173.5 -76t-161.5 63q-60 65 -60 171.5t67 174.5t182 68q94 0 164 -70q62 67 152.5 67t141.5 -56.5t51 -138.5q0 -11 -2 -37h-318q0 -88 44 -137q45 -53 132 -53q46 0 119 46l13 -10q-71 -87 -181 -87t-170 75zM382 78q24 42 24 133t-42 157t-101 66
q-137 0 -137 -175q0 -93 34 -157q42 -78 129 -78q60 0 93 54zM705 268q0 72 -26.5 118t-79.5 46t-89 -43t-36 -119q187 -5 231 -2z" />
    <glyph glyph-name="Racute" unicode="&#x154;" horiz-adv-x="658" 
d="M469 54l-191 273h-61l2 -296h93v-31h-278v31h93v627h-93v31h303q121 0 184 -48t63 -128t-56 -130q-54 -45 -142 -51l205 -278q16 -20 71 -25v-30q-73 3 -231 0l1 32h28q14 3 14 10.5t-5 12.5zM304 356q182 0 178 157q-4 145 -157 145h-106l-2 -302h87zM428 906
q0 -21 -13 -34l-133 -136l-21 5l97 181q11 20 37 20q33 0 33 -36z" />
    <glyph glyph-name="racute" unicode="&#x155;" horiz-adv-x="407" 
d="M107 50v345q-1 34 -34 34h-46v28h164v-92q11 27 41 58q45 45 95 45q30 0 48 -20t18 -48q0 -55 -50 -60q-20 44 -66 44q-33 0 -60 -33t-27 -75v-226q3 -23 23 -23h58v-27h-243v27h56q18 0 23 23zM333 669q0 -21 -13 -34l-133 -136l-21 5l97 181q11 20 37 20q33 0 33 -36z
" />
    <glyph glyph-name="Rcommaaccent" unicode="&#x156;" horiz-adv-x="658" 
d="M469 54l-191 273h-61l2 -296h93v-31h-278v31h93v627h-93v31h303q121 0 184 -48t63 -128t-56 -130q-54 -45 -142 -51l205 -278q16 -20 71 -25v-30q-73 3 -231 0l1 32h28q14 3 14 10.5t-5 12.5zM304 356q182 0 178 157q-4 145 -157 145h-106l-2 -302h87zM306 -259l-5 21
q86 14 86 63q0 14 -20 16q-65 2 -65 60q0 25 17 40.5t44 15.5q68 0 68 -80q0 -124 -125 -136z" />
    <glyph glyph-name="rcommaaccent" unicode="&#x157;" horiz-adv-x="407" 
d="M107 50v345q-1 34 -34 34h-46v28h164v-92q11 27 41 58q45 45 95 45q30 0 48 -20t18 -48q0 -55 -50 -60q-20 44 -66 44q-33 0 -60 -33t-27 -75v-226q3 -23 23 -23h58v-27h-243v27h56q18 0 23 23zM98 -257l-4 18q76 18 76 57q0 12 -17 14q-58 3 -58 53q0 23 15.5 36.5
t41.5 13.5t42 -19.5t16 -51.5q0 -111 -112 -121z" />
    <glyph glyph-name="Rcaron" unicode="&#x158;" horiz-adv-x="658" 
d="M278 327l191 -273q5 -5 5 -12.5t-14 -10.5h-28l-1 -32q158 3 231 0v30q-55 5 -71 25l-205 278q88 6 142 51q56 50 56 130t-63 128t-184 48h-303v-31h93v-627h-93v-31h278v31h-93l-2 296h61zM482 513q4 -157 -178 -157h-87l2 302h106q153 0 157 -145zM456 904l-122 -163
h-60l-122 163h34l117 -100l119 100h34z" />
    <glyph glyph-name="rcaron" unicode="&#x159;" horiz-adv-x="407" 
d="M107 50q-5 -23 -23 -23h-56v-27h243v27h-58q-20 0 -23 23v226q0 42 27 75t60 33q46 0 66 -44q50 5 50 60q0 28 -18 48t-48 20q-50 0 -95 -45q-30 -31 -41 -58v92h-164v-28h46q33 0 34 -34v-345zM373 688l-122 -163h-60l-122 163h34l117 -100l119 100h34z" />
    <glyph glyph-name="Sacute" unicode="&#x15a;" horiz-adv-x="513" 
d="M491 220q0 -116 -93 -177q-80 -53 -201 -53q-73 0 -163 34l1 159h30q6 -79 47 -114q19 -16 56 -27t67 -10q69 1 121 37q51 37 53 99q0 65 -45.5 104t-125.5 48q-213 26 -213 178q0 106 81 161q69 48 168 48q29 0 69 -8.5t51.5 -8.5t15.5 15h28v-179h-30q-7 74 -44.5 107
t-111.5 32q-146 -2 -144 -131q2 -115 160 -131q223 -24 223 -183zM398 908q0 -21 -13 -34l-133 -136l-21 5l97 181q11 20 37 20q33 0 33 -36z" />
    <glyph glyph-name="sacute" unicode="&#x15b;" horiz-adv-x="414" 
d="M391 141q0 -69 -53.5 -111.5t-122 -42.5t-123.5 26q-16 6 -19 -18q-17 3 -23 0v164h29v-29q0 -32 38.5 -69.5t88.5 -36.5t81 21t31 59t-52 61q-71 25 -138 52q-83 34 -83 107t58 110q48 32 125 32q32 0 97 -21v19h27v-133h-29v21q0 36 -33.5 58.5t-85 22.5t-75.5 -27
q-19 -24 -14.5 -53t28.5 -43q11 -8 87.5 -35.5t112.5 -49.5q48 -33 48 -84zM348 661q0 -21 -13 -34l-133 -136l-21 5l97 181q11 20 37 20q33 0 33 -36z" />
    <glyph glyph-name="Scircumflex" unicode="&#x15c;" horiz-adv-x="513" 
d="M491 220q0 -116 -93 -177q-80 -53 -201 -53q-73 0 -163 34l1 159h30q6 -79 47 -114q19 -16 56 -27t67 -10q69 1 121 37q51 37 53 99q0 65 -45.5 104t-125.5 48q-213 26 -213 178q0 106 81 161q69 48 168 48q29 0 69 -8.5t51.5 -8.5t15.5 15h28v-179h-30q-7 74 -44.5 107
t-111.5 32q-146 -2 -144 -131q2 -115 160 -131q223 -24 223 -183zM295 903l122 -164h-34l-119 101l-117 -101h-35l122 164h61z" />
    <glyph glyph-name="scircumflex" unicode="&#x15d;" horiz-adv-x="414" 
d="M391 141q0 -69 -53.5 -111.5t-122 -42.5t-123.5 26q-16 6 -19 -18q-17 3 -23 0v164h29v-29q0 -32 38.5 -69.5t88.5 -36.5t81 21t31 59t-52 61q-71 25 -138 52q-83 34 -83 107t58 110q48 32 125 32q32 0 97 -21v19h27v-133h-29v21q0 36 -33.5 58.5t-85 22.5t-75.5 -27
q-19 -24 -14.5 -53t28.5 -43q11 -8 87.5 -35.5t112.5 -49.5q48 -33 48 -84zM236 690l122 -164h-34l-119 101l-117 -101h-35l122 164h61z" />
    <glyph glyph-name="Scedilla" unicode="&#x15e;" horiz-adv-x="513" 
d="M267 -5l-11 -23q-8 -14 9 -23q44 -32 46 -64q5 -35 -27 -58t-73 -23q-58 0 -58 35q0 25 25 25q10 0 29.5 -14t24.5 -14q13 -2 23 11t5 30q-6 27 -61 49v7l34 58q-12 -1 -36 -1q-73 0 -163 34l1 159h30q6 -79 47 -114q19 -16 56 -27t67 -10q69 1 121 37q51 37 53 99
q0 65 -45.5 104t-125.5 48q-213 26 -213 178q0 106 81 161q69 48 168 48q29 0 69 -8.5t51.5 -8.5t15.5 15h28v-179h-30q-7 74 -44.5 107t-111.5 32q-146 -2 -144 -131q2 -115 160 -131q223 -24 223 -183q0 -116 -93 -177q-55 -36 -131 -48z" />
    <glyph glyph-name="scedilla" unicode="&#x15f;" horiz-adv-x="414" 
d="M200 -13l-9 -15q-8 -14 9 -23q44 -32 46 -64q5 -35 -27 -58t-73 -23q-58 0 -58 35q0 25 25 25q10 0 29.5 -14t24.5 -14q13 -2 23 11t5 30q-6 27 -61 49v7l34 57q-39 6 -76 23q-16 6 -19 -18q-17 3 -23 0v164h29v-29q0 -32 38.5 -69.5t88.5 -36.5t81 21t31 59t-52 61
q-71 25 -138 52q-83 34 -83 107t58 110q48 32 125 32q32 0 97 -21v19h27v-133h-29v21q0 36 -33.5 58.5t-85 22.5t-75.5 -27q-19 -24 -14.5 -53t28.5 -43q11 -8 87.5 -35.5t112.5 -49.5q48 -33 48 -84q0 -69 -53.5 -111.5t-129.5 -42.5h-8z" />
    <glyph glyph-name="Scaron" unicode="&#x160;" horiz-adv-x="513" 
d="M491 242q0 -118 -89 -186.5t-206 -68.5q-90 0 -168 37q10 56 7 150h32l8 -66q4 -30 53.5 -54t112.5 -24t115.5 45t52.5 112t-49 98q-38 25 -138 36.5t-149.5 50t-49.5 115.5q0 105 76.5 163t164.5 58t185 -42q-12 -64 -12 -138h-31l-6 57q-2 21 -10 32t-39.5 30t-95 19
t-103.5 -36q-46 -39 -46 -99.5t34 -88.5q38 -29 127 -40q114 -12 164 -43q60 -39 60 -117zM381 925l-103 -181q0 -2 -36 0l-102 181q5 11 16 11l90 -106q0 -4 11.5 -6.5t16.5 2.5l91 110q11 0 16 -11z" />
    <glyph glyph-name="scaron" unicode="&#x161;" horiz-adv-x="414" 
d="M391 141q0 51 -48 84q-36 22 -112.5 49.5t-87.5 35.5q-24 14 -29 43q-4 29 15 53q24 27 75.5 27t85 -22.5t33.5 -58.5v-21h29v133h-27v-19q-64 21 -97 21q-77 0 -125 -32q-58 -37 -58 -110t83 -107q67 -27 138 -52q52 -22 52 -61t-31 -59t-81 -21t-88.5 36.5t-38.5 69.5
v29h-29v-164q6 3 23 0q3 24 19 18q55 -26 123.5 -26t122 42.5t53.5 111.5zM397 686l-122 -163h-60l-122 163h34l117 -100l119 100h34z" />
    <glyph glyph-name="Tcommaaccent" unicode="&#x162;" horiz-adv-x="668" 
d="M642 689l2 -203h-30q-6 84 -45 124.5t-137 45.5l-46 2v-627h94v-31h-278v31h93v627l-45 -2q-97 -4 -135.5 -42.5t-47.5 -127.5h-29l2 203h602zM272 -259l-5 21q86 14 86 63q0 14 -20 16q-65 2 -65 60q0 25 17 40.5t44 15.5q68 0 68 -80q0 -124 -125 -136z" />
    <glyph glyph-name="tcommaaccent" unicode="&#x163;" horiz-adv-x="319" 
d="M129 541h51v-123l125 2l-2 -46h-123v-258q0 -67 52 -67q23 0 57 18l7 -11q-34 -69 -104 -69q-96 2 -96 105v282l-75 -2v27q7 2 19 5q46 11 67 43.5t22 93.5zM130 -249l-4 18q76 18 76 57q0 12 -17 14q-58 3 -58 53q0 23 15.5 36.5t41.5 13.5t42 -19.5t16 -51.5
q0 -111 -112 -121z" />
    <glyph glyph-name="Tcaron" unicode="&#x164;" horiz-adv-x="668" 
d="M644 486l-2 203h-602l-2 -203h29q9 89 47 127.5t136 42.5l45 2v-627h-93v-31h278v31h-94v627l46 -2q98 -5 137 -45.5t45 -124.5h30zM497 903l-122 -163h-60l-122 163h34l117 -100l119 100h34z" />
    <glyph glyph-name="tcaron" unicode="&#x165;" horiz-adv-x="319" 
d="M129 541h51v-123l125 2l-2 -46h-123v-258q0 -67 52 -67q23 0 57 18l7 -11q-34 -69 -104 -69q-96 2 -96 105v282l-75 -2v27q7 2 19 5q46 11 67 43.5t22 93.5zM437 722q39 0 61 -32.5t22 -72t-39 -87.5q-36 -47 -79 -64l-11 22q27 10 57 45t30 62q0 16 -15 16l-34 -3
q-55 7 -55 50q0 64 63 64z" />
    <glyph glyph-name="Tbar" unicode="&#x166;" horiz-adv-x="669" 
d="M642 689l2 -203h-30q-6 84 -45 124.5t-137 45.5l-46 2v-246h116v-42h-116v-339h94v-31h-278v31h93v339h-114v42h114v246l-45 -2q-97 -4 -135.5 -42.5t-47.5 -127.5h-29l2 203h602z" />
    <glyph glyph-name="tbar" unicode="&#x167;" horiz-adv-x="324" 
d="M308 286h-128v-170q0 -67 52 -67q23 0 57 18l7 -11q-34 -69 -104 -69q-96 2 -96 105v194h-72v39h72v49l-75 -2v27q7 2 19 5q46 11 67 43.5t22 93.5h51v-123l125 2l-2 -46h-123v-49h128v-39z" />
    <glyph glyph-name="Utilde" unicode="&#x168;" horiz-adv-x="747" 
d="M723 692v-31q-59 0 -69 -10q-25 -25 -25 -78v-294q0 -160 -55 -227t-201 -67q-118 0 -183.5 71.5t-65.5 162.5v442h-92v31h275v-31h-94v-438q0 -208 189 -208q194 0 194 232v326q0 55 -26 79q-10 9 -67 9v31h220zM566 852l3 -3q-9 -41 -38 -73.5t-64 -32.5t-86 24t-67 24
q-42 0 -59 -48h-22l-3 3q6 42 36 74t64 32t85 -24t70 -24q39 0 59 48h22z" />
    <glyph glyph-name="utilde" unicode="&#x169;" horiz-adv-x="603" 
d="M573 27v-28h-160l-1 81q-62 -93 -177 -93q-91 0 -120 54q-17 31 -17 114v241q-3 34 -34 34h-47v27h163v-292q0 -63 21.5 -90.5t83.5 -27.5q44 0 84 38q40 40 40 75v236q-2 34 -36 34h-46v27h163v-408q0 -11 8.5 -16.5t16.5 -5.5h58zM445 627h28q0 -39 -31.5 -70.5
t-65 -31.5t-82 22t-61.5 22q-34 0 -51 -44h-28q16 96 106 96q20 0 72 -23q45 -22 63.5 -20t29 13t20.5 36z" />
    <glyph glyph-name="Umacron" unicode="&#x16a;" horiz-adv-x="747" 
d="M723 692v-31q-59 0 -69 -10q-25 -25 -25 -78v-294q0 -160 -55 -227t-201 -67q-118 0 -183.5 71.5t-65.5 162.5v442h-92v31h275v-31h-94v-438q0 -208 189 -208q194 0 194 232v326q0 55 -26 79q-10 9 -67 9v31h220zM558 794v-50h-316v50h316z" />
    <glyph glyph-name="umacron" unicode="&#x16b;" horiz-adv-x="603" 
d="M573 27v-28h-160l-1 81q-62 -93 -177 -93q-91 0 -120 54q-17 31 -17 114v241q-3 34 -34 34h-47v27h163v-292q0 -63 21.5 -90.5t83.5 -27.5q44 0 84 38q40 40 40 75v236q-2 34 -36 34h-46v27h163v-408q0 -11 8.5 -16.5t16.5 -5.5h58zM454 658v-58h-350v58h350z" />
    <glyph glyph-name="Ubreve" unicode="&#x16c;" horiz-adv-x="747" 
d="M723 692v-31q-59 0 -69 -10q-25 -25 -25 -78v-294q0 -160 -55 -227t-201 -67q-118 0 -183.5 71.5t-65.5 162.5v442h-92v31h275v-31h-94v-438q0 -208 189 -208q194 0 194 232v326q0 55 -26 79q-10 9 -67 9v31h220zM545 901l3 -3q0 -66 -40.5 -110t-107 -44t-107.5 42.5
t-41 111.5l3 3h26q19 -93 120 -93t118 93h26z" />
    <glyph glyph-name="ubreve" unicode="&#x16d;" horiz-adv-x="603" 
d="M573 27v-28h-160l-1 81q-62 -93 -177 -93q-91 0 -120 54q-17 31 -17 114v241q-3 34 -34 34h-47v27h163v-292q0 -63 21.5 -90.5t83.5 -27.5q44 0 84 38q40 40 40 75v236q-2 34 -36 34h-46v27h163v-408q0 -11 8.5 -16.5t16.5 -5.5h58zM401 659q4 -133 -131 -133
q-133 0 -132 133q4 4 10 4t9 -4q18 -80 113 -80t113 80q3 4 9 4t9 -4z" />
    <glyph glyph-name="Uring" unicode="&#x16e;" horiz-adv-x="747" 
d="M723 692v-31q-59 0 -69 -10q-25 -25 -25 -78v-294q0 -160 -55 -227t-201 -67q-118 0 -183.5 71.5t-65.5 162.5v442h-92v31h275v-31h-94v-438q0 -208 189 -208q194 0 194 232v326q0 55 -26 79q-10 9 -67 9v31h220zM499 828q0 -39 -29.5 -67t-73 -28t-71.5 26.5t-28 67.5
t28.5 69.5t71.5 28.5t72.5 -29t29.5 -68zM444.5 781.5q18.5 18.5 18.5 47t-19.5 47t-46.5 18.5t-46 -19t-19 -47.5t19 -46.5t47 -18t46.5 18.5z" />
    <glyph glyph-name="uring" unicode="&#x16f;" horiz-adv-x="603" 
d="M573 27v-28h-160l-1 81q-62 -93 -177 -93q-91 0 -120 54q-17 31 -17 114v241q-3 34 -34 34h-47v27h163v-292q0 -63 21.5 -90.5t83.5 -27.5q44 0 84 38q40 40 40 75v236q-2 34 -36 34h-46v27h163v-408q0 -11 8.5 -16.5t16.5 -5.5h58zM376 617q0 -39 -29.5 -67t-73 -28
t-71.5 26.5t-28 67.5t28.5 69.5t71.5 28.5t72.5 -29t29.5 -68zM340 617q0 29 -19.5 47.5t-46.5 18.5t-46 -19t-19 -47.5t19 -46.5t47.5 -18t46.5 18t18 47z" />
    <glyph glyph-name="Uhungarumlaut" unicode="&#x170;" horiz-adv-x="747" 
d="M723 692v-31q-59 0 -69 -10q-25 -25 -25 -78v-294q0 -160 -55 -227t-201 -67q-118 0 -183.5 71.5t-65.5 162.5v442h-92v31h275v-31h-94v-438q0 -208 189 -208q194 0 194 232v326q0 55 -26 79q-10 9 -67 9v31h220zM465 807l-178 -67l-17 12l164 125q19 11 41 1
q20 -8 20 -33.5t-30 -37.5zM653 807l-178 -67l-17 12l164 125q19 12 43 1q18 -7 18 -33t-30 -38z" />
    <glyph glyph-name="uhungarumlaut" unicode="&#x171;" horiz-adv-x="603" 
d="M573 27v-28h-160l-1 81q-62 -93 -177 -93q-91 0 -120 54q-17 31 -17 114v241q-3 34 -34 34h-47v27h163v-292q0 -63 21.5 -90.5t83.5 -27.5q44 0 84 38q40 40 40 75v236q-2 34 -36 34h-46v27h163v-408q0 -11 8.5 -16.5t16.5 -5.5h58zM492 689q0 -19 -13 -35l-123 -158
l-28 7l94 202q9 18 36 18q34 0 34 -34zM344 689q0 -19 -12 -35l-124 -155l-27 4l94 202q9 18 36 18q33 0 33 -34z" />
    <glyph glyph-name="Uogonek" unicode="&#x172;" horiz-adv-x="747" 
d="M584 -132q-15 -21 -58.5 -42.5t-79.5 -21.5t-50 20.5t-14 48t20.5 63.5t38.5 54q-35 -5 -68 -5q-118 0 -183.5 71.5t-65.5 162.5v441h-92v31h275v-31h-94v-437q0 -208 189 -208q194 0 194 232v325q0 55 -26 79q-10 9 -67 9v31h220v-31q-59 0 -69 -10q-25 -25 -25 -78
v-293q0 -123 -30.5 -189t-108.5 -90q-53 -65 -53 -104.5t40 -39.5t92 32q16 -20 15 -20z" />
    <glyph glyph-name="uogonek" unicode="&#x173;" horiz-adv-x="589" 
d="M573 0h-69q-55 -62 -55 -106q0 -38 45 -38q34 0 86 32q16 -20 15 -20q-19 -25 -59 -45.5t-75 -20.5t-55 23.5t-20 53.5q0 61 80 121h-53l-1 80q-62 -93 -177 -93q-91 0 -120 54q-17 31 -17 114v241q-3 34 -34 34h-47v27h163v-292q0 -63 21.5 -90.5t83.5 -27.5q44 0 84 38
q40 40 40 75v236q-2 34 -36 34h-46v27h163v-408q0 -11 8.5 -16.5t16.5 -5.5h58v-27z" />
    <glyph glyph-name="Wcircumflex" unicode="&#x174;" horiz-adv-x="1010" 
d="M1020 707v-31q-53 2 -71.5 -11t-30.5 -29.5t-25 -66.5l-167 -570h-40l-184 545l-211 -545h-40l-171 677h-74v31h263v-31h-76l117 -514l213 545h31l180 -529l111 391q17 59 17 76t-10.5 24t-56.5 7v31h225zM568 903l122 -164h-34l-119 101l-117 -101h-35l122 164h61z" />
    <glyph glyph-name="wcircumflex" unicode="&#x175;" horiz-adv-x="790" 
d="M771 457v-28h-26q-28 0 -47 -43l-155 -386h-49l-114 322l-125 -322h-51l-130 407q-6 22 -34 22h-32v28h231v-28h-46q-25 0 -25 -20q0 -6 1 -9l86 -307l138 375h33l117 -375l105 293q7 17 7 28q0 15 -17 15h-50v28h183zM433 690l122 -164h-34l-119 101l-117 -101h-35
l122 164h61z" />
    <glyph glyph-name="Ycircumflex" unicode="&#x176;" horiz-adv-x="684" 
d="M666 689l1 -37q-59 2 -74 -14q-21 -19 -50 -81l-145 -281v-246l96 1v-32l-282 1v31l92 -1v241l-220 387h-76v31h261v-31h-74l181 -335l114 223q30 52 30 79q0 12 -16 25q-8 8 -58 6l1 33h219zM405 903l122 -164h-34l-119 101l-117 -101h-35l122 164h61z" />
    <glyph glyph-name="ycircumflex" unicode="&#x177;" 
d="M69 407q-9 23 -35 23h-31v27h231v-27h-47q-26 0 -26 -19q0 -5 3 -11l119 -310l118 297q6 15 6 27q0 16 -17 16h-50v27h182v-27h-26q-28 0 -46 -43l-167 -386q-15 -48 -31 -87q-40 -95 -72 -124.5t-49 -35.5t-37.5 -6t-40 10t-13.5 35q4 35 48 32q11 -4 29 -7.5t27.5 0
t29.5 23.5q29 34 39 64q17 36 26 73q-1 8 -6 23.5t-9.5 33.5t-154.5 372zM292 690l122 -164h-34l-119 101l-117 -101h-35l122 164h61z" />
    <glyph glyph-name="Ydieresis" unicode="&#x178;" horiz-adv-x="684" 
d="M666 689l1 -37q-59 2 -74 -14q-21 -19 -50 -81l-145 -281v-246l96 1v-32l-282 1v31l92 -1v241l-220 387h-76v31h261v-31h-74l181 -335l114 223q30 52 30 79q0 12 -16 25q-8 8 -58 6l1 33h219zM513 792q0 -49 -48.5 -49t-48.5 49t48.5 49t48.5 -49zM318 792q0 -49 -49 -49
t-49 49t49 49t49 -49z" />
    <glyph glyph-name="Zacute" unicode="&#x179;" horiz-adv-x="658" 
d="M595 239h32l-13 -239l-579 -1l422 659l-181 -2q-105 -1 -139 -40q-38 -46 -47 -130h-26l2 204l518 -1l-416 -658l237 3q27 0 67 15t59 34q58 54 64 156zM529 913q0 -21 -13 -34l-133 -136l-21 5l97 181q11 20 37 20q33 0 33 -36z" />
    <glyph glyph-name="zacute" unicode="&#x17a;" horiz-adv-x="461" 
d="M436 141v-141q-136 0 -420 -3v22l295 400l-168 1q-15 0 -30 -5.5t-18 -16.5q-7 -27 -14 -72h-28v131q268 -3 368 0v-29l-287 -394l224 1q20 0 32 23q13 32 19 83h27zM375 661q0 -21 -13 -34l-133 -136l-21 5l97 181q11 20 37 20q33 0 33 -36z" />
    <glyph glyph-name="Zdotaccent" unicode="&#x17b;" horiz-adv-x="659" 
d="M595 239h32l-13 -239l-579 -1l422 659l-181 -2q-105 -1 -139 -40q-38 -46 -47 -130h-26l2 204l518 -1l-416 -658l237 3q27 0 67 15t59 34q58 54 64 156zM384 756q-16 -16 -38.5 -16t-38.5 16t-16 38.5t16 38.5t38.5 16t38.5 -16t16 -38.5t-16 -38.5z" />
    <glyph glyph-name="zdotaccent" unicode="&#x17c;" horiz-adv-x="461" 
d="M436 141v-141q-136 0 -420 -3v22l295 400l-168 1q-15 0 -30 -5.5t-18 -16.5q-7 -27 -14 -72h-28v131q268 -3 368 0v-29l-287 -394l224 1q20 0 32 23q13 32 19 83h27zM299 574q0 -49 -45.5 -49t-46.5 45q-1 21 12 34.5t33.5 13.5t33.5 -13t13 -31z" />
    <glyph glyph-name="Zcaron" unicode="&#x17d;" horiz-adv-x="658" 
d="M627 239h-32q-6 -102 -64 -156q-19 -19 -59 -34t-67 -15l-237 -3l416 658l-518 1l-2 -204h26q9 84 47 130q34 39 139 40l181 2l-422 -659l579 1zM513 905l-122 -163h-60l-122 163h34l117 -100l119 100h34z" />
    <glyph glyph-name="zcaron" unicode="&#x17e;" horiz-adv-x="461" 
d="M436 0v141h-27q-6 -51 -19 -83q-12 -23 -32 -23l-224 -1l287 394v29q-100 -3 -368 0v-131h28q7 45 14 72q3 11 18 16.5t30 5.5l168 -1l-295 -400v-22q284 3 420 3zM433 689l-122 -163h-60l-122 163h34l117 -100l119 100h34z" />
    <glyph glyph-name="longs" unicode="&#x17f;" horiz-adv-x="325" 
d="M185 638v-588q3 -23 23 -23h58v-27h-244v27h58q20 0 23 23v355h-80v36h80v155q0 107 120 107q62 0 92 -27q21 -20 23 -49q1 -52 -49 -52q-14 0 -28.5 8.5t-13 18t14.5 22.5q10 8 7 21q-3 37 -46 37q-38 0 -38 -44z" />
    <glyph glyph-name="florin" unicode="&#x192;" horiz-adv-x="499" 
d="M127 412l107 -5q65 294 238 298q-9 -32 -14 -93l-10 -8l-18 15q-14 9 -34.5 9t-31.5 -15.5t-17 -56.5l-28 -149q78 3 105 5q-1 -12 -9 -55q-34 4 -105 7l-72 -348q-57 -277 -238 -277q10 46 15 89l11 7q18 -21 45.5 -21t42 25.5t31.5 108.5l80 416q-73 -5 -109 -6
q1 3 11 54z" />
    <glyph glyph-name="Ohorn" unicode="&#x1a0;" horiz-adv-x="718" 
d="M663 341q0 -149 -86 -252t-214.5 -103t-220.5 105q-90 106 -88 261.5t88.5 255t217.5 99.5q154 0 236 -118q103 12 101 48q-1 37 -45 37q-12 0 -18 -1q-21 11 -21 28.5t12 29.5t28 12q35 0 60.5 -31t25.5 -64q0 -80 -114 -93h-8q46 -88 46 -214zM363 21q93 0 141 89
t48 236.5t-42 231.5q-50 98 -153.5 98t-151.5 -93q-40 -79 -40 -236q0 -326 198 -326z" />
    <glyph glyph-name="ohorn" unicode="&#x1a1;" 
d="M457 386q49 -58 49 -142q0 -112 -71 -182t-186 -72q-91 -1 -154 63q-60 65 -60 171.5t67 174.5t182 68q83 0 141 -49q109 12 107 49.5t-44 37.5q-6 0 -18 -2q-21 12 -21 30t11.5 29t28.5 11q35 0 60.5 -30.5t25.5 -64.5q0 -77 -118 -92zM289 22q63 0 94.5 53t31.5 137.5
t-43 153.5q-44 68 -109 68q-137 0 -137 -175q0 -93 34 -157q43 -80 129 -80z" />
    <glyph glyph-name="Uhorn" unicode="&#x1af;" horiz-adv-x="779" 
d="M825 752q0 -76 -115 -92q-49 -2 -56 -9q-25 -25 -25 -78v-294q0 -160 -55 -227t-201 -67q-118 0 -183.5 71.5t-65.5 162.5v442h-92v31h275v-31h-94v-438q0 -208 189 -208q194 0 194 232v326q0 55 -26 79q-10 9 -67 9v31l123 -1q78 2 104 7q53 11 53 44q-2 38 -44 38
q-9 0 -19 -3q-19 13 -19 31t11 29t28 11q34 0 59.5 -30.5t25.5 -65.5z" />
    <glyph glyph-name="uhorn" unicode="&#x1b0;" horiz-adv-x="589" 
d="M490 426v-377q0 -11 8.5 -16.5t16.5 -5.5h58v-28h-160l-1 81q-62 -93 -177 -93q-91 0 -120 54q-17 31 -17 114v241q-3 34 -34 34h-47v27h163v-292q0 -63 21.5 -90.5t83.5 -27.5q44 0 84 38q40 40 40 75v236q-2 34 -36 34h-46v27h163q29 0 51 14t23 33q2 39 -48 39
q-11 0 -16 -1q-19 12 -19 29t16 28t42.5 6t46.5 -31.5t22 -63t-40 -62.5q-28 -18 -78 -22z" />
    <glyph glyph-name="Ezh" unicode="&#x1b7;" horiz-adv-x="494" 
d="M40 689h425l-221 -272q19 3 40 3q93 0 143 -56t50 -141q0 -119 -91 -179.5t-217 -56.5q-73 5 -145 37q9 56 7 150h32l8 -66q3 -29 43 -60q35 -31 65 -31q85 0 138 52.5t53 134.5q0 44 -16.5 80.5t-47.5 58.5t-59 22t-55 -10l-20 34l176 215l-221 -1q-56 0 -60 -76h-27
v162z" />
    <glyph glyph-name="u01F4" unicode="&#x1f4;" horiz-adv-x="695" 
d="M648 271v-30h-35v-206l-105 -33q-57 -16 -148 -16q-127 0 -217 105q-89 108 -87.5 263t88 252.5t216.5 99.5q81 1 123.5 -9.5t102.5 -31.5q-18 -83 -18 -147h-30v69q0 20 -24 41q-62 56 -149 49q-195 -13 -195 -330q0 -143 50 -234q78 -134 246 -69q52 19 57 37
q5 13 5 40v120h-113v30h233zM516 805l-177 -66l-18 12l165 123q18 14 39 4t21 -31q0 -31 -30 -42z" />
    <glyph glyph-name="uni01F5" unicode="&#x1f5;" horiz-adv-x="543" 
d="M353 464h161l-20 -53l-115 10q47 -44 48 -101q2 -45 -24 -88t-67 -64q-52 -29 -103 -29q-16 0 -28 4l-28 -24q-17 -17 -17 -31q0 -23 26 -32q12 -4 48 -6l156 -12q115 -8 115 -111q0 -79 -71.5 -138t-192.5 -59q-90 0 -150 42q-60 40 -60 99.5t41 89.5q27 23 71 29
q-63 16 -63 57q0 31 36 64q14 12 53 36q-30 1 -71 38t-42 93q-3 87 59 136.5t154 50.5q53 0 84 -1zM317.5 206.5q28.5 32.5 27 89t-25.5 89.5q-29 45 -80.5 45t-77.5 -36t-26 -93.5t30.5 -92t77 -34.5t75 32.5zM292 -31l-104 9q-27 -1 -52 -25q-30 -25 -30 -66
q0 -62 39.5 -93.5t111 -31.5t121.5 36t50 95q0 41 -34 56q-27 13 -102 20zM424 661q0 -21 -13 -34l-133 -136l-21 5l97 181q11 20 37 20q33 0 33 -36z" />
    <glyph glyph-name="Aringacute" unicode="&#x1fa;" horiz-adv-x="748" 
d="M490 817q0 -40 -29 -69t-69 -29t-69 29t-29 69t28.5 68.5t69 28.5t69.5 -28.5t29 -68.5zM726 31v-31h-260v31h80l-68 197h-242l-37 -90q-19 -45 -19 -67t6 -31t64 -9v-31h-218v31q52 -1 75 13.5t53 93.5l216 570h40l235 -677h75zM435 772q16 17 16 45.5t-15.5 45.5
t-43 17t-44 -17t-16.5 -45.5t16.5 -45.5t43.5 -17t43 17zM251 266h213l-100 293zM548 1109q0 -19 -12 -33l-134 -136l-20 4l97 181q11 20 36 20q33 0 33 -36z" />
    <glyph glyph-name="aringacute" unicode="&#x1fb;" horiz-adv-x="500" 
d="M480 28v-28h-160v82q-89 -94 -168 -94q-53 0 -85 31q-35 31 -35 88q0 79 61 118q46 28 129 43l98 17q2 71 -12 104q-20 47 -69 47q-85 0 -86 -57q0 -10 11.5 -23.5t11.5 -14.5q1 -15 -14.5 -25t-28.5 -7q-50 0 -49 55.5t69 83.5q42 16 89 16q79 0 118 -44q39 -48 39 -152
v-218q0 -10 7 -16t16 -6h58zM320 122v130q-87 -11 -143 -33q-26 -10 -43 -37t-17 -59t22.5 -54t54 -23.5t67 21t59.5 55.5zM356 623q0 -39 -29 -66.5t-72 -27.5t-70.5 26.5t-27.5 66.5t28 68t70.5 28t71.5 -28t29 -67zM302 576.5q18 17.5 18 46t-19 46.5t-45.5 18
t-45.5 -18.5t-19 -46.5t18.5 -45.5t46.5 -17.5t46 17.5zM414 907q0 -21 -13 -34l-133 -136l-21 5l97 181q11 20 37 20q33 0 33 -36z" />
    <glyph glyph-name="AEacute" unicode="&#x1fc;" horiz-adv-x="1110" 
d="M1023 239h32l-11 -239h-581v31h94v197h-254l-79 -104q-40 -52 -40 -70q0 -23 23 -23h39v-31h-218v31q40 5 77 17q18 11 67 77l385 533h-94v31h565l2 -203h-31q-7 87 -47.5 127.5t-134.5 42.5l-171 2v-290h122q86 0 86 118h32v-277h-32q0 59 -24 92t-62 33h-122v-303
l187 3q28 0 67.5 15t58.5 34q59 55 64 156zM327 266h230v321zM761 907q0 -21 -13 -34l-133 -136l-21 5l97 181q11 20 37 20q33 0 33 -36z" />
    <glyph glyph-name="aeacute" unicode="&#x1fd;" horiz-adv-x="755" 
d="M720 228h-320q0 -91 45.5 -142.5t132.5 -51.5q46 0 123 47l13 -10q-83 -88 -177 -88q-138 0 -195 106q-43 -52 -83.5 -79t-94.5 -27t-93 31t-38 88q1 79 80 119q50 23 155 35l54 7q8 171 -81 171q-84 0 -85 -55q0 -11 10.5 -24t11.5 -15q4 -14 -12.5 -23t-34.5 -9
t-32.5 14t-11.5 39q12 101 157 100q64 -2 102 -29q12 -10 34 -38q21 30 65 50t92 20q82 0 134 -58t52 -140q0 -20 -3 -38zM402 268l240 -2q2 67 -29 115q-28 49 -72 49q-139 0 -139 -162zM322 117v114q-106 -12 -130 -20q-73 -24 -73 -88q0 -80 87 -80q65 0 116 74zM542 661
q0 -21 -13 -34l-133 -136l-21 5l97 181q11 20 37 20q33 0 33 -36z" />
    <glyph glyph-name="Oslashacute" unicode="&#x1fe;" horiz-adv-x="820" 
d="M744 695l28 -32l-107 -103q50 -92 50 -231t-86.5 -242t-220 -103t-223.5 117l-108 -101l-29 34l112 105q-55 91 -55 205q1 161 88.5 261t218.5 100q147 0 229 -109zM229 204l348 332q-45 138 -165 138q-107 0 -155 -94q-40 -79 -40 -236q0 -82 12 -140zM604 340
q0 81 -14 148l-349 -333q44 -137 173 -137q95 0 144 94q46 83 46 228zM549 911q0 -21 -13 -34l-133 -136l-21 5l97 181q11 20 37 20q33 0 33 -36z" />
    <glyph glyph-name="oslashacute" unicode="&#x1ff;" horiz-adv-x="563" 
d="M514 483l30 -31l-67 -66q49 -59 49 -141q0 -113 -72 -183t-186 -72q-86 -2 -145 55l-64 -62l-28 33l64 61q-41 62 -41 142q0 111 66 180q68 69 183 69q83 0 144 -51zM162 142l230 223q-43 70 -110 70q-137 0 -137 -175q0 -62 17 -118zM404 77q31 49 31 121.5t-22 126.5
l-233 -225q44 -78 127 -78q64 0 97 55zM423 667q0 -21 -13 -34l-133 -136l-21 5l97 181q11 20 37 20q33 0 33 -36z" />
    <glyph glyph-name="Scommaaccent" unicode="&#x218;" horiz-adv-x="514" 
d="M491 220q0 -116 -93 -177q-80 -53 -201 -53q-73 0 -163 34l1 159h30q6 -79 47 -114q19 -16 56 -27t67 -10q69 1 121 37q51 37 53 99q0 65 -45.5 104t-125.5 48q-213 26 -213 178q0 106 81 161q69 48 168 48q29 0 69 -8.5t51.5 -8.5t15.5 15h28v-179h-30q-7 74 -44.5 107
t-111.5 32q-146 -2 -144 -131q2 -115 160 -131q223 -24 223 -183zM207 -260l-5 21q86 14 86 63q0 14 -20 16q-65 2 -65 60q0 25 17 40.5t44 15.5q68 0 68 -80q0 -124 -125 -136z" />
    <glyph glyph-name="scommaaccent" unicode="&#x219;" horiz-adv-x="414" 
d="M391 141q0 -69 -53.5 -111.5t-122 -42.5t-123.5 26q-16 6 -19 -18q-17 3 -23 0v164h29v-29q0 -32 38.5 -69.5t88.5 -36.5t81 21t31 59t-52 61q-71 25 -138 52q-83 34 -83 107t58 110q48 32 125 32q32 0 97 -21v19h27v-133h-29v21q0 36 -33.5 58.5t-85 22.5t-75.5 -27
q-19 -24 -14.5 -53t28.5 -43q11 -8 87.5 -35.5t112.5 -49.5q48 -33 48 -84zM151 -260l-4 18q76 18 76 57q0 12 -17 14q-58 3 -58 53q0 23 15.5 36.5t41.5 13.5t42 -19.5t16 -51.5q0 -111 -112 -121z" />
    <glyph glyph-name="uni0292" unicode="&#x292;" horiz-adv-x="411" 
d="M388 11q2 -109 -84 -168q-73 -50 -167 -44q-66 5 -109 48q-12 11 -12 25q0 28 30 28t35 -30q9 -42 64 -43q55 -4 103 30q66 48 59 144q-3 61 -53 98.5t-103 37.5q-17 0 -26 -4l-17 16l191 162q-45 -1 -252 -1v64h319l1 -50q0 -1 -79.5 -68.5t-85.5 -69.5q54 -1 107 -34
q79 -48 79 -141z" />
    <glyph glyph-name="circumflex" unicode="&#x2c6;" horiz-adv-x="332" 
d="M190 928l138 -173l-3 -5h-31l-128 114l-128 -114h-31l-4 5l141 173h46z" />
    <glyph glyph-name="caron" unicode="&#x2c7;" horiz-adv-x="469" 
d="M374 691l-122 -163h-60l-122 163h34l117 -100l119 100h34z" />
    <glyph glyph-name="uni02C9" unicode="&#x2c9;" horiz-adv-x="378" 
d="M368 659v-58h-350v58h350z" />
    <glyph glyph-name="breve" unicode="&#x2d8;" horiz-adv-x="359" 
d="M311 659q4 -133 -131 -133q-133 0 -132 133q4 4 10 4t9 -4q18 -80 113 -80t113 80q3 4 9 4t9 -4z" />
    <glyph glyph-name="dotaccent" unicode="&#x2d9;" horiz-adv-x="359" 
d="M221 575q0 -49 -45.5 -49t-46.5 45q-1 21 12 34.5t33.5 13.5t33.5 -13t13 -31z" />
    <glyph glyph-name="ring" unicode="&#x2da;" horiz-adv-x="359" 
d="M277 623q0 -39 -29 -66.5t-72 -27.5t-70.5 26.5t-27.5 66.5t28 68t70.5 28t71.5 -28t29 -67zM223.5 576.5q17.5 17.5 17.5 46t-19 46.5t-45.5 18t-45.5 -18.5t-19 -46.5t18.5 -45.5t47 -17.5t46 17.5z" />
    <glyph glyph-name="ogonek" unicode="&#x2db;" horiz-adv-x="359" 
d="M267 -172q-36 -48 -91 -48q-41 0 -64.5 24t-23.5 57q0 68 114 160h37q-83 -80 -83 -136.5t56 -56.5q27 0 46 16q9 -4 9 -16z" />
    <glyph glyph-name="tilde" unicode="&#x2dc;" horiz-adv-x="332" 
d="M333 890l3 -3q-9 -41 -38 -73.5t-64 -32.5t-86 24t-67 24q-43 0 -59 -48h-22l-3 3q6 42 36 74t64 32t85 -24t70 -24q40 0 59 48h22z" />
    <glyph glyph-name="hungarumlaut" unicode="&#x2dd;" horiz-adv-x="359" 
d="M363 689q0 -19 -13 -35l-123 -158l-28 7l94 202q9 18 36 18q34 0 34 -34zM215 689q0 -19 -12 -35l-124 -155l-27 4l94 202q9 18 36 18q33 0 33 -34z" />
    <glyph glyph-name="gravecomb" unicode="&#x300;" horiz-adv-x="190" 
d="M92 705l86 -178h-25l-130 139q-11 11 -11 26q0 34 41 34q29 0 39 -21z" />
    <glyph glyph-name="acutecomb" unicode="&#x301;" horiz-adv-x="197" 
d="M185 686q0 -19 -13 -32l-137 -126h-23l101 173q11 18 37 18q35 0 35 -33z" />
    <glyph glyph-name="tildecomb" unicode="&#x303;" horiz-adv-x="323" 
d="M293 619h28q0 -38 -31.5 -69.5t-70.5 -31.5q-21 0 -36 6l-19 7q-6 2 -19 9q-45 22 -64 22q-34 0 -51 -44h-28q16 96 106 96q20 0 72 -23q45 -22 63.5 -20.5t31.5 15.5q7 9 18 33z" />
    <glyph glyph-name="dialytika" unicode="&#x308;" horiz-adv-x="317" 
d="M305 579q0 -49 -48.5 -49t-48.5 49t48.5 49t48.5 -49zM110 579q0 -49 -49 -49t-49 49t49 49t49 -49z" />
    <glyph glyph-name="hookabovecomb" unicode="&#x309;" horiz-adv-x="167" 
d="M81 545q0 -3 6.5 -14t-6.5 -11q-9 0 -15 9t-6 22t27 45t27 47q0 39 -42 34q-20 -1 -33 -27q-6 -10 -15 -10q-12 0 -12 17t16.5 33t36.5 20q11 4 31 4t39.5 -17t19.5 -43.5t-37 -62.5t-37 -46z" />
    <glyph glyph-name="uni0312" unicode="&#x312;" horiz-adv-x="142" 
d="M125 726l5 -17q-77 -12 -77 -57q0 -15 16 -15q59 -2 59 -53q0 -23 -15 -36.5t-41.5 -13.5t-43 20t-16.5 51q0 110 113 121z" />
    <glyph glyph-name="uni0313" unicode="&#x313;" horiz-adv-x="177" 
d="M141.5 700.5q23.5 -22.5 23.5 -64.5t-31.5 -81.5t-77.5 -39.5v19q28 9 49 31.5t21 47.5q0 40 -31 40q-2 0 -16.5 -5.5t-22.5 -5.5q-44 0 -44 35q0 46 66 46q40 0 63.5 -22.5z" />
    <glyph glyph-name="uni0314" unicode="&#x314;" horiz-adv-x="179" 
d="M124 646l-38 10q-26 0 -26 -32t23 -56.5t54 -29.5l3 -18h-7q-48 -1 -85 33q-36 36 -36 81t30 67.5t77.5 22.5t47.5 -41q0 -37 -43 -37z" />
    <glyph glyph-name="dotbelowcomb" unicode="&#x323;" horiz-adv-x="132" 
d="M104.5 -127.5q15.5 -15.5 15.5 -37.5t-16 -37.5t-38 -15.5t-38 15.5t-16 37.5t16 37.5t38.5 15.5t38 -15.5z" />
    <glyph glyph-name="commabelowcomb" unicode="&#x326;" horiz-adv-x="140" 
d="M16 -249l-4 18q76 18 76 57q0 12 -17 14q-58 3 -58 53q0 23 15.5 36.5t41.5 13.5t42 -19.5t16 -51.5q0 -111 -112 -121z" />
    <glyph glyph-name="cedillacomb" unicode="&#x327;" horiz-adv-x="226" 
d="M191 -86.5q23 -18.5 23 -55.5t-36 -56.5t-75 -19.5t-91 15l15 31q31 -10 58 -10q56 0 56 43q0 35 -39 35q-17 0 -38 -7l-7 6l41 95h32l-24 -63q12 5 37 5t48 -18.5z" />
    <glyph glyph-name="ogonekcomb" unicode="&#x328;" horiz-adv-x="203" 
d="M191 -172q-36 -48 -91 -48q-41 0 -64.5 24t-23.5 57q0 68 114 160h37q-83 -80 -83 -136.5t56 -56.5q27 0 46 16q9 -4 9 -16z" />
    <glyph glyph-name="perispomenicomb" unicode="&#x342;" horiz-adv-x="333" 
d="M315 755h17q-4 -103 -92 -103q-33 0 -87 19t-77 19t-39.5 -12t-18.5 -28h-17q2 44 25.5 70t58.5 26t94 -17.5t87 -17.5q40 0 49 44z" />
    <glyph glyph-name="koroniscomb" unicode="&#x343;" horiz-adv-x="177" 
d="M141.5 700.5q23.5 -22.5 23.5 -64.5t-31.5 -81.5t-77.5 -39.5v19q28 9 49 31.5t21 47.5q0 40 -31 40q-2 0 -16.5 -5.5t-22.5 -5.5q-44 0 -44 35q0 46 66 46q40 0 63.5 -22.5z" />
    <glyph glyph-name="uni0345" unicode="&#x345;" horiz-adv-x="144" 
d="M124 -182l8 -10q-21 -37 -62 -37q-58 0 -58 71v84h70v-84q0 -34 20 -34q9 0 22 10z" />
    <glyph glyph-name="uni0374" unicode="&#x374;" horiz-adv-x="191" 
d="M179 634q0 -22 -13 -34l-133 -136l-21 3l97 183q10 19 37 19q33 0 33 -35z" />
    <glyph glyph-name="uni0375" unicode="&#x375;" horiz-adv-x="191" 
d="M12 -185q0 22 13 35l132 135l22 -4l-97 -182q-10 -19 -37 -19q-33 0 -33 35z" />
    <glyph glyph-name="ypogegrammenicomb" unicode="&#x37a;" horiz-adv-x="144" 
d="M124 -182l8 -10q-21 -37 -62 -37q-58 0 -58 71v84h70v-84q0 -34 20 -34q9 0 22 10z" />
    <glyph glyph-name="uni037E" unicode="&#x37e;" horiz-adv-x="308" 
d="M209 401q0 -26 -19 -45t-45 -19t-45 19t-19 45t19 44.5t45 18.5t45 -18.5t19 -44.5zM211 80q17 -29 17 -75.5t-39.5 -98t-98.5 -60.5v24q35 10 61 41.5t26 60t-6 26.5q-3 0 -13 -7t-14 -7q-27 0 -45.5 19t-18.5 45.5t21.5 45t55 18.5t54.5 -32z" />
    <glyph glyph-name="tonos" unicode="&#x384;" horiz-adv-x="191" 
d="M179 661q0 -21 -13 -34l-133 -136l-21 5l97 181q11 20 37 20q33 0 33 -36z" />
    <glyph glyph-name="dieresistonos" unicode="&#x385;" horiz-adv-x="337" 
d="M311.5 623q13.5 -14 13.5 -32.5t-13.5 -32.5t-32.5 -14t-32 14t-13 33t13 32.5t32 13.5t32.5 -14zM253 689q0 -15 -8 -26l-104 -143l-22 3l61 186q8 23 36 23q37 0 37 -43zM90.5 623q13.5 -14 13.5 -32.5t-13.5 -32.5t-32 -14t-32.5 14t-14 33t14 32.5t32.5 13.5t32 -14z
" />
    <glyph glyph-name="Alphatonos" unicode="&#x386;" horiz-adv-x="748" 
d="M211 684q0 -22 -13 -34l-132 -136l-22 4l97 181q10 19 37 19q33 0 33 -34zM732 31v-31h-260v31h80l-69 197h-240l-16 -36q-12 -28 -26 -64t-14 -63t23 -33q3 -1 45 -1v-31h-217v31h10q55 -1 80 27q13 16 37 80l217 570h40l236 -677h74zM257 266h213l-100 293z" />
    <glyph glyph-name="anoteleia" unicode="&#x387;" horiz-adv-x="285" 
d="M98 433q18 18 44.5 18t44.5 -18t18 -44t-18 -44.5t-44.5 -18.5t-44.5 18.5t-18 44.5t18 44z" />
    <glyph glyph-name="Epsilontonos" unicode="&#x388;" horiz-adv-x="764" 
d="M442 659l-130 -1v-290h123q87 0 87 118h31v-277h-31q0 49 -20 87t-67 38h-123v-303q162 1 176 3q94 9 140 49q57 49 62 156h32l-11 -239h-581v31h94v627h-94v31h565l1 -203h-29q-11 107 -73 144q-50 29 -152 29zM47 674q0 -21 -13 -34l-133 -136l-21 5l97 181
q11 20 37 20q33 0 33 -36z" />
    <glyph glyph-name="Etatonos" unicode="&#x389;" horiz-adv-x="807" 
d="M768 28v-31h-278v31h94v314h-307v-314h93v-31h-276v31h94v627h-94v31h276v-31h-93v-278h307v278h-94v31h278v-31h-93v-627h93zM47 671q0 -21 -13 -34l-133 -136l-21 5l97 181q11 20 37 20q33 0 33 -36z" />
    <glyph glyph-name="Iotatonos" unicode="&#x38a;" horiz-adv-x="431" 
d="M388 31v-31h-286v31h94v627h-94v31h286v-31h-93v-627h93zM47 672q0 -21 -13 -34l-133 -136l-21 5l97 181q11 20 37 20q33 0 33 -36z" />
    <glyph glyph-name="Omicrontonos" unicode="&#x38c;" horiz-adv-x="718" 
d="M596 597q72 -97 72 -245.5t-80 -251.5q-85 -111 -222.5 -111t-225.5 114q-82 104 -82 248.5t83 250.5t228 106t227 -111zM521 138q35 85 35 211.5t-33 209.5q-47 119 -158 119q-195 0 -195 -328t197 -328q106 0 154 116zM82 675q0 -21 -13 -34l-133 -136l-21 5l97 181
q11 20 37 20q33 0 33 -36z" />
    <glyph glyph-name="Upsilontonos" unicode="&#x38e;" horiz-adv-x="707" 
d="M674.5 682.5q29.5 -26.5 29.5 -63.5t-18.5 -59t-43 -22t-39.5 14.5t-15 34.5t20 42t20 20q0 11 -12.5 19t-27.5 8q-90 0 -132 -171q-28 -111 -28 -242v-232h94v-31h-278v31h93v231q0 184 -37 274q-57 140 -211 147v25q146 0 228 -80.5t89 -228.5l1 -1q1 104 45 195
q56 116 145 116q48 0 77.5 -26.5zM47 675q0 -21 -13 -34l-133 -136l-21 5l97 181q11 20 37 20q33 0 33 -36z" />
    <glyph glyph-name="Omegatonos" unicode="&#x38f;" horiz-adv-x="779" 
d="M717 147v-147h-257v106q152 101 152 296q0 102 -58 185t-156 83q-112 0 -166 -76t-54 -188.5t34 -178t124 -121.5v-106h-263v147h27q2 -19 8 -47q8 -17 45 -17h151v13q-117 50 -171 114q-59 74 -59 200.5t94.5 208.5t229 82t226.5 -82.5t92 -214.5q0 -215 -224 -308v-13
h145q37 0 46 17l9 47h25zM49 677q0 -21 -13 -34l-133 -136l-21 5l97 181q11 20 37 20q33 0 33 -36z" />
    <glyph glyph-name="iotadieresistonos" unicode="&#x390;" horiz-adv-x="308" 
d="M290.5 629.5q13.5 -13.5 13.5 -32t-13.5 -32.5t-32.5 -14t-32 13.5t-13 32.5t13 32.5t32 13.5t32.5 -13.5zM210 695q0 -15 -8 -25l-105 -143l-22 3l62 186q7 22 35 22q38 0 38 -43zM24 629.5q14 -13.5 14 -32t-14 -32.5t-32 -14t-32.5 14t-14.5 32t14.5 32t32.5 14
t32 -13.5zM60 194l-3 195q0 45 3 56q11 20 49 20q56 0 56 -23q0 -56 -34.5 -173.5t-34.5 -177.5q0 -39 35 -39q49 0 88 87q17 -3 26.5 -23.5t9.5 -48t-27 -55.5t-62 -28q-77 0 -96 73q-10 30 -10 137z" />
    <glyph glyph-name="Alpha" unicode="&#x391;" horiz-adv-x="748" 
d="M725 31v-31h-260v31h80l-68 197h-241l-16 -36q-41 -94 -41 -124t24 -36q3 -1 46 -1v-31h-218v31h10q55 -1 80 27q16 19 37 80l217 570h40l236 -677h74zM250 266h213l-99 293z" />
    <glyph glyph-name="Beta" unicode="&#x392;" horiz-adv-x="714" 
d="M637 173q0 -173 -237 -173h-348v31h94v627h-94v31h350q87 0 145.5 -43.5t58.5 -127.5q0 -66 -45 -110.5t-112 -54.5q79 -1 133.5 -51t54.5 -129zM507 519q0 139 -123 139h-147v-293h131q63 0 103 45q36 45 36 109zM528 176q0 73 -43.5 116t-115.5 43h-132v-304h140
q151 0 151 145z" />
    <glyph glyph-name="Gamma" unicode="&#x393;" horiz-adv-x="635" 
d="M364 659l-125 -1v-627h94v-31h-281v31h94v627h-94v31h561l3 -203h-30q-9 107 -73 144q-47 29 -149 29z" />
    <glyph glyph-name="uni0394" unicode="&#x394;" horiz-adv-x="615" 
d="M344 707l243 -707h-555l272 707h40zM106 81h358l-169 484z" />
    <glyph glyph-name="Epsilon" unicode="&#x395;" horiz-adv-x="692" 
d="M358 659l-130 -1v-290h123q87 0 87 118h31v-277h-31q0 49 -20 87t-67 38h-123v-303q162 1 176 3q94 9 140 49q57 49 62 156h32l-11 -239h-581v31h94v627h-94v31h565l1 -203h-29q-11 107 -73 144q-50 29 -152 29z" />
    <glyph glyph-name="Zeta" unicode="&#x396;" horiz-adv-x="659" 
d="M595 239h32l-13 -239l-579 -1l422 659h-80q-140 -2 -185 -15q-90 -26 -102 -157h-26l2 204l518 -1l-416 -658h71q205 0 264 33q84 46 92 175z" />
    <glyph glyph-name="Eta" unicode="&#x397;" horiz-adv-x="758" 
d="M718 31v-31h-278v31h94v314h-307v-314h93v-31h-276v31h94v627h-94v31h276v-31h-93v-278h307v278h-94v31h278v-31h-93v-627h93z" />
    <glyph glyph-name="Theta" unicode="&#x398;" horiz-adv-x="727" 
d="M595 601q73 -98 73 -246.5t-81 -250.5q-87 -111 -223.5 -111t-224.5 114q-82 104 -82 248t82.5 250.5t228.5 106.5t227 -111zM521 143q35 84 35 210.5t-33 208.5q-48 120 -162.5 120t-161.5 -114q-30 -76 -30 -216q0 -326 197 -326q106 0 155 117zM462 465v-215h-31v68
h-148v-68h-30v215h30v-65h148v65h31z" />
    <glyph glyph-name="Iota" unicode="&#x399;" horiz-adv-x="380" 
d="M335 31v-31h-286v31h94v627h-94v31h286v-31h-93v-627h93z" />
    <glyph glyph-name="Kappa" unicode="&#x39a;" horiz-adv-x="773" 
d="M760 31v-31h-294v31q30 0 44 2q27 5 27 25t-81 157l-98 162l-129 -147v-199h94v-31h-279v31h94v627h-94v31h280v-31h-94v-370l159 167q130 142 130 169q0 38 -72 34v31h250v-31h-28q-55 1 -132 -79l-108 -126l211 -366q25 -45 46 -53q10 -3 74 -3z" />
    <glyph glyph-name="Lambda" unicode="&#x39b;" horiz-adv-x="740" 
d="M720 30v-31h-259v31h79l-182 527l-104 -242q-78 -191 -78 -252l4 -23q33 -10 64 -10v-31h-218v31h16q49 -1 74 29q16 17 38 78l216 570h40l235 -677h75z" />
    <glyph glyph-name="Mu" unicode="&#x39c;" horiz-adv-x="911" 
d="M848 31v-31h-278v31h93v589l-242 -609l-15 -1l-221 607v-500q0 -51 25 -76q37 -10 68 -10v-31h-220v31h17q43 0 60 19.5t17 66.5v518q0 21 -37 24l-49 -1v31h197l184 -520l210 520h191v-31h-93v-627h93z" />
    <glyph glyph-name="Nu" unicode="&#x39d;" horiz-adv-x="733" 
d="M708 689v-31q-53 0 -73.5 -15t-20.5 -72l2 -588h-23l-423 652v-518q0 -55 19 -70.5t74 -15.5v-31h-221v31h18q43 0 59.5 20t16.5 66v518q0 21 -37 24l-49 -1v31h200l331 -515v397q0 54 -20.5 70.5t-73.5 16.5v31h221z" />
    <glyph glyph-name="Xi" unicode="&#x39e;" horiz-adv-x="718" 
d="M635 689l2 -162h-27v5q0 41 -12 56.5t-50 15.5h-364q-61 0 -61 -56q0 -13 1 -21h-28l1 162h538zM503 455v9h27v-242h-27l1 21q2 21 2 31q0 32 -11 32h-261q-16 0 -11 -57l3 -27h-28v242h28l-3 -24q-5 -49 12 -49h263q5 0 6 16v31zM654 187v-187h-583v187h27v-10
q-2 -89 58 -89h408q64 0 63 99h27z" />
    <glyph glyph-name="Omicron" unicode="&#x39f;" horiz-adv-x="718" 
d="M597 600q72 -98 72 -246t-80 -251q-85 -111 -222 -111t-226 114q-82 104 -82 248.5t83 250.5t227.5 106t227.5 -111zM522 141q35 85 35 212t-33 209q-47 119 -158 119q-195 0 -195 -328t197 -328q106 0 154 116z" />
    <glyph glyph-name="Pi" unicode="&#x3a0;" horiz-adv-x="727" 
d="M692 31v-31h-276v31h94v617h-289v-617h93v-31h-275v31h93v627h-93v31h653v-31h-92v-627h92z" />
    <glyph glyph-name="Rho" unicode="&#x3a1;" horiz-adv-x="605" 
d="M585 494q0 -126 -132 -170q-75 -25 -235 -25v-268h93v-31h-278v31h94v627h-94v31h303q106 0 171 -44q78 -51 78 -151zM482 491q0 167 -158 167h-106v-332h86q83 0 130.5 42.5t47.5 122.5z" />
    <glyph glyph-name="Sigma" unicode="&#x3a3;" horiz-adv-x="701" 
d="M606 239h35l-14 -239h-586l296 328l-293 361h568l12 -203h-30q-16 91 -59 131.5t-133 40.5h-209l229 -285l-256 -295h246q99 0 140 32q40 33 54 129z" />
    <glyph glyph-name="Tau" unicode="&#x3a4;" horiz-adv-x="669" 
d="M642 689l2 -203h-30q-9 107 -68 142q-40 24 -160 30v-627h94v-31h-278v31h93v627q-121 -6 -160 -30q-56 -33 -68 -142h-29l2 203h602z" />
    <glyph glyph-name="Upsilon" unicode="&#x3a5;" horiz-adv-x="618" 
d="M591.5 682.5q29.5 -26.5 29.5 -63.5t-18.5 -59t-43 -22t-39.5 14.5t-15 34.5t20 42t20 20q0 11 -12.5 19t-27.5 8q-90 0 -132 -171q-28 -111 -28 -242v-232h94v-31h-278v31h93v231q0 184 -37 274q-57 140 -211 147v25q146 0 228 -80.5t89 -228.5l1 -1q2 104 45 195
q56 116 145 116q48 0 77.5 -26.5z" />
    <glyph glyph-name="Phi" unicode="&#x3a6;" horiz-adv-x="733" 
d="M688 360q0 -124 -80 -192q-74 -61 -203 -67v-70h93v-31h-278v31h93v70q-279 7 -279 260q0 100 88 166t191 70v61h-93v31h278v-31h-93v-61q111 -2 192 -62q91 -69 91 -175zM580 347q0 210 -175 223v-440q89 6 132 65t43 152zM313 130v440q-172 -13 -172 -221.5t172 -218.5
z" />
    <glyph glyph-name="Chi" unicode="&#x3a7;" horiz-adv-x="744" 
d="M744 31v-31h-278v31h82l-199 276l-94 -117q-85 -107 -85 -130q0 -29 72 -29v-31h-239v31q69 0 136 57q48 42 106 124l83 122l-232 324h-71v31h267v-31h-75l174 -241l79 97q72 92 72 113q0 31 -71 31v31h234v-31q-63 0 -115.5 -45t-101.5 -115l-75 -109l261 -358h70z" />
    <glyph glyph-name="Psi" unicode="&#x3a8;" horiz-adv-x="858" 
d="M816 674.5q28 -26.5 28 -63.5t-15.5 -58t-39 -21t-38.5 14t-15 35q0 43 38 61q0 29 -31 29q-62 0 -68 -112q-11 -174 -23 -207q-41 -108 -185 -101v-220h94v-31h-278v31h93v221l-35 -1q-115 -7 -169 39q-44 38 -56 122q-4 33 -4 172q0 42 -24.5 65.5t-65.5 18.5v26l36 1
q76 5 111 -27q26 -25 34 -83q1 -11 1 -117t25 -141q31 -47 132 -45h14l1 376h-93v31h278v-31h-94v-375l15 -1q112 -1 143 98q13 43 13 192q0 50 28 87q28 42 75 42t75 -26.5z" />
    <glyph glyph-name="uni03A9" unicode="&#x3a9;" horiz-adv-x="754" 
d="M699 147v-147h-257v106q152 101 152 296q0 102 -58 185t-156 83q-112 0 -166 -76t-54 -188.5t34 -178t124 -121.5v-106h-263v147h27q2 -19 8 -47q8 -17 45 -17h151v13q-117 50 -171 114q-59 74 -59 200.5t94.5 208.5t229 82t226.5 -82.5t92 -214.5q0 -215 -224 -308v-13
h145q37 0 46 17l9 47h25z" />
    <glyph glyph-name="Iotadieresis" unicode="&#x3aa;" horiz-adv-x="380" 
d="M335 31v-31h-286v31h94v627h-94v31h286v-31h-93v-627h93zM339 787q0 -49 -48.5 -49t-48.5 49t48.5 49t48.5 -49zM144 787q0 -49 -49 -49t-49 49t49 49t49 -49z" />
    <glyph glyph-name="Upsilondieresis" unicode="&#x3ab;" horiz-adv-x="618" 
d="M591.5 682.5q29.5 -26.5 29.5 -63.5t-18.5 -59t-43 -22t-39.5 14.5t-15 34.5t20 42t20 20q0 11 -12.5 19t-27.5 8q-90 0 -132 -171q-28 -111 -28 -242v-232h94v-31h-278v31h93v231q0 184 -37 274q-57 140 -211 147v25q146 0 228 -80.5t89 -228.5l1 -1q2 104 45 195
q56 116 145 116q48 0 77.5 -26.5zM453 790.5q0 -48.5 -49 -48.5t-49 48.5t49 48.5t49 -48.5zM257 790.5q0 -48.5 -48.5 -48.5t-48.5 48.5t48.5 48.5t48.5 -48.5z" />
    <glyph glyph-name="alphatonos" unicode="&#x3ac;" horiz-adv-x="627" 
d="M426 683q0 -21 -12 -33l-132 -136l-22 4l97 181q10 19 36 19q33 0 33 -35zM606 90q0 -39 -17 -68q-20 -38 -54 -38q-43 0 -72 63q-13 24 -31 99q-39 -76 -85.5 -119t-123.5 -43t-126.5 64t-49.5 146q0 106 51 182q58 88 160 88q141 0 156 -180l65 169h101l-131 -280
q11 -38 35 -64q28 -33 61.5 -33t57.5 38q3 -10 3 -24zM210 15q54 0 117.5 94.5t63.5 146.5t-28 95q-35 50 -89 50q-70 0 -114 -87q-37 -71 -37 -151q0 -148 87 -148z" />
    <glyph glyph-name="epsilontonos" unicode="&#x3ad;" horiz-adv-x="479" 
d="M382 685q0 -22 -13 -35l-132 -136l-22 4l97 181q10 19 37 19q33 0 33 -33zM442 128v-8q5 -63 -74 -103q-67 -35 -140.5 -35t-123.5 33q-62 38 -62 111.5t74 111.5q-60 28 -60 95.5t58 101.5q49 29 108.5 29t118.5 -13q83 -17 83 -43q0 -14 -13 -38.5t-25.5 -24.5
t-65.5 16.5t-84 16.5q-137 0 -137 -66q0 -21 18.5 -39t35.5 -18t48 9.5t49 9.5q51 0 51 -35q0 -45 -65 -45q-20 0 -50 10l-29 11q-24 0 -49 -19q-24 -20 -24 -43q0 -42 59 -65q43 -18 93 -18q120 0 206 58z" />
    <glyph glyph-name="etatonos" unicode="&#x3ae;" horiz-adv-x="529" 
d="M422 684q0 -22 -14 -34l-132 -136l-22 4l97 181q10 19 38 19q33 0 33 -34zM498 287q0 -46 -10.5 -152.5t-10.5 -153t10 -102.5t10 -85q0 -14 -16.5 -23t-35.5 -9q-62 0 -62 89q0 76 36.5 225.5t36.5 227.5q0 92 -64 92q-102 0 -157 -248q-20 -98 -29 -147h-79l34 118
q20 75 20 116q0 130 -70 130q-11 0 -25 -9t-19 -9q-15 0 -23.5 19t-8.5 40.5t17 39.5t44 18q94 0 108 -194q22 84 55 130q43 64 117 64q122 0 122 -177z" />
    <glyph glyph-name="iotatonos" unicode="&#x3af;" horiz-adv-x="308" 
d="M254 685q0 -22 -13 -35l-132 -136l-22 4l97 181q10 19 37 19q33 0 33 -33zM70 194l-5 195q0 45 3 56q11 20 49 20q57 0 57 -23q0 -56 -35 -175.5t-35 -175.5q0 -39 35 -39q49 0 89 87q16 -3 25.5 -23.5t9.5 -48t-26.5 -55.5t-62.5 -28q-77 0 -96 73q-8 34 -8 137z" />
    <glyph glyph-name="upsilondieresistonos" unicode="&#x3b0;" horiz-adv-x="563" 
d="M438 586q0 -18 -14 -32.5t-32 -14.5t-31 14.5t-13 32.5t13 32t31 14t32 -14t14 -32zM343 684q0 -17 -7 -25l-106 -144l-21 4l61 186q8 21 36 21q37 0 37 -42zM172 586q0 -18 -13.5 -32.5t-32.5 -14.5t-33 14.5t-14 32.5t14 32t33 14t32.5 -14t13.5 -32zM521 237
q0 -100 -76.5 -176.5t-172 -76.5t-157.5 54q-61 55 -61 143q0 28 14.5 84.5t14.5 86t-19.5 43t-19.5 30.5q0 13 34 25q27 13 48.5 13t35.5 -29q10 -20 10 -54.5t-18.5 -107t-18.5 -120.5t31 -94.5t87 -46.5q80 0 131 90q43 76 43 156.5t-37 144.5l-39 55q7 9 15 9
q58 0 109 -88q46 -76 46 -141z" />
    <glyph glyph-name="alpha" unicode="&#x3b1;" horiz-adv-x="627" 
d="M606 95q0 -38 -17 -69q-19 -37 -57.5 -37t-67.5 62q-12 23 -32 100q-39 -76 -85.5 -119t-122.5 -43t-126.5 63.5t-50.5 145.5q0 106 51 183q58 88 160 88q142 0 156 -180l65 168h102l-132 -279q11 -38 38 -67.5t59 -29.5t58 38q2 -14 2 -24zM391 254q0 59 -28 102
q-35 50 -89 50q-71 0 -114 -88q-36 -72 -36 -150q0 -148 86 -148q54 0 117.5 94.5t63.5 139.5z" />
    <glyph glyph-name="beta" unicode="&#x3b2;" 
d="M508 214q0 -94 -62 -157.5t-157 -63.5t-172 107q1 -48 21 -155q17 -104 17 -150q0 -24 -57 -24q-44 0 -44 48q0 37 4 80l6 67q3 24 4 38q4 31 4 92.5t-4.5 173t-4.5 179.5q0 261 217 261q74 0 124 -37q55 -43 55 -114q0 -105 -66 -152q53 -24 84 -77t31 -116zM245 451
l55 -4q36 0 67 48.5t31 89t-27 69t-70 28.5q-189 0 -185 -493v-53q66 -89 141.5 -89t124 60.5t48.5 131.5q0 97 -61 152q-54 -36 -118 -36q-17 0 -29.5 14.5t-12.5 32.5q0 49 36 49z" />
    <glyph glyph-name="gamma" unicode="&#x3b3;" horiz-adv-x="538" 
d="M537 407l-6 -17l-81 -40q-34 -20 -69 -71q-78 -109 -78 -263q0 -38 13 -103.5t13 -102.5q0 -47 -50.5 -47t-50.5 38t16 109t16 112q0 101 -46 212q-57 138 -141 138q-36 0 -70 -19q-3 13 -3 27q0 39 26.5 61.5t68.5 22.5q88 0 141 -143q27 -71 51 -216q6 101 58 221
q65 147 147 147q45 0 45 -66z" />
    <glyph glyph-name="delta" unicode="&#x3b4;" horiz-adv-x="561" 
d="M515 573q0 -18 -17 -38.5t-36 -27.5q-214 172 -289 172q-11 0 -22 -8t-11 -17q0 -33 97 -94q135 -89 181 -133q97 -93 97 -196t-76.5 -170.5t-175.5 -67.5t-161 60q-62 62 -62 157t58 158t153 63q47 0 91 -21l-139 104q-98 77 -98 120t31 63.5t79 20.5t174 -52t126 -93z
M416 239q0 163 -129 163q-73 0 -113.5 -63t-40.5 -133t33 -127.5t96.5 -57.5t108.5 73.5t45 144.5z" />
    <glyph glyph-name="epsilon" unicode="&#x3b5;" horiz-adv-x="479" 
d="M447 136q10 -67 -74 -111q-65 -35 -139 -35t-126 33q-60 37 -60 111t74 112q-60 30 -60 97.5t58 101.5q47 27 105 27t122 -11q82 -18 82 -45q0 -14 -13.5 -38.5t-25 -24.5t-64.5 16.5t-84 16.5q-138 0 -138 -66q0 -21 18.5 -39t36.5 -18t48 9.5t47 9.5q53 0 53 -35
q0 -44 -66 -44q-20 0 -38 6l-40 14q-26 0 -49.5 -19.5t-23.5 -42.5q0 -43 58 -65q44 -18 94 -18q119 0 205 58z" />
    <glyph glyph-name="zeta" unicode="&#x3b6;" horiz-adv-x="441" 
d="M127 685l-3 -35q0 -31 31 -47q25 -15 58 -15t78.5 55t82.5 55q18 0 32.5 -13.5t14.5 -31.5t-92.5 -79t-141.5 -125q-82 -106 -82 -247q0 -99 83 -123l155 -21q83 -20 83 -112q0 -70 -47.5 -126t-118.5 -56q-27 0 -46 14t-19 35t13.5 32t32.5 11l66 -14q31 0 54 17t23 44
q0 59 -47 73q-18 6 -94 6q-104 0 -152 48.5t-48 148t51.5 200.5t127.5 184q-27 -7 -71 -7t-82.5 27t-38.5 75q0 21 16 38.5t37 17.5q44 0 44 -29z" />
    <glyph glyph-name="eta" unicode="&#x3b7;" horiz-adv-x="529" 
d="M498 287q0 -46 -10.5 -152.5t-10.5 -153t10 -102.5t10 -85q0 -14 -16.5 -23t-35.5 -9q-62 0 -62 89q0 76 36.5 225.5t36.5 227.5q0 92 -64 92q-102 0 -157 -248q-20 -98 -29 -147h-79l34 118q20 75 20 116q0 130 -70 130q-11 0 -25 -9t-19 -9q-15 0 -23.5 19t-8.5 40.5
t17 39.5t44 18q94 0 108 -194q22 84 55 130q43 64 117 64q122 0 122 -177z" />
    <glyph glyph-name="theta" unicode="&#x3b8;" horiz-adv-x="520" 
d="M424 580q42 -98 42 -226.5t-37 -224.5q-52 -139 -165.5 -139t-166.5 125q-38 90 -38 226.5t38 233.5q53 135 169 135q103 0 158 -130zM154 418l224 -2q-6 120 -18 163q-26 108 -96 108q-58 0 -86 -111q-18 -66 -24 -158zM381 339v43h-231v-95q0 -109 15 -166
q26 -107 101 -107q62 0 93 138q22 89 22 187z" />
    <glyph glyph-name="iota" unicode="&#x3b9;" horiz-adv-x="308" 
d="M76 199l-4 195q0 48 3 57q9 20 57.5 20t48.5 -22q0 -57 -35 -176t-35 -176q0 -38 35 -38q48 0 89 86q16 -2 25.5 -22t9.5 -48.5t-26 -56t-63 -27.5q-76 0 -97 73q-8 30 -8 135z" />
    <glyph glyph-name="kappa" unicode="&#x3ba;" horiz-adv-x="551" 
d="M474 104q18 0 37.5 -23.5t19.5 -44t-33 -35.5q-28 -14 -51 -14q-110 0 -110 201q0 24 3 53q-63 -63 -148 -156l-32 -60q-22 -33 -56 -33q-18 0 -32.5 16t-14.5 34q0 29 47 71l69 59q5 42 5 69q0 136 -71 136q-6 0 -17.5 -6t-15.5 -6q-31 0 -31 39q0 27 22 46.5t49 19.5
q95 0 95 -174q0 -42 -6 -97q141 143 153 165l36 69q26 39 64 39q18 0 30.5 -15t12.5 -34q0 -38 -52 -89l-81 -73q3 -77 9 -105q13 -75 52 -75q5 0 22.5 11.5t24.5 11.5z" />
    <glyph glyph-name="lambda" unicode="&#x3bb;" horiz-adv-x="505" 
d="M511 44q0 -21 -15 -40.5t-35 -19.5q-51 0 -91 87q-30 68 -53 176l-27 143q-49 -142 -170 -390h-97q229 451 229 508q0 78 -56 98q-24 10 -113 10q-33 0 -44 10.5t-11 42.5q0 20 23.5 29.5t43.5 9.5q90 0 152 -98q47 -70 84 -210l51 -195q18 -46 44 -75.5t55.5 -53.5
t29.5 -32z" />
    <glyph glyph-name="uni03BC" unicode="&#x3bc;" horiz-adv-x="602" 
d="M562 122q3 -10 3 -35.5t-18.5 -60t-55 -34.5t-60.5 38q-19 28 -24 73q-63 -111 -147 -111q-53 0 -95 36t-60 89q-4 -29 -4 -73.5t22 -98.5q10 -28 36 -71.5t26 -63.5q0 -38 -51 -38t-67 55q-8 29 -8 84.5t9.5 144t9.5 129.5t-6 102t-6 100t11.5 62t51.5 23t40 -45
q0 -33 -17 -109t-17 -130q0 -142 94 -142q157 0 157 342q0 84 38 84q35 0 44 -14t9 -52q0 -146 -53 -269q17 -65 58 -65q47 0 80 50z" />
    <glyph glyph-name="nu" unicode="&#x3bd;" horiz-adv-x="465" 
d="M361 479q73 -42 73 -149.5t-69.5 -199t-168.5 -155.5h-19q3 30 3 61q0 107 -42 194q-24 52 -72 114t-48 79t18 31.5t30 14.5q76 0 120 -170q31 -123 28 -233q69 50 112.5 151t43.5 191q0 38 -9 71z" />
    <glyph glyph-name="xi" unicode="&#x3be;" horiz-adv-x="488" 
d="M258 67l111 5q56 0 89.5 -36t33.5 -102t-50 -117.5t-124 -51.5q-63 0 -63 51q0 18 11.5 31t27.5 13t44 -9t43 -9q32 0 53 23t21 54q0 72 -97 72q-26 0 -59 -4t-49 -4q-81 0 -135 42q-57 47 -57 128t92 167q-68 47 -68 105q0 73 113 153l-19 -1q-41 -1 -77.5 23t-36.5 65
q0 21 16 38t37 17q43 0 43 -28l-2 -35q0 -53 63 -54q118 98 185 98t67 -42.5t-85 -61.5q-127 -27 -157 -41q-84 -42 -84 -142q0 -45 36 -71q79 54 157 54t78 -45q0 -57 -148 -57q-51 0 -78 8q-74 -51 -74 -138q0 -98 142 -98z" />
    <glyph glyph-name="omicron" unicode="&#x3bf;" 
d="M450 406q63 -66 63 -168t-66 -176q-71 -77 -171 -77t-167 66q-66 66 -66 173t65 178t173 71t169 -67zM381 105q37 75 37 151.5t-24 124.5q-30 60 -93 60q-77 0 -127 -92q-39 -78 -39 -153.5t29 -125.5q34 -60 97 -60q73 0 120 95z" />
    <glyph glyph-name="pi" unicode="&#x3c0;" horiz-adv-x="649" 
d="M618 456v-87h-164q-9 -67 -9 -127q0 -158 78 -158q49 0 77 45q2 -10 2 -18q0 -38 -25 -81t-61 -43q-115 0 -115 225q0 42 9 157h-161q-3 -177 -6 -216q-16 -166 -79 -166q-14 0 -37 18t-23 27t31 57.5t55 116t24 164.5h-48q-43 0 -64.5 -13t-61.5 -53l-12 16
q16 64 58.5 100t102.5 36h429z" />
    <glyph glyph-name="rho" unicode="&#x3c1;" horiz-adv-x="544" 
d="M292 470q98 0 162.5 -63t64.5 -167.5t-66 -180t-176 -75.5q-129 0 -197 143q0 -89 33 -162q20 -46 63 -98q33 -43 33 -60t-17 -30.5t-39 -13.5q-69 0 -96 155q-16 89 -16 216.5t56 222.5q68 113 195 113zM388 104q36 74 36 151t-24 123q-31 61 -93 61q-81 0 -129 -92
q-40 -76 -40 -154t33 -128.5t97 -50.5q74 0 120 90z" />
    <glyph glyph-name="uni03C2" unicode="&#x3c2;" horiz-adv-x="450" 
d="M245 -144l66 -14q34 0 56.5 18t22.5 49q0 67 -90 76q-148 17 -167 25q-89 39 -89 178.5t117 212.5q97 63 247 63q26 0 26 -40.5t-12 -48.5t-49 -8q-115 0 -192 -36q-100 -49 -100 -153q0 -76 90 -95q47 -6 169 -23q90 -26 90 -115q0 -69 -48.5 -125t-117.5 -56
q-28 0 -46.5 13.5t-18.5 34.5t13.5 32.5t32.5 11.5z" />
    <glyph glyph-name="sigma" unicode="&#x3c3;" horiz-adv-x="567" 
d="M551 461q11 -14 11 -37.5t-14 -40.5h-159q50 -14 84.5 -55t34.5 -90q0 -99 -65 -173t-167 -74t-169 62q-65 62 -65 173.5t83 173t201 61.5h225zM416 261q0 39 -16 75q-19 52 -51 52q-225 0 -225 -195q0 -61 31 -114.5t89 -53.5q77 0 128 82q44 71 44 154z" />
    <glyph glyph-name="tau" unicode="&#x3c4;" horiz-adv-x="469" 
d="M461 462v-89l-185 4q-18 -120 -18 -191q0 -33 21 -65t55 -32q48 0 78 46q1 -5 1 -19q0 -38 -24.5 -80.5t-62.5 -42.5q-115 0 -115 161q0 44 6 92.5t9 75.5t5 41t2 19q-104 -5 -118 -7q-57 -10 -101 -54l-13 16q2 9 53 69q27 32 54 44t72 12h281z" />
    <glyph glyph-name="upsilon" unicode="&#x3c5;" horiz-adv-x="563" 
d="M521 245q0 -101 -76.5 -177.5t-171.5 -76.5t-156 53q-62 56 -62 144q0 28 14 86t14 86t-19.5 41.5t-19.5 30.5q0 13 31 25.5t52.5 12.5t34.5 -28q10 -20 10 -54.5t-18.5 -108t-18.5 -121t31.5 -94t87.5 -46.5q80 0 130 90q43 76 43 156.5t-37 145.5q-26 36 -38 54
q6 10 14 10q58 0 109 -88q46 -77 46 -141z" />
    <glyph glyph-name="phi" unicode="&#x3c6;" horiz-adv-x="665" 
d="M291 28l-4 154q0 133 28 202q37 97 131 97q84 0 135.5 -67.5t51.5 -153.5q0 -124 -86 -196q-76 -64 -204 -74q1 -27 9.5 -83t8.5 -85q0 -55 -43 -55q-54 0 -54 54q0 28 11 88t12 80q-253 28 -253 229q0 82 54 168q60 98 138 98q26 0 26 -28t-14 -62q-119 -45 -119 -204
q0 -74 47.5 -118t124.5 -44zM339 192l2 -88q0 -41 2 -79q90 18 141 87t51 165q0 57 -21 100q-25 58 -76 58q-99 0 -99 -243z" />
    <glyph glyph-name="chi" unicode="&#x3c7;" horiz-adv-x="483" 
d="M527 -161q0 -29 -33 -50q-31 -22 -63 -22q-75 0 -117 124q-16 48 -40 185l-157 -297h-94q63 101 211 384q-20 66 -52 128q-45 87 -89 87q-16 0 -31.5 -12.5t-18.5 -12.5q-15 0 -26 14t-11 30q0 34 20.5 54t54.5 20q101 0 171 -279q81 157 130 266h92l-181 -344
q15 -74 41 -147q40 -115 74 -115q14 0 28 18t36 18t38.5 -15.5t16.5 -33.5z" />
    <glyph glyph-name="psi" unicode="&#x3c8;" horiz-adv-x="694" 
d="M302 -228q-9 10 -9 43t18 163q-131 10 -201 93q-67 76 -67 208q0 53 19 104q23 74 66 74q18 0 39 -8t21 -23.5t-29 -76.5t-29 -118q0 -90 46.5 -153.5t133.5 -67.5q5 78 5 342q0 52 -9 152.5t-9 148.5q0 22 14.5 35.5t37.5 13.5q44 0 44 -38q0 -92 -17.5 -278.5
t-14.5 -290.5l1 -85q96 19 145 103t49 188q0 28 -16.5 83t-16.5 76t19 21q40 0 71 -90q29 -78 29 -123q0 -125 -75.5 -200.5t-202.5 -87.5q16 -125 16 -160.5t-7.5 -48.5t-34.5 -13t-36 14z" />
    <glyph glyph-name="omega" unicode="&#x3c9;" horiz-adv-x="730" 
d="M684 212q0 -96 -49.5 -157.5t-142.5 -61.5q-43 0 -79.5 23.5t-54.5 62.5q-52 -87 -135 -87t-126 70t-43 150t42 161q49 94 117 94q38 0 38 -38q0 -16 -36 -53t-52 -64q-31 -50 -31 -110t22 -105q26 -59 76 -59q27 0 67.5 21t39.5 47q-22 32 -22 106.5t49 74.5t49 -50
q0 -25 -15 -72t-15 -59q0 -26 31.5 -48.5t58.5 -22.5q58 0 92 61q32 53 32 121t-30 125q-13 23 -45.5 60t-36.5 41t-4 7q0 20 19 20q63 0 123.5 -94.5t60.5 -163.5z" />
    <glyph glyph-name="iotadieresis" unicode="&#x3ca;" horiz-adv-x="308" 
d="M74 194l-4 195q0 45 3 56q9 20 57.5 20t48.5 -23q0 -58 -35.5 -176.5t-35.5 -174.5q0 -39 36 -39q48 0 89 87q16 -3 25.5 -23.5t9.5 -48t-27 -55.5t-62 -28q-76 0 -97 73q-8 34 -8 137zM283 579q0 -49 -48.5 -49t-48.5 49t48.5 49t48.5 -49zM88 579q0 -49 -49 -49t-49 49
t49 49t49 -49z" />
    <glyph glyph-name="upsilondieresis" unicode="&#x3cb;" horiz-adv-x="563" 
d="M521 237q0 -100 -76.5 -176.5t-172 -76.5t-157.5 54q-61 55 -61 143q0 28 14.5 84.5t14.5 86t-19.5 43t-19.5 30.5q0 13 34 25q27 13 48.5 13t35.5 -29q10 -20 10 -54.5t-18.5 -107t-18.5 -120.5t31 -94.5t87 -46.5q80 0 131 90q43 76 43 156.5t-37 144.5l-39 55
q7 9 15 9q58 0 109 -88q46 -76 46 -141zM412 579q0 -49 -51 -49q-47 0 -47 49t47 49q51 0 51 -49zM215 579q0 -49 -49 -49t-49 49t49 49t49 -49z" />
    <glyph glyph-name="omicrontonos" unicode="&#x3cc;" 
d="M413 674q0 -22 -14 -36l-131 -135l-23 3l97 181q11 20 36 20q35 0 35 -33zM279 473q97 0 160.5 -56.5t71 -163t-59.5 -184t-152 -83.5q-102 -7 -175 49q-74 60 -82.5 169.5t56.5 189.5q66 79 181 79zM377 104q39 76 39 151.5t-24 126.5q-28 59 -88 59t-101.5 -48
t-62.5 -134q-8 -40 -8 -73q0 -67 30 -116q35 -60 97 -60q73 0 118 94z" />
    <glyph glyph-name="upsilontonos" unicode="&#x3cd;" horiz-adv-x="563" 
d="M415 673q0 -22 -13 -35l-133 -135l-20 3l96 181q11 20 37 20q33 0 33 -34zM521 237q0 -100 -76.5 -176.5t-172 -76.5t-157.5 54q-61 55 -61 143q0 28 14.5 84.5t14.5 86t-19.5 43t-19.5 30.5q0 13 34 25q27 13 48.5 13t35.5 -29q10 -20 10 -54.5t-18.5 -107t-18.5 -120.5
t31 -94.5t87 -46.5q80 0 131 90q43 76 43 156.5t-37 144.5l-39 55q7 9 15 9q58 0 109 -88q46 -76 46 -141z" />
    <glyph glyph-name="omegatonos" unicode="&#x3ce;" horiz-adv-x="730" 
d="M516 674q0 -23 -13 -36l-131 -135l-23 3l97 181q11 20 37 20q33 0 33 -33zM677 205q0 -96 -49 -157.5t-142 -61.5q-44 0 -80 23.5t-55 62.5q-49 -87 -132.5 -87t-127.5 69.5t-44 150t42 161.5q50 95 117 95q38 0 38 -39q0 -16 -36 -52.5t-52 -63.5q-31 -52 -31 -111.5
t22 -104.5q27 -59 76 -59q27 0 68 21.5t41 46.5q-24 35 -24 108t49 73q31 0 40 -14t9 -43t-14.5 -70.5t-14.5 -53.5q0 -27 31 -49t59 -22q55 0 89.5 57t34.5 127t-30 123q-13 22 -31 43l-46 50q-10 12 -10 17q0 18 20 18q62 0 122.5 -94.5t60.5 -163.5z" />
    <glyph glyph-name="uni03D0" unicode="&#x3d0;" horiz-adv-x="495" 
d="M290 703q93 0 142 -58q37 -41 37.5 -96t-23 -98.5t-63.5 -65.5q90 -55 92 -175q2 -96 -59 -159q-66 -72 -172 -62.5t-168 104.5q-53 86 -58 215q-3 156 67 269q77 126 205 126zM357 374q-47 -24 -98 -24q-16 0 -28.5 1.5t-23 17.5t-8.5 36q3 43 36 43q8 0 31 -5l29 -6
q41 -5 77 43t37 100q4 81 -73 90q-89 12 -175.5 -134.5t-86.5 -292.5q0 -181 147 -199q78 -8 127 52.5t51.5 143t-42.5 134.5z" />
    <glyph glyph-name="uni03D1" unicode="&#x3d1;" horiz-adv-x="520" 
d="M145 301l-6 -129q0 -149 98 -155q59 -2 94 65q45 84 46 257v25q-115 4 -208 54q-112 59 -107 151q2 59 51.5 99.5t125.5 40.5q216 -2 226 -331l48 -11l-9 -32q-18 8 -38 15q2 -184 -75 -282q-64 -82 -158 -81q-93 3 -134 46q-32 35 -39 104v129q0 32 -19 45t-19 27.5
t26 26.5q25 13 46 13t36 -25.5t15 -51.5zM377 389q-9 149 -45 225q-32 66 -76 70t-79.5 -37t-35.5 -92q0 -133 236 -166z" />
    <glyph glyph-name="phi1" unicode="&#x3d5;" horiz-adv-x="594" 
d="M325 442q-11 -159 -11 -179t-2.5 -108.5t3.5 -145.5q69 6 112 99q36 78 36 151.5t-24 121.5q-32 60 -94 60q-14 0 -20 1zM337 -185q0 -54 -46 -52q-42 0 -42 52q0 29 9.5 91.5t10.5 76.5v2q-104 0 -171 65q-65 67 -65 172.5t61 174.5t165 75q-1 22 -1 63q0 70 35 70
t35 -70q0 -19 -2 -63q107 0 168 -67q63 -66 63 -168.5t-70.5 -178t-170.5 -73.5l1 -2q3 -30 11.5 -82.5t8.5 -85.5zM261 438q-64 -16 -105 -103q-33 -72 -33 -143.5t30 -120.5q34 -61 98 -61h20q5 70 2.5 145.5t-2.5 110.5t-10 172z" />
    <glyph glyph-name="omega1" unicode="&#x3d6;" horiz-adv-x="788" 
d="M785 462v-85l-115 1q70 -89 70 -166q0 -96 -48 -156q-51 -66 -144 -66q-42 0 -79 24.5t-55 64.5q-56 -90 -137.5 -90t-129.5 73q-42 67 -38 155.5t64 163.5q-104 -4 -160 -60l-13 16q2 8 52 69q27 32 55 44t71 12h607zM621 95q32 53 32 122q0 92 -56 161l-321 4
q-41 -43 -57 -70q-31 -50 -31 -123t29 -112t69 -40t74.5 22.5t32.5 46.5q-23 34 -23 107.5t49.5 73.5t49.5 -50q0 -25 -15 -72t-15 -59q0 -26 31.5 -50t58.5 -24q57 0 92 63z" />
    <glyph glyph-name="uni03D8" unicode="&#x3d8;" horiz-adv-x="718" 
d="M645 435q0 -70 -20 -116.5t-63 -84.5q-64 -56 -151 -68v-135h93v-31h-286v31h94v136q-84 13 -144 67q-43 38 -63 84.5t-20 116.5t20 117t63 85q79 70 197 70t197 -70q43 -38 63 -85t20 -117zM495 267q40 70 40 168.5t-40 168.5q-46 72 -130 72t-130 -72
q-40 -70 -40 -168.5t40 -168.5q46 -72 130 -72t130 72z" />
    <glyph glyph-name="uni03D9" unicode="&#x3d9;" horiz-adv-x="554" 
d="M296 -14l15 -154q8 -62 -38.5 -62t-39.5 61q8 45 19 155q-94 9 -152 73q-57 64 -57 168t65 175t173 71t169 -67q63 -66 63 -166t-62 -173t-155 -81zM385 99q29 66 29 151t-39 143t-101 52q-69 -10 -106 -88q-30 -65 -30 -150q0 -25 1 -37q9 -66 43 -112
q43 -55 105.5 -47.5t97.5 88.5z" />
    <glyph glyph-name="uni03DA" unicode="&#x3da;" horiz-adv-x="713" 
d="M159 203q47 -49 114 -49t111 37h99v-191h-99v157q-44 -31 -105 -31q-86 0 -141 52q-85 78 -85 215q0 76 23.5 137t65.5 97q73 62 203 62h336v-85h-316q-136 0 -182 -27q-80 -48 -80 -182t56 -192z" />
    <glyph glyph-name="uni03DB" unicode="&#x3db;" horiz-adv-x="669" 
d="M245 -144l66 -14q34 0 56.5 18t22.5 49q0 67 -90 76q-148 17 -167 25q-89 39 -89 177.5t117 212.5q99 62 247 61l154 -1q16 0 21 -11t5 -36q0 -46 -24 -46h-191q-109 0 -192 -39q-100 -46 -100 -150q0 -76 90 -95q47 -6 169 -23q90 -26 90 -115q0 -69 -47 -122t-119 -59
q-26 -2 -45.5 12.5t-19.5 35.5t13.5 32.5t32.5 11.5z" />
    <glyph glyph-name="uni03DC" unicode="&#x3dc;" horiz-adv-x="646" 
d="M609 458l2 -203h-31q-7 89 -47.5 129t-134.5 41l-171 2v-289h240v-160h-32q0 61 -24 93.5t-62 32.5h-122v-303h93v-31h-276v31h94v626h-94v31h565z" />
    <glyph glyph-name="uni03DE" unicode="&#x3de;" horiz-adv-x="758" 
d="M718 31v-31h-278v31h94v314h-396v313h-94v31h276v-31h-93v-278l398 -1v-348h93z" />
    <glyph glyph-name="uni03DF" unicode="&#x3df;" horiz-adv-x="0" 
d="M313 -271q-34 0 -53.5 23t-17.5 53q2 19 95 223l-296 -30q-18 -2 -18 29q0 16 7 29l369 592q43 69 83 69q20 0 33.5 -13.5t13.5 -37t-18 -47.5l-76 -90l-81 -100l-113 -149l-139 -191l251 25q39 4 39 -31q0 -15 -24 -64q-70 -137 -70 -176q0 -25 19 -25q5 0 15.5 6.5
t26 6.5t24.5 -9t9 -25q0 -32 -22.5 -50t-56.5 -18z" />
    <glyph glyph-name="Sampigreek" unicode="&#x3e0;" horiz-adv-x="926" 
d="M612 -12q-95 0 -95 75q0 41 25 98l26 60q30 71 70 139q-66 20 -138 20l-300 -534q-29 -51 -43 -68t-25.5 -17t-20.5 4q-20 8 -20 25t31 66l334 521q-95 -1 -177 -43q-72 -41 -132 -111.5t-74 -78.5q-24 -12 -36 -12q-22 0 -22 22q0 11 6 26q23 65 106 134q105 84 221 106
q76 15 147 15q119 0 225 -54q75 -38 118 -111.5t43 -164.5t-54.5 -191.5t-141.5 -142.5q-37 -18 -75 -18t-62.5 23t-24.5 54t7.5 54t21.5 23l31 -37q28 -37 99.5 -28t120 97.5t48.5 167.5t-53.5 151.5t-129.5 90.5q-93 -174 -93 -235q0 -20 10.5 -31.5t22 -11.5t32 8.5
t31.5 8.5q41 0 41 -25q0 -35 -32 -55t-68 -20z" />
    <glyph glyph-name="uni03E1" unicode="&#x3e1;" horiz-adv-x="618" 
d="M585 -20l-2 -64h-51v47q0 170 -49 287l-251 -206l-17 20l257 209q-20 45 -83 120l-262 -213l-17 20l260 211q-119 119 -370 119l-2 16q40 5 76 5q246 0 381.5 -162t129.5 -409z" />
    <glyph glyph-name="uni04D2" unicode="&#x4d2;" horiz-adv-x="748" 
d="M501 744q-20 0 -34 14t-14 34t14 34t34 14t34 -14t14 -34t-14 -34t-34 -14zM324.5 758q-13.5 -14 -34 -14t-34.5 14t-14 34t14 34t34.5 14t34 -14t13.5 -34t-13.5 -34zM725 31v-31h-260v31h80l-68 197h-241l-38 -90q-18 -46 -18 -67.5t6 -30.5t63 -9v-31h-218v31
q52 -1 75.5 13.5t51.5 93.5l217 570h40l236 -677h74zM250 266h213l-99 293z" />
    <glyph glyph-name="uni04D3" unicode="&#x4d3;" horiz-adv-x="500" 
d="M480 28v-28h-160v82q-89 -94 -168 -94q-53 0 -85 31q-35 31 -35 88q0 79 61 118q46 28 129 43l98 17q2 71 -12 104q-20 47 -69 47q-85 0 -86 -57q0 -10 11.5 -23.5t11.5 -14.5q1 -15 -14.5 -25t-28.5 -7q-50 0 -49 55.5t69 83.5q42 16 89 16q79 0 118 -44q39 -48 39 -152
v-218q0 -10 7 -16t16 -6h58zM320 122v130q-87 -11 -143 -33q-26 -10 -43 -37t-17 -59t22.5 -54t54 -23.5t67 21t59.5 55.5zM387 579q0 -49 -48.5 -49t-48.5 49t48.5 49t48.5 -49zM192 579q0 -49 -49 -49t-49 49t49 49t49 -49z" />
    <glyph glyph-name="Odieresiscyrillic" unicode="&#x4e6;" horiz-adv-x="718" 
d="M581 607q82 -98 82 -256.5t-86 -261.5t-214.5 -103t-220.5 105q-90 106 -88 261.5t88.5 255t222 99.5t216.5 -100zM363 21q93 0 141 89t48 236.5t-42 231.5q-50 98 -153.5 98t-151.5 -93q-40 -79 -40 -236q0 -326 198 -326zM466 744q-20 0 -34 14t-14 34t14 34t34 14
t34 -14t14 -34t-14 -34t-34 -14zM289.5 758q-13.5 -14 -34 -14t-34.5 14t-14 34t14 34t34.5 14t34 -14t13.5 -34t-13.5 -34z" />
    <glyph glyph-name="odieresiscyrillic" unicode="&#x4e7;" 
d="M442 402q64 -63 64 -166.5t-71 -173.5t-186 -72q-91 -1 -154 63q-60 65 -60 171.5t67 174.5t182 68q95 0 158 -65zM289 22q63 0 94.5 53t31.5 137.5t-43 153.5q-44 68 -109 68q-137 0 -137 -175q0 -93 34 -157q43 -80 129 -80zM416 556q0 -49 -48.5 -49t-48.5 49t48.5 49
t48.5 -49zM221 556q0 -49 -49 -49t-49 49t49 49t49 -49z" />
    <glyph glyph-name="Wgrave" unicode="&#x1e80;" horiz-adv-x="1010" 
d="M1020 709v-31q-53 2 -71.5 -11t-30.5 -29.5t-25 -66.5l-167 -570h-40l-184 545l-211 -545h-40l-171 677h-74v31h263v-31h-76l117 -514l213 545h31l180 -529l111 391q17 59 17 76t-10.5 24t-56.5 7v31h225zM423 874l133 -134h-38l-140 87q-39 24 -39 45q0 33 32 33
q21 0 52 -31z" />
    <glyph glyph-name="wgrave" unicode="&#x1e81;" horiz-adv-x="807" 
d="M309 661q0 36 33 36q25 0 36 -20l97 -181l-20 -5l-134 136q-12 13 -12 34zM771 429v28h-183v-28h50q17 0 17 -15q0 -11 -7 -28l-105 -293l-117 375h-33l-138 -375l-86 307q-1 3 -1 9q0 20 25 20h46v28h-231v-28h32q28 0 34 -22l130 -407h51l125 322l114 -322h49l155 386
q19 43 47 43h26z" />
    <glyph glyph-name="Wacute" unicode="&#x1e82;" horiz-adv-x="1010" 
d="M1020 707v-31q-53 2 -71.5 -11t-30.5 -29.5t-25 -66.5l-167 -570h-40l-184 545l-211 -545h-40l-171 677h-74v31h263v-31h-76l117 -514l213 545h31l180 -529l111 391q17 59 17 76t-10.5 24t-56.5 7v31h225zM699 908q0 -21 -13 -34l-133 -136l-21 5l97 181q11 20 37 20
q33 0 33 -36z" />
    <glyph glyph-name="wacute" unicode="&#x1e83;" horiz-adv-x="790" 
d="M771 457v-28h-26q-28 0 -47 -43l-155 -386h-49l-114 322l-125 -322h-51l-130 407q-6 22 -34 22h-32v28h231v-28h-46q-25 0 -25 -20q0 -6 1 -9l86 -307l138 375h33l117 -375l105 293q7 17 7 28q0 15 -17 15h-50v28h183zM568 667q0 -21 -13 -34l-133 -136l-21 5l97 181
q11 20 37 20q33 0 33 -36z" />
    <glyph glyph-name="Wdieresis" unicode="&#x1e84;" horiz-adv-x="1010" 
d="M1020 707v-31q-53 2 -71.5 -11t-30.5 -29.5t-25 -66.5l-167 -570h-40l-184 545l-211 -545h-40l-171 677h-74v31h263v-31h-76l117 -514l213 545h31l180 -529l111 391q17 59 17 76t-10.5 24t-56.5 7v31h225zM640 744q-20 0 -34 14t-14 34t14 34t34 14t34 -14t14 -34
t-14 -34t-34 -14zM463.5 758q-13.5 -14 -34 -14t-34.5 14t-14 34t14 34t34.5 14t34 -14t13.5 -34t-13.5 -34z" />
    <glyph glyph-name="wdieresis" unicode="&#x1e85;" horiz-adv-x="790" 
d="M771 457v-28h-26q-28 0 -47 -43l-155 -386h-49l-114 322l-125 -322h-51l-130 407q-6 22 -34 22h-32v28h231v-28h-46q-25 0 -25 -20q0 -6 1 -9l86 -307l138 375h33l117 -375l105 293q7 17 7 28q0 15 -17 15h-50v28h183zM559 574q0 -49 -48.5 -49t-48.5 49t48.5 49
t48.5 -49zM364 574q0 -49 -49 -49t-49 49t49 49t49 -49z" />
    <glyph glyph-name="Adotbelow" unicode="&#x1ea0;" horiz-adv-x="748" 
d="M725 31v-31h-260v31h80l-68 197h-241l-38 -90q-18 -46 -18 -67.5t6 -30.5t63 -9v-31h-218v31q52 -1 75.5 13.5t51.5 93.5l217 570h40l236 -677h74zM250 266h213l-99 293zM388.5 -143.5q15.5 -15.5 15.5 -37.5t-16 -37.5t-38 -15.5t-38 15.5t-16 37.5t16 37.5t38.5 15.5
t38 -15.5z" />
    <glyph glyph-name="adotbelow" unicode="&#x1ea1;" horiz-adv-x="500" 
d="M480 28v-28h-160v82q-89 -94 -168 -94q-53 0 -85 31q-35 31 -35 88q0 79 61 118q46 28 129 43l98 17q2 71 -12 104q-20 47 -69 47q-85 0 -86 -57q0 -10 11.5 -23.5t11.5 -14.5q1 -15 -14.5 -25t-28.5 -7q-50 0 -49 55.5t69 83.5q42 16 89 16q79 0 118 -44q39 -48 39 -152
v-218q0 -10 7 -16t16 -6h58zM320 122v130q-87 -11 -143 -33q-26 -10 -43 -37t-17 -59t22.5 -54t54 -23.5t67 21t59.5 55.5zM285.5 -138.5q15.5 -15.5 15.5 -37.5t-16 -37.5t-38 -15.5t-38 15.5t-16 37.5t16 37.5t38.5 15.5t38 -15.5z" />
    <glyph glyph-name="Ahookabove" unicode="&#x1ea2;" horiz-adv-x="748" 
d="M725 31v-31h-260v31h80l-68 197h-241l-38 -90q-18 -46 -18 -67.5t6 -30.5t63 -9v-31h-218v31q52 -1 75.5 13.5t51.5 93.5l217 570h40l236 -677h74zM250 266h213l-99 293zM398 763q0 -3 6.5 -14t-6.5 -11q-9 0 -15 9t-6 22t27 45t27 47q0 39 -42 34q-19 -1 -33 -27
q-6 -10 -15 -10q-12 0 -12 17t16.5 33t36.5 20q11 4 31 4t39.5 -17t19.5 -43.5t-37 -62.5t-37 -46z" />
    <glyph glyph-name="ahookabove" unicode="&#x1ea3;" horiz-adv-x="500" 
d="M480 28v-28h-160v82q-89 -94 -168 -94q-53 0 -85 31q-35 31 -35 88q0 79 61 118q46 28 129 43l98 17q2 71 -12 104q-20 47 -69 47q-85 0 -86 -57q0 -10 11.5 -23.5t11.5 -14.5q1 -15 -14.5 -25t-28.5 -7q-50 0 -49 55.5t69 83.5q42 16 89 16q79 0 118 -44q39 -48 39 -152
v-218q0 -10 7 -16t16 -6h58zM320 122v130q-87 -11 -143 -33q-26 -10 -43 -37t-17 -59t22.5 -54t54 -23.5t67 21t59.5 55.5zM252 542q0 -3 6.5 -14t-6.5 -11q-9 0 -15 9t-6 22.5t27 44.5t27 47q0 38 -42 34q-19 -2 -33 -27q-6 -10 -15 -10q-12 0 -12 17t16.5 33t36.5 20
q11 4 31 4t39.5 -17t19.5 -43.5t-37 -62.5t-37 -46z" />
    <glyph glyph-name="Acircumflexacute" unicode="&#x1ea4;" horiz-adv-x="748" 
d="M725 31v-31h-260v31h80l-68 197h-241l-38 -90q-18 -46 -18 -67.5t6 -30.5t63 -9v-31h-218v31q52 -1 75.5 13.5t51.5 93.5l217 570h40l236 -677h74zM250 266h213l-99 293zM749 910q0 -20 -12 -34l-132 -136l-22 3l97 182q10 19 36 19q33 0 33 -34zM429 905l122 -164h-34
l-119 101l-117 -101h-35l122 164h61z" />
    <glyph glyph-name="acircumflexacute" unicode="&#x1ea5;" horiz-adv-x="500" 
d="M480 28v-28h-160v82q-89 -94 -168 -94q-53 0 -85 31q-35 31 -35 88q0 79 61 118q46 28 129 43l98 17q2 71 -12 104q-20 47 -69 47q-85 0 -86 -57q0 -10 11.5 -23.5t11.5 -14.5q1 -15 -14.5 -25t-28.5 -7q-50 0 -49 55.5t69 83.5q42 16 89 16q79 0 118 -44q39 -48 39 -152
v-218q0 -10 7 -16t16 -6h58zM320 122v130q-87 -11 -143 -33q-26 -10 -43 -37t-17 -59t22.5 -54t54 -23.5t67 21t59.5 55.5zM254 691l122 -164h-34l-119 101l-117 -101h-35l122 164h61zM565 699q0 -20 -12 -34l-132 -136l-22 3l97 182q10 19 36 19q33 0 33 -34z" />
    <glyph glyph-name="Acircumflexgrave" unicode="&#x1ea6;" horiz-adv-x="748" 
d="M725 31v-31h-260v31h80l-68 197h-241l-38 -90q-18 -46 -18 -67.5t6 -30.5t63 -9v-31h-218v31q52 -1 75.5 13.5t51.5 93.5l217 570h40l236 -677h74zM250 266h213l-99 293zM551 921l99 -182h-25l-138 135q-12 14 -12 31q0 37 38 37q27 0 38 -21zM430 906l122 -164h-34
l-119 101l-117 -101h-35l122 164h61z" />
    <glyph glyph-name="acircumflexgrave" unicode="&#x1ea7;" horiz-adv-x="500" 
d="M480 28v-28h-160v82q-89 -94 -168 -94q-53 0 -85 31q-35 31 -35 88q0 79 61 118q46 28 129 43l98 17q2 71 -12 104q-20 47 -69 47q-85 0 -86 -57q0 -10 11.5 -23.5t11.5 -14.5q1 -15 -14.5 -25t-28.5 -7q-50 0 -49 55.5t69 83.5q42 16 89 16q79 0 118 -44q39 -48 39 -152
v-218q0 -10 7 -16t16 -6h58zM320 122v130q-87 -11 -143 -33q-26 -10 -43 -37t-17 -59t22.5 -54t54 -23.5t67 21t59.5 55.5zM392 701l99 -182h-25l-138 135q-12 14 -12 31q0 37 38 37q28 0 38 -21zM271 690l122 -164h-34l-119 101l-117 -101h-35l122 164h61z" />
    <glyph glyph-name="Acircumflexhookabove" unicode="&#x1ea8;" horiz-adv-x="748" 
d="M725 31v-31h-260v31h80l-68 197h-241l-38 -90q-18 -46 -18 -67.5t6 -30.5t63 -9v-31h-218v31q52 -1 75.5 13.5t51.5 93.5l217 570h40l236 -677h74zM250 266h213l-99 293zM607 768q0 -3 6.5 -14t-6.5 -11q-9 0 -15 9t-6 22.5t27 44.5t27 47q0 39 -42 34q-20 -2 -33 -27
q-6 -10 -15 -10q-12 0 -12 17t16.5 33t36.5 20q11 4 31 4t39.5 -17t19.5 -43.5t-37 -62.5t-37 -46zM432 908l122 -164h-34l-119 101l-117 -101h-35l122 164h61z" />
    <glyph glyph-name="acircumflexhookabove" unicode="&#x1ea9;" horiz-adv-x="500" 
d="M480 28v-28h-160v82q-89 -94 -168 -94q-53 0 -85 31q-35 31 -35 88q0 79 61 118q46 28 129 43l98 17q2 71 -12 104q-20 47 -69 47q-85 0 -86 -57q0 -10 11.5 -23.5t11.5 -14.5q1 -15 -14.5 -25t-28.5 -7q-50 0 -49 55.5t69 83.5q42 16 89 16q79 0 118 -44q39 -48 39 -152
v-218q0 -10 7 -16t16 -6h58zM320 122v130q-87 -11 -143 -33q-26 -10 -43 -37t-17 -59t22.5 -54t54 -23.5t67 21t59.5 55.5zM269 688l122 -164h-34l-119 101l-117 -101h-35l122 164h61zM431 550q0 -3 6.5 -14t-6.5 -11q-9 0 -15 9t-6 22.5t27 44.5t27 47q0 38 -42 34
q-20 -2 -33 -27q-6 -10 -15 -10q-12 0 -12 17t16.5 33t36.5 20q11 4 31 4t39.5 -17t19.5 -43.5t-37 -62.5t-37 -46z" />
    <glyph glyph-name="Acircumflextilde" unicode="&#x1eaa;" horiz-adv-x="748" 
d="M725 31v-31h-260v31h80l-68 197h-241l-38 -90q-18 -46 -18 -67.5t6 -30.5t63 -9v-31h-218v31q52 -1 75.5 13.5t51.5 93.5l217 570h40l236 -677h74zM250 266h213l-99 293zM431 905l122 -164h-34l-119 101l-117 -101h-35l122 164h61zM547 1044h17q-5 -104 -93 -104
q-31 0 -87.5 19.5t-78.5 19.5t-38 -12t-18 -29h-18q6 96 90 96q29 0 89 -17t88 -17q38 0 49 44z" />
    <glyph glyph-name="acircumflextilde" unicode="&#x1eab;" horiz-adv-x="500" 
d="M480 28v-28h-160v82q-89 -94 -168 -94q-53 0 -85 31q-35 31 -35 88q0 79 61 118q46 28 129 43l98 17q2 71 -12 104q-20 47 -69 47q-85 0 -86 -57q0 -10 11.5 -23.5t11.5 -14.5q1 -15 -14.5 -25t-28.5 -7q-50 0 -49 55.5t69 83.5q42 16 89 16q79 0 118 -44q39 -48 39 -152
v-218q0 -10 7 -16t16 -6h58zM320 122v130q-87 -11 -143 -33q-26 -10 -43 -37t-17 -59t22.5 -54t54 -23.5t67 21t59.5 55.5zM275 686l122 -164h-34l-119 101l-117 -101h-35l122 164h61zM400 832h17q-5 -104 -93 -104q-31 0 -87.5 19.5t-78.5 19.5t-38 -12t-18 -29h-18
q6 96 90 96q29 0 89 -17t88 -17q38 0 49 44z" />
    <glyph glyph-name="Acircumflexdotbelow" unicode="&#x1eac;" horiz-adv-x="748" 
d="M725 31v-31h-260v31h80l-68 197h-241l-38 -90q-18 -46 -18 -67.5t6 -30.5t63 -9v-31h-218v31q52 -1 75.5 13.5t51.5 93.5l217 570h40l236 -677h74zM250 266h213l-99 293zM405.5 -142.5q15.5 -15.5 15.5 -37.5t-16 -37.5t-38 -15.5t-38 15.5t-16 37.5t16 37.5t38.5 15.5
t38 -15.5zM425 903l122 -164h-34l-119 101l-117 -101h-35l122 164h61z" />
    <glyph glyph-name="acircumflexdotbelow" unicode="&#x1ead;" horiz-adv-x="500" 
d="M480 28v-28h-160v82q-89 -94 -168 -94q-53 0 -85 31q-35 31 -35 88q0 79 61 118q46 28 129 43l98 17q2 71 -12 104q-20 47 -69 47q-85 0 -86 -57q0 -10 11.5 -23.5t11.5 -14.5q1 -15 -14.5 -25t-28.5 -7q-50 0 -49 55.5t69 83.5q42 16 89 16q79 0 118 -44q39 -48 39 -152
v-218q0 -10 7 -16t16 -6h58zM320 122v130q-87 -11 -143 -33q-26 -10 -43 -37t-17 -59t22.5 -54t54 -23.5t67 21t59.5 55.5zM272 690l122 -164h-34l-119 101l-117 -101h-35l122 164h61zM273.5 -142.5q15.5 -15.5 15.5 -37.5t-16 -37.5t-38 -15.5t-38 15.5t-16 37.5t16 37.5
t38.5 15.5t38 -15.5z" />
    <glyph glyph-name="Abreveacute" unicode="&#x1eae;" horiz-adv-x="748" 
d="M725 31v-31h-260v31h80l-68 197h-241l-38 -90q-18 -46 -18 -67.5t6 -30.5t63 -9v-31h-218v31q52 -1 75.5 13.5t51.5 93.5l217 570h40l236 -677h74zM250 266h213l-99 293zM545 895l2 -4q0 -66 -40.5 -109.5t-106.5 -43.5t-107 42t-41 111l2 4h26q19 -94 121 -94t118 94h26
zM552 999q0 -22 -13 -35l-132 -135l-22 3l97 181q11 20 37 20q33 0 33 -34z" />
    <glyph glyph-name="abreveacute" unicode="&#x1eaf;" horiz-adv-x="500" 
d="M480 28v-28h-160v82q-89 -94 -168 -94q-53 0 -85 31q-35 31 -35 88q0 79 61 118q46 28 129 43l98 17q2 71 -12 104q-20 47 -69 47q-85 0 -86 -57q0 -10 11.5 -23.5t11.5 -14.5q1 -15 -14.5 -25t-28.5 -7q-50 0 -49 55.5t69 83.5q42 16 89 16q79 0 118 -44q39 -48 39 -152
v-218q0 -10 7 -16t16 -6h58zM320 122v130q-87 -11 -143 -33q-26 -10 -43 -37t-17 -59t22.5 -54t54 -23.5t67 21t59.5 55.5zM379 659q4 -133 -131 -133q-133 0 -132 133q4 4 10 4t9 -4q18 -80 113 -80t113 80q3 4 9 4t9 -4zM397 795q0 -21 -12 -34l-132 -136l-22 3l97 182
q10 19 36 19q33 0 33 -34z" />
    <glyph glyph-name="Abrevegrave" unicode="&#x1eb0;" horiz-adv-x="748" 
d="M725 31v-31h-260v31h80l-68 197h-241l-38 -90q-18 -46 -18 -67.5t6 -30.5t63 -9v-31h-218v31q52 -1 75.5 13.5t51.5 93.5l217 570h40l236 -677h74zM250 266h213l-99 293zM540 901l3 -4q0 -66 -40.5 -110t-107 -44t-107.5 42.5t-41 111.5l3 4h26q19 -94 120.5 -94
t117.5 94h26zM319 1026l99 -182h-25l-138 135q-12 13 -12 31q0 37 39 37q26 0 37 -21z" />
    <glyph glyph-name="abrevegrave" unicode="&#x1eb1;" horiz-adv-x="500" 
d="M480 28v-28h-160v82q-89 -94 -168 -94q-53 0 -85 31q-35 31 -35 88q0 79 61 118q46 28 129 43l98 17q2 71 -12 104q-20 47 -69 47q-85 0 -86 -57q0 -10 11.5 -23.5t11.5 -14.5q1 -15 -14.5 -25t-28.5 -7q-50 0 -49 55.5t69 83.5q42 16 89 16q79 0 118 -44q39 -48 39 -152
v-218q0 -10 7 -16t16 -6h58zM320 122v130q-87 -11 -143 -33q-26 -10 -43 -37t-17 -59t22.5 -54t54 -23.5t67 21t59.5 55.5zM368 659q4 -133 -131 -133q-133 0 -132 133q4 4 10 4t9 -4q18 -80 113 -80t113 80q3 4 9 4t9 -4zM162 794l99 -182h-25l-138 135q-12 13 -12 31
q0 37 38 37q28 0 38 -21z" />
    <glyph glyph-name="Abrevehookabove" unicode="&#x1eb2;" horiz-adv-x="748" 
d="M725 31v-31h-260v31h80l-68 197h-241l-38 -90q-18 -46 -18 -67.5t6 -30.5t63 -9v-31h-218v31q52 -1 75.5 13.5t51.5 93.5l217 570h40l236 -677h74zM250 266h213l-99 293zM542 895l2 -4q0 -66 -40.5 -109.5t-106.5 -43.5t-107 42t-41 111l2 4h26q19 -94 120.5 -94
t117.5 94h27zM400 850q4 -7 2 -11.5t-8.5 -4.5t-13 9.5t-6.5 23t27.5 44.5t27.5 47q0 38 -43 34q-19 -1 -33 -28q-4 -10 -14 -10q-13 0 -13 17.5t16 32.5q26 24 57.5 24t51 -17t19.5 -43t-37 -62t-37 -46q0 -3 4 -10z" />
    <glyph glyph-name="abrevehookabove" unicode="&#x1eb3;" horiz-adv-x="500" 
d="M480 28v-28h-160v82q-89 -94 -168 -94q-53 0 -85 31q-35 31 -35 88q0 79 61 118q46 28 129 43l98 17q2 71 -12 104q-20 47 -69 47q-85 0 -86 -57q0 -10 11.5 -23.5t11.5 -14.5q1 -15 -14.5 -25t-28.5 -7q-50 0 -49 55.5t69 83.5q42 16 89 16q79 0 118 -44q39 -48 39 -152
v-218q0 -10 7 -16t16 -6h58zM320 122v130q-87 -11 -143 -33q-26 -10 -43 -37t-17 -59t22.5 -54t54 -23.5t67 21t59.5 55.5zM384 661q4 -133 -131 -133q-133 0 -132 133q4 4 10 4t9 -4q18 -80 113 -80t113 80q3 4 9 4t9 -4zM255 632q0 -3 6.5 -14t-6.5 -11q-9 0 -15 9
t-6 22.5t27 44.5t27 47q0 38 -42 34q-20 -2 -33 -27q-6 -10 -15 -10q-12 0 -12 17t16.5 33t36.5 20q11 4 31 4t39.5 -17t19.5 -43.5t-37 -62.5t-37 -46z" />
    <glyph glyph-name="Abrevetilde" unicode="&#x1eb4;" horiz-adv-x="748" 
d="M725 31v-31h-260v31h80l-68 197h-241l-38 -90q-18 -46 -18 -67.5t6 -30.5t63 -9v-31h-218v31q52 -1 75.5 13.5t51.5 93.5l217 570h40l236 -677h74zM250 266h213l-99 293zM534 898l3 -3q0 -66 -40.5 -110t-107 -44t-107.5 42.5t-41 111.5l3 3h26q20 -93 121 -93t117 93h26
zM534 1033h17q-5 -104 -93 -104q-31 0 -87.5 19.5t-78.5 19.5t-38 -12t-18 -29h-18q6 96 90 96q29 0 89 -17t88 -17q38 0 49 44z" />
    <glyph glyph-name="abrevetilde" unicode="&#x1eb5;" horiz-adv-x="500" 
d="M480 28v-28h-160v82q-89 -94 -168 -94q-53 0 -85 31q-35 31 -35 88q0 79 61 118q46 28 129 43l98 17q2 71 -12 104q-20 47 -69 47q-85 0 -86 -57q0 -10 11.5 -23.5t11.5 -14.5q1 -15 -14.5 -25t-28.5 -7q-50 0 -49 55.5t69 83.5q42 16 89 16q79 0 118 -44q39 -48 39 -152
v-218q0 -10 7 -16t16 -6h58zM320 122v130q-87 -11 -143 -33q-26 -10 -43 -37t-17 -59t22.5 -54t54 -23.5t67 21t59.5 55.5zM380 664q4 -133 -131 -133q-133 0 -132 133q4 4 10 4t9 -4q18 -80 113 -80t113 80q3 4 9 4t9 -4zM402 794h17q-5 -104 -93 -104q-31 0 -87.5 19.5
t-78.5 19.5t-38 -12t-18 -29h-18q6 96 90 96q29 0 89 -17t88 -17q38 0 49 44z" />
    <glyph glyph-name="Abrevedotbelow" unicode="&#x1eb6;" horiz-adv-x="748" 
d="M725 31v-31h-260v31h80l-68 197h-241l-38 -90q-18 -46 -18 -67.5t6 -30.5t63 -9v-31h-218v31q52 -1 75.5 13.5t51.5 93.5l217 570h40l236 -677h74zM250 266h213l-99 293zM537 893l3 -3q0 -66 -40.5 -110t-107 -44t-107.5 42.5t-41 111.5l3 3h26q19 -93 120 -93t118 93h26
zM405.5 -150.5q15.5 -15.5 15.5 -37.5t-16 -37.5t-38 -15.5t-38 15.5t-16 37.5t16 37.5t38.5 15.5t38 -15.5z" />
    <glyph glyph-name="abrevedotbelow" unicode="&#x1eb7;" horiz-adv-x="500" 
d="M480 28v-28h-160v82q-89 -94 -168 -94q-53 0 -85 31q-35 31 -35 88q0 79 61 118q46 28 129 43l98 17q2 71 -12 104q-20 47 -69 47q-85 0 -86 -57q0 -10 11.5 -23.5t11.5 -14.5q1 -15 -14.5 -25t-28.5 -7q-50 0 -49 55.5t69 83.5q42 16 89 16q79 0 118 -44q39 -48 39 -152
v-218q0 -10 7 -16t16 -6h58zM320 122v130q-87 -11 -143 -33q-26 -10 -43 -37t-17 -59t22.5 -54t54 -23.5t67 21t59.5 55.5zM373 661q4 -133 -131 -133q-133 0 -132 133q4 4 10 4t9 -4q18 -80 113 -80t113 80q3 4 9 4t9 -4zM286.5 -142.5q15.5 -15.5 15.5 -37.5t-16 -37.5
t-38 -15.5t-38 15.5t-16 37.5t16 37.5t38.5 15.5t38 -15.5z" />
    <glyph glyph-name="Edotbelow" unicode="&#x1eb8;" horiz-adv-x="699" 
d="M611 239h32l-11 -239h-581v31h94v627h-94v31h565l2 -203h-31q-7 87 -48 127.5t-134 42.5l-171 2v-290h122q43 0 64 25q23 32 23 93h31v-277h-31q0 59 -24.5 92t-62.5 33h-122v-303l187 3q28 0 67.5 15t58.5 34q60 56 64 156zM395.5 -145.5q15.5 -15.5 15.5 -37.5
t-16 -37.5t-38 -15.5t-38 15.5t-16 37.5t16 37.5t38.5 15.5t38 -15.5z" />
    <glyph glyph-name="edotbelow" unicode="&#x1eb9;" horiz-adv-x="465" 
d="M431 232h-318q0 -88 44 -137q45 -53 132 -53q46 0 119 46l13 -10q-71 -87 -176 -87t-165 63q-56 61 -56 162t60.5 174.5t162.5 73.5q84 0 135 -56.5t51 -138.5q0 -11 -2 -37zM345 268q0 72 -26.5 118t-79.5 46t-89 -43t-36 -119q187 -5 231 -2zM266.5 -145.5
q15.5 -15.5 15.5 -37.5t-16 -37.5t-38 -15.5t-38 15.5t-16 37.5t16 37.5t38.5 15.5t38 -15.5z" />
    <glyph glyph-name="Ehookabove" unicode="&#x1eba;" horiz-adv-x="699" 
d="M611 239h32l-11 -239h-581v31h94v627h-94v31h565l2 -203h-31q-7 87 -48 127.5t-134 42.5l-171 2v-290h122q43 0 64 25q23 32 23 93h31v-277h-31q0 59 -24.5 92t-62.5 33h-122v-303l187 3q28 0 67.5 15t58.5 34q60 56 64 156zM344 763q0 -3 6.5 -14t-6.5 -11q-9 0 -15 9
t-6 22t27 45t27 47q0 39 -42 34q-19 -1 -33 -27q-6 -10 -15 -10q-12 0 -12 17t16.5 33t36.5 20q11 4 31 4t39.5 -17t19.5 -43.5t-37 -62.5t-37 -46z" />
    <glyph glyph-name="ehookabove" unicode="&#x1ebb;" horiz-adv-x="465" 
d="M431 232h-318q0 -88 44 -137q45 -53 132 -53q46 0 119 46l13 -10q-71 -87 -176 -87t-165 63q-56 61 -56 162t60.5 174.5t162.5 73.5q84 0 135 -56.5t51 -138.5q0 -11 -2 -37zM345 268q0 72 -26.5 118t-79.5 46t-89 -43t-36 -119q187 -5 231 -2zM254 554q0 -3 6.5 -14
t-6.5 -11q-9 0 -15 9t-6 22.5t27 44.5t27 47q0 38 -42 34q-19 -2 -33 -27q-6 -10 -15 -10q-12 0 -12 17t16.5 33t36.5 20q11 4 31 4t39.5 -17t19.5 -43.5t-37 -62.5t-37 -46z" />
    <glyph glyph-name="Etilde" unicode="&#x1ebc;" horiz-adv-x="699" 
d="M611 239h32l-11 -239h-581v31h94v627h-94v31h565l2 -203h-31q-7 87 -48 127.5t-134 42.5l-171 2v-290h122q43 0 64 25q23 32 23 93h31v-277h-31q0 59 -24.5 92t-62.5 33h-122v-303l187 3q28 0 67.5 15t58.5 34q60 56 64 156zM512 849h17q-5 -104 -93 -104
q-31 0 -87.5 19.5t-78.5 19.5t-38 -12t-18 -29h-18q6 96 90 96q29 0 89 -17t88 -17q38 0 49 44z" />
    <glyph glyph-name="etilde" unicode="&#x1ebd;" horiz-adv-x="465" 
d="M431 232h-318q0 -88 44 -137q45 -53 132 -53q46 0 119 46l13 -10q-71 -87 -176 -87t-165 63q-56 61 -56 162t60.5 174.5t162.5 73.5q84 0 135 -56.5t51 -138.5q0 -11 -2 -37zM345 268q0 72 -26.5 118t-79.5 46t-89 -43t-36 -119q187 -5 231 -2zM402 634h17
q-5 -104 -93 -104q-31 0 -87.5 19.5t-78.5 19.5t-38 -12t-18 -29h-18q6 96 90 96q29 0 89 -17t88 -17q38 0 49 44z" />
    <glyph glyph-name="Ecircumflexacute" unicode="&#x1ebe;" horiz-adv-x="721" 
d="M611 239h32l-11 -239h-581v31h94v627h-94v31h565l2 -203h-31q-7 87 -48 127.5t-134 42.5l-171 2v-290h122q43 0 64 25q23 32 23 93h31v-277h-31q0 59 -24.5 92t-62.5 33h-122v-303l187 3q28 0 67.5 15t58.5 34q60 56 64 156zM666 913q0 -21 -12 -34l-132 -136l-22 3
l97 182q10 19 36 19q33 0 33 -34zM358 900l122 -164h-34l-119 101l-117 -101h-35l122 164h61z" />
    <glyph glyph-name="ecircumflexacute" unicode="&#x1ebf;" horiz-adv-x="465" 
d="M431 232h-318q0 -88 44 -137q45 -53 132 -53q46 0 119 46l13 -10q-71 -87 -176 -87t-165 63q-56 61 -56 162t60.5 174.5t162.5 73.5q84 0 135 -56.5t51 -138.5q0 -11 -2 -37zM345 268q0 72 -26.5 118t-79.5 46t-89 -43t-36 -119q187 -5 231 -2zM268 688l122 -164h-34
l-119 101l-117 -101h-35l122 164h61zM570 693q0 -21 -12 -34l-132 -136l-22 3l97 182q10 19 36 19q33 0 33 -34z" />
    <glyph glyph-name="Ecircumflexgrave" unicode="&#x1ec0;" horiz-adv-x="699" 
d="M611 239h32l-11 -239h-581v31h94v627h-94v31h565l2 -203h-31q-7 87 -48 127.5t-134 42.5l-171 2v-290h122q43 0 64 25q23 32 23 93h31v-277h-31q0 59 -24.5 92t-62.5 33h-122v-303l187 3q28 0 67.5 15t58.5 34q60 56 64 156zM455 919l99 -182h-25l-138 135q-12 13 -12 31
q0 37 38 37q27 0 38 -21zM339 904l122 -164h-34l-119 101l-117 -101h-35l122 164h61z" />
    <glyph glyph-name="ecircumflexgrave" unicode="&#x1ec1;" horiz-adv-x="465" 
d="M431 232h-318q0 -88 44 -137q45 -53 132 -53q46 0 119 46l13 -10q-71 -87 -176 -87t-165 63q-56 61 -56 162t60.5 174.5t162.5 73.5q84 0 135 -56.5t51 -138.5q0 -11 -2 -37zM345 268q0 72 -26.5 118t-79.5 46t-89 -43t-36 -119q187 -5 231 -2zM269 688l122 -164h-34
l-119 101l-117 -101h-35l122 164h61zM375 703l99 -182h-25l-138 135q-12 14 -12 31q0 37 38 37q27 0 38 -21z" />
    <glyph glyph-name="Ecircumflexhookabove" unicode="&#x1ec2;" horiz-adv-x="699" 
d="M611 239h32l-11 -239h-581v31h94v627h-94v31h565l2 -203h-31q-7 87 -48 127.5t-134 42.5l-171 2v-290h122q43 0 64 25q23 32 23 93h31v-277h-31q0 59 -24.5 92t-62.5 33h-122v-303l187 3q28 0 67.5 15t58.5 34q60 56 64 156zM524 768q0 -3 6.5 -14t-6.5 -11q-9 0 -15 9
t-6 22.5t27 44.5t27 47q0 39 -42 34q-19 -2 -33 -27q-6 -10 -15 -10q-12 0 -12 17t16.5 33t36.5 20q11 4 31 4t39.5 -17t19.5 -43.5t-37 -62.5t-37 -46zM354 903l122 -164h-34l-119 101l-117 -101h-35l122 164h61z" />
    <glyph glyph-name="ecircumflexhookabove" unicode="&#x1ec3;" horiz-adv-x="465" 
d="M431 232h-318q0 -88 44 -137q45 -53 132 -53q46 0 119 46l13 -10q-71 -87 -176 -87t-165 63q-56 61 -56 162t60.5 174.5t162.5 73.5q84 0 135 -56.5t51 -138.5q0 -11 -2 -37zM345 268q0 72 -26.5 118t-79.5 46t-89 -43t-36 -119q187 -5 231 -2zM255 691l122 -164h-34
l-119 101l-117 -101h-35l122 164h61zM413 548q0 -3 6.5 -14t-6.5 -11q-9 0 -15 9t-6 22.5t27 44.5t27 47q0 38 -42 34q-20 -2 -33 -27q-6 -10 -15 -10q-12 0 -12 17t16.5 33t36.5 20q11 4 31 4t39.5 -17t19.5 -43.5t-37 -62.5t-37 -46z" />
    <glyph glyph-name="Ecircumflextilde" unicode="&#x1ec4;" horiz-adv-x="699" 
d="M611 239h32l-11 -239h-581v31h94v627h-94v31h565l2 -203h-31q-7 87 -48 127.5t-134 42.5l-171 2v-290h122q43 0 64 25q23 32 23 93h31v-277h-31q0 59 -24.5 92t-62.5 33h-122v-303l187 3q28 0 67.5 15t58.5 34q60 56 64 156zM483 1040h17q-5 -104 -93 -104
q-31 0 -87.5 19.5t-78.5 19.5t-38 -12t-18 -29h-18q6 96 90 96q29 0 89 -17t88 -17q38 0 49 44zM366 905l122 -164h-34l-119 101l-117 -101h-35l122 164h61z" />
    <glyph glyph-name="ecircumflextilde" unicode="&#x1ec5;" horiz-adv-x="465" 
d="M431 232h-318q0 -88 44 -137q45 -53 132 -53q46 0 119 46l13 -10q-71 -87 -176 -87t-165 63q-56 61 -56 162t60.5 174.5t162.5 73.5q84 0 135 -56.5t51 -138.5q0 -11 -2 -37zM345 268q0 72 -26.5 118t-79.5 46t-89 -43t-36 -119q187 -5 231 -2zM276 691l122 -164h-34
l-119 101l-117 -101h-35l122 164h61zM404 828h17q-5 -104 -93 -104q-31 0 -87.5 19.5t-78.5 19.5t-38 -12t-18 -29h-18q6 96 90 96q29 0 89 -17t88 -17q38 0 49 44z" />
    <glyph glyph-name="Ecircumflexdotbelow" unicode="&#x1ec6;" horiz-adv-x="699" 
d="M611 239h32l-11 -239h-581v31h94v627h-94v31h565l2 -203h-31q-7 87 -48 127.5t-134 42.5l-171 2v-290h122q43 0 64 25q23 32 23 93h31v-277h-31q0 59 -24.5 92t-62.5 33h-122v-303l187 3q28 0 67.5 15t58.5 34q60 56 64 156zM396.5 -148.5q15.5 -15.5 15.5 -37.5
t-16 -37.5t-38 -15.5t-38 15.5t-16 37.5t16 37.5t38.5 15.5t38 -15.5zM374 904l122 -164h-34l-119 101l-117 -101h-35l122 164h61z" />
    <glyph glyph-name="ecircumflexdotbelow" unicode="&#x1ec7;" horiz-adv-x="465" 
d="M431 232h-318q0 -88 44 -137q45 -53 132 -53q46 0 119 46l13 -10q-71 -87 -176 -87t-165 63q-56 61 -56 162t60.5 174.5t162.5 73.5q84 0 135 -56.5t51 -138.5q0 -11 -2 -37zM345 268q0 72 -26.5 118t-79.5 46t-89 -43t-36 -119q187 -5 231 -2zM270 690l122 -164h-34
l-119 101l-117 -101h-35l122 164h61zM277.5 -138.5q15.5 -15.5 15.5 -37.5t-16 -37.5t-38 -15.5t-38 15.5t-16 37.5t16 37.5t38.5 15.5t38 -15.5z" />
    <glyph glyph-name="Ihookabove" unicode="&#x1ec8;" horiz-adv-x="380" 
d="M335 31v-31h-286v31h94v627h-94v31h286v-31h-93v-627h93zM182 763q0 -3 6.5 -14t-6.5 -11q-9 0 -15 9t-6 22t27 45t27 47q0 39 -42 34q-19 -1 -33 -27q-6 -10 -15 -10q-12 0 -12 17t16.5 33t36.5 20q11 4 31 4t39.5 -17t19.5 -43.5t-37 -62.5t-37 -46z" />
    <glyph glyph-name="ihookabove" unicode="&#x1ec9;" horiz-adv-x="297" 
d="M195 456v-406q3 -23 22 -23h58v-27h-242v27h58q19 0 22 23v356q-3 23 -22 23h-58v27h162zM143 544q0 -3 6.5 -14t-6.5 -11q-9 0 -15 9t-6 22.5t27 44.5t27 47q0 38 -42 34q-20 -2 -33 -27q-6 -10 -15 -10q-12 0 -12 17t16.5 33t36.5 20q11 4 31 4t39.5 -17t19.5 -43.5
t-37 -62.5t-37 -46z" />
    <glyph glyph-name="Idotbelow" unicode="&#x1eca;" horiz-adv-x="380" 
d="M335 31v-31h-286v31h94v627h-94v31h286v-31h-93v-627h93zM226.5 -145.5q15.5 -15.5 15.5 -37.5t-16 -37.5t-38 -15.5t-38 15.5t-16 37.5t16 37.5t38.5 15.5t38 -15.5z" />
    <glyph glyph-name="idotbelow" unicode="&#x1ecb;" horiz-adv-x="284" 
d="M181.5 651q15.5 -15 16 -37.5t-16.5 -38.5t-38 -16t-37.5 16t-16.5 36.5t16.5 37.5t38.5 17t37.5 -15zM189 456v-406q0 -23 22 -23h58v-27h-242v27h58q22 0 22 23v356q-3 23 -22 23h-58v27h162zM186.5 -142.5q15.5 -15.5 15.5 -37.5t-16 -37.5t-38 -15.5t-38 15.5
t-16 37.5t16 37.5t38.5 15.5t38 -15.5z" />
    <glyph glyph-name="Odotbelow" unicode="&#x1ecc;" horiz-adv-x="718" 
d="M581 607q82 -98 82 -256.5t-86 -261.5t-214.5 -103t-220.5 105q-90 106 -88 261.5t88.5 255t222 99.5t216.5 -100zM363 21q93 0 141 89t48 236.5t-42 231.5q-50 98 -153.5 98t-151.5 -93q-40 -79 -40 -236q0 -326 198 -326zM397.5 -145.5q15.5 -15.5 15.5 -37.5
t-16 -37.5t-38 -15.5t-38 15.5t-16 37.5t16 37.5t38.5 15.5t38 -15.5z" />
    <glyph glyph-name="odotbelow" unicode="&#x1ecd;" 
d="M442 402q64 -63 64 -166.5t-71 -173.5t-186 -72q-91 -1 -154 63q-60 65 -60 171.5t67 174.5t182 68q95 0 158 -65zM289 22q63 0 94.5 53t31.5 137.5t-43 153.5q-44 68 -109 68q-137 0 -137 -175q0 -93 34 -157q43 -80 129 -80zM310.5 -138.5q15.5 -15.5 15.5 -37.5
t-16 -37.5t-38 -15.5t-38 15.5t-16 37.5t16 37.5t38.5 15.5t38 -15.5z" />
    <glyph glyph-name="Ohookabove" unicode="&#x1ece;" horiz-adv-x="718" 
d="M581 607q82 -98 82 -256.5t-86 -261.5t-214.5 -103t-220.5 105q-90 106 -88 261.5t88.5 255t222 99.5t216.5 -100zM363 21q93 0 141 89t48 236.5t-42 231.5q-50 98 -153.5 98t-151.5 -93q-40 -79 -40 -236q0 -326 198 -326zM371 767q0 -3 6.5 -14t-6.5 -11q-9 0 -15 9
t-6 22t27 45t27 47q0 38 -42 34q-20 -1 -33 -27q-6 -10 -15 -10q-12 0 -12 17t16.5 33t36.5 20q11 4 31 4t39.5 -17t19.5 -43.5t-37 -62.5t-37 -46z" />
    <glyph glyph-name="ohookabove" unicode="&#x1ecf;" 
d="M442 402q64 -63 64 -166.5t-71 -173.5t-186 -72q-91 -1 -154 63q-60 65 -60 171.5t67 174.5t182 68q95 0 158 -65zM289 22q63 0 94.5 53t31.5 137.5t-43 153.5q-44 68 -109 68q-137 0 -137 -175q0 -93 34 -157q43 -80 129 -80zM271 547q0 -3 6.5 -14t-6.5 -11q-9 0 -15 9
t-6 22t27 45t27 47q0 39 -42 34q-20 -1 -33 -27q-6 -10 -15 -10q-12 0 -12 17t16.5 33t36.5 20q11 4 31 4t39.5 -17t19.5 -43.5t-37 -62.5t-37 -46z" />
    <glyph glyph-name="Ocircumflexacute" unicode="&#x1ed0;" horiz-adv-x="723" 
d="M581 607q82 -98 82 -256.5t-86 -261.5t-214.5 -103t-220.5 105q-90 106 -88 261.5t88.5 255t222 99.5t216.5 -100zM363 21q93 0 141 89t48 236.5t-42 231.5q-50 98 -153.5 98t-151.5 -93q-40 -79 -40 -236q0 -326 198 -326zM692 909q0 -21 -12 -34l-132 -136l-22 3
l97 182q10 19 36 19q33 0 33 -34zM385 903l122 -164h-34l-119 101l-117 -101h-35l122 164h61z" />
    <glyph glyph-name="ocircumflexacute" unicode="&#x1ed1;" 
d="M442 402q64 -63 64 -166.5t-71 -173.5t-186 -72q-91 -1 -154 63q-60 65 -60 171.5t67 174.5t182 68q95 0 158 -65zM289 22q63 0 94.5 53t31.5 137.5t-43 153.5q-44 68 -109 68q-137 0 -137 -175q0 -93 34 -157q43 -80 129 -80zM282 690l122 -164h-34l-119 101l-117 -101
h-35l122 164h61zM586 694q0 -20 -12 -34l-132 -136l-22 3l97 182q10 19 36 19q33 0 33 -34z" />
    <glyph glyph-name="Ocircumflexgrave" unicode="&#x1ed2;" horiz-adv-x="723" 
d="M581 607q82 -98 82 -256.5t-86 -261.5t-214.5 -103t-220.5 105q-90 106 -88 261.5t88.5 255t222 99.5t216.5 -100zM363 21q93 0 141 89t48 236.5t-42 231.5q-50 98 -153.5 98t-151.5 -93q-40 -79 -40 -236q0 -326 198 -326zM545 913l99 -182h-25l-138 135q-12 14 -12 31
q0 37 38 37q27 0 38 -21zM385 901l122 -164h-34l-119 101l-117 -101h-35l122 164h61z" />
    <glyph glyph-name="ocircumflexgrave" unicode="&#x1ed3;" 
d="M442 402q64 -63 64 -166.5t-71 -173.5t-186 -72q-91 -1 -154 63q-60 65 -60 171.5t67 174.5t182 68q95 0 158 -65zM289 22q63 0 94.5 53t31.5 137.5t-43 153.5q-44 68 -109 68q-137 0 -137 -175q0 -93 34 -157q43 -80 129 -80zM294 690l122 -164h-34l-119 101l-117 -101
h-35l122 164h61zM454 703l99 -182h-25l-138 135q-12 14 -12 31q0 37 38 37q28 0 38 -21z" />
    <glyph glyph-name="Ocircumflexhookabove" unicode="&#x1ed4;" horiz-adv-x="718" 
d="M581 607q82 -98 82 -256.5t-86 -261.5t-214.5 -103t-220.5 105q-90 106 -88 261.5t88.5 255t222 99.5t216.5 -100zM363 21q93 0 141 89t48 236.5t-42 231.5q-50 98 -153.5 98t-151.5 -93q-40 -79 -40 -236q0 -326 198 -326zM553 770q0 -3 6.5 -14t-6.5 -11q-9 0 -15 9
t-6 22.5t27 44.5t27 47q0 38 -42 34q-20 -2 -33 -27q-6 -10 -15 -10q-12 0 -12 17t16.5 33t36.5 20q11 4 31 4t39.5 -17t19.5 -43.5t-37 -62.5t-37 -46zM390 902l122 -164h-34l-119 101l-117 -101h-35l122 164h61z" />
    <glyph glyph-name="ocircumflexhookabove" unicode="&#x1ed5;" 
d="M442 402q64 -63 64 -166.5t-71 -173.5t-186 -72q-91 -1 -154 63q-60 65 -60 171.5t67 174.5t182 68q95 0 158 -65zM289 22q63 0 94.5 53t31.5 137.5t-43 153.5q-44 68 -109 68q-137 0 -137 -175q0 -93 34 -157q43 -80 129 -80zM294 688l122 -164h-34l-119 101l-117 -101
h-35l122 164h61zM462 551q0 -3 6.5 -14t-6.5 -11q-9 0 -15 9t-6 22t27 45t27 47q0 39 -42 34q-19 -1 -33 -27q-6 -10 -15 -10q-12 0 -12 17t16.5 33t36.5 20q11 4 31 4t39.5 -17t19.5 -43.5t-37 -62.5t-37 -46z" />
    <glyph glyph-name="Ocircumflextilde" unicode="&#x1ed6;" horiz-adv-x="723" 
d="M581 607q82 -98 82 -256.5t-86 -261.5t-214.5 -103t-220.5 105q-90 106 -88 261.5t88.5 255t222 99.5t216.5 -100zM363 21q93 0 141 89t48 236.5t-42 231.5q-50 98 -153.5 98t-151.5 -93q-40 -79 -40 -236q0 -326 198 -326zM503 1045h17q-5 -104 -93 -104
q-31 0 -87.5 19.5t-78.5 19.5t-38 -12t-18 -29h-18q6 96 90 96q29 0 89 -17t88 -17q38 0 49 44zM393 905l122 -164h-34l-119 101l-117 -101h-35l122 164h61z" />
    <glyph glyph-name="ocircumflextilde" unicode="&#x1ed7;" 
d="M442 402q64 -63 64 -166.5t-71 -173.5t-186 -72q-91 -1 -154 63q-60 65 -60 171.5t67 174.5t182 68q95 0 158 -65zM289 22q63 0 94.5 53t31.5 137.5t-43 153.5q-44 68 -109 68q-137 0 -137 -175q0 -93 34 -157q43 -80 129 -80zM303 688l122 -164h-34l-119 101l-117 -101
h-35l122 164h61zM425 828h17q-5 -104 -93 -104q-31 0 -87.5 19.5t-78.5 19.5t-38 -12t-18 -29h-18q6 96 90 96q29 0 89 -17t88 -17q38 0 49 44z" />
    <glyph glyph-name="Ocircumflexdotbelow" unicode="&#x1ed8;" horiz-adv-x="723" 
d="M581 607q82 -98 82 -256.5t-86 -261.5t-214.5 -103t-220.5 105q-90 106 -88 261.5t88.5 255t222 99.5t216.5 -100zM363 21q93 0 141 89t48 236.5t-42 231.5q-50 98 -153.5 98t-151.5 -93q-40 -79 -40 -236q0 -326 198 -326zM398.5 -143.5q15.5 -15.5 15.5 -37.5
t-16 -37.5t-38 -15.5t-38 15.5t-16 37.5t16 37.5t38.5 15.5t38 -15.5zM382 909l122 -164h-34l-119 101l-117 -101h-35l122 164h61z" />
    <glyph glyph-name="ocircumflexdotbelow" unicode="&#x1ed9;" 
d="M442 402q64 -63 64 -166.5t-71 -173.5t-186 -72q-91 -1 -154 63q-60 65 -60 171.5t67 174.5t182 68q95 0 158 -65zM289 22q63 0 94.5 53t31.5 137.5t-43 153.5q-44 68 -109 68q-137 0 -137 -175q0 -93 34 -157q43 -80 129 -80zM307 690l122 -164h-34l-119 101l-117 -101
h-35l122 164h61zM317.5 -143.5q15.5 -15.5 15.5 -37.5t-16 -37.5t-38 -15.5t-38 15.5t-16 37.5t16 37.5t38.5 15.5t38 -15.5z" />
    <glyph glyph-name="Ohornacute" unicode="&#x1eda;" horiz-adv-x="723" 
d="M663 341q0 -149 -86 -252t-214.5 -103t-220.5 105q-90 106 -88 261.5t88.5 255t217.5 99.5q154 0 236 -118q103 12 101 48q-1 37 -45 37q-12 0 -18 -1q-21 11 -21 28.5t12 29.5t28 12q35 0 60.5 -31t25.5 -64q0 -80 -114 -93h-8q46 -88 46 -214zM363 21q93 0 141 89
t48 236.5t-42 231.5q-50 98 -153.5 98t-151.5 -93q-40 -79 -40 -236q0 -326 198 -326zM489 912q0 -21 -13 -34l-133 -136l-21 5l97 181q11 20 37 20q33 0 33 -36z" />
    <glyph glyph-name="ohornacute" unicode="&#x1edb;" horiz-adv-x="556" 
d="M457 386q49 -58 49 -142q0 -112 -71 -182t-186 -72q-91 -1 -154 63q-60 65 -60 171.5t67 174.5t182 68q83 0 141 -49q109 12 107 49.5t-44 37.5q-6 0 -18 -2q-21 12 -21 30t11.5 29t28.5 11q35 0 60.5 -30.5t25.5 -64.5q0 -77 -118 -92zM289 22q63 0 94.5 53t31.5 137.5
t-43 153.5q-44 68 -109 68q-137 0 -137 -175q0 -93 34 -157q43 -80 129 -80zM412 675q0 -21 -12 -34l-132 -136l-22 3l97 182q10 19 36 19q33 0 33 -34z" />
    <glyph glyph-name="uni1EDC" unicode="&#x1edc;" horiz-adv-x="716" 
d="M663 341q0 -149 -86 -252t-214.5 -103t-220.5 105q-90 106 -88 261.5t88.5 255t217.5 99.5q154 0 236 -118q103 12 101 48q-1 37 -45 37q-12 0 -18 -1q-21 11 -21 28.5t12 29.5t28 12q35 0 60.5 -31t25.5 -64q0 -80 -114 -93h-8q46 -88 46 -214zM363 21q93 0 141 89
t48 236.5t-42 231.5q-50 98 -153.5 98t-151.5 -93q-40 -79 -40 -236q0 -326 198 -326zM262 873l133 -134h-38l-140 87q-39 24 -39 45q0 33 32 33q21 0 52 -31z" />
    <glyph glyph-name="uni1EDD" unicode="&#x1edd;" horiz-adv-x="556" 
d="M457 386q49 -58 49 -142q0 -112 -71 -182t-186 -72q-91 -1 -154 63q-60 65 -60 171.5t67 174.5t182 68q83 0 141 -49q109 12 107 49.5t-44 37.5q-6 0 -18 -2q-21 12 -21 30t11.5 29t28.5 11q35 0 60.5 -30.5t25.5 -64.5q0 -77 -118 -92zM289 22q63 0 94.5 53t31.5 137.5
t-43 153.5q-44 68 -109 68q-137 0 -137 -175q0 -93 34 -157q43 -80 129 -80zM207 687l99 -182h-25l-138 135q-12 14 -12 31q0 37 38 37q27 0 38 -21z" />
    <glyph glyph-name="uni1EDE" unicode="&#x1ede;" horiz-adv-x="723" 
d="M663 341q0 -149 -86 -252t-214.5 -103t-220.5 105q-90 106 -88 261.5t88.5 255t217.5 99.5q154 0 236 -118q103 12 101 48q-1 37 -45 37q-12 0 -18 -1q-21 11 -21 28.5t12 29.5t28 12q35 0 60.5 -31t25.5 -64q0 -80 -114 -93h-8q46 -88 46 -214zM363 21q93 0 141 89
t48 236.5t-42 231.5q-50 98 -153.5 98t-151.5 -93q-40 -79 -40 -236q0 -326 198 -326zM387 767q0 -3 6.5 -14t-6.5 -11q-9 0 -15 9t-6 22t27 45t27 47q0 38 -42 34q-20 -1 -33 -27q-6 -10 -15 -10q-12 0 -12 17t16.5 33t36.5 20q11 4 31 4t39.5 -17t19.5 -43.5t-37 -62.5
t-37 -46z" />
    <glyph glyph-name="uni1EDF" unicode="&#x1edf;" horiz-adv-x="575" 
d="M457 386q49 -58 49 -142q0 -112 -71 -182t-186 -72q-91 -1 -154 63q-60 65 -60 171.5t67 174.5t182 68q83 0 141 -49q109 12 107 49.5t-44 37.5q-6 0 -18 -2q-21 12 -21 30t11.5 29t28.5 11q35 0 60.5 -30.5t25.5 -64.5q0 -77 -118 -92zM289 22q63 0 94.5 53t31.5 137.5
t-43 153.5q-44 68 -109 68q-137 0 -137 -175q0 -93 34 -157q43 -80 129 -80zM295 543q0 -3 6.5 -14t-6.5 -11q-9 0 -15 9t-6 22t27 44.5t27 47.5q0 39 -42 34q-20 -1 -33 -27q-6 -10 -15 -10q-12 0 -12 17t16.5 33t36.5 20q11 4 31 4t39.5 -17t19.5 -43.5t-37 -62.5t-37 -46
z" />
    <glyph glyph-name="Ohorntilde" unicode="&#x1ee0;" horiz-adv-x="734" 
d="M663 341q0 -149 -86 -252t-214.5 -103t-220.5 105q-90 106 -88 261.5t88.5 255t217.5 99.5q154 0 236 -118q103 12 101 48q-1 37 -45 37q-12 0 -18 -1q-21 11 -21 28.5t12 29.5t28 12q35 0 60.5 -31t25.5 -64q0 -80 -114 -93h-8q46 -88 46 -214zM363 21q93 0 141 89
t48 236.5t-42 231.5q-50 98 -153.5 98t-151.5 -93q-40 -79 -40 -236q0 -326 198 -326zM502 845h28q0 -38 -31.5 -69.5t-70.5 -31.5q-21 0 -36 6l-20 7q-5 2 -18 9q-45 22 -64 22q-34 0 -51 -44h-28q16 96 106 96q20 0 72 -23q45 -22 63 -20.5t32 15.5q8 9 18 33z" />
    <glyph glyph-name="ohorntilde" unicode="&#x1ee1;" horiz-adv-x="554" 
d="M457 386q49 -58 49 -142q0 -112 -71 -182t-186 -72q-91 -1 -154 63q-60 65 -60 171.5t67 174.5t182 68q83 0 141 -49q109 12 107 49.5t-44 37.5q-6 0 -18 -2q-21 12 -21 30t11.5 29t28.5 11q35 0 60.5 -30.5t25.5 -64.5q0 -77 -118 -92zM289 22q63 0 94.5 53t31.5 137.5
t-43 153.5q-44 68 -109 68q-137 0 -137 -175q0 -93 34 -157q43 -80 129 -80zM394 629h28q0 -38 -31.5 -69.5t-70.5 -31.5q-21 0 -36 6l-20 7q-5 2 -18 9q-45 22 -64 22q-34 0 -51 -44h-28q17 96 106 96q20 0 72 -23q45 -22 63 -20.5t32 15.5q8 9 18 33z" />
    <glyph glyph-name="Ohorndotbelow" unicode="&#x1ee2;" horiz-adv-x="718" 
d="M663 341q0 -149 -86 -252t-214.5 -103t-220.5 105q-90 106 -88 261.5t88.5 255t217.5 99.5q154 0 236 -118q103 12 101 48q-1 37 -45 37q-12 0 -18 -1q-21 11 -21 28.5t12 29.5t28 12q35 0 60.5 -31t25.5 -64q0 -80 -114 -93h-8q46 -88 46 -214zM363 21q93 0 141 89
t48 236.5t-42 231.5q-50 98 -153.5 98t-151.5 -93q-40 -79 -40 -236q0 -326 198 -326zM422.5 -138.5q15.5 -15.5 15.5 -37.5t-16 -37.5t-38 -15.5t-38 15.5t-16 37.5t16 37.5t38.5 15.5t38 -15.5z" />
    <glyph glyph-name="ohorndotbelow" unicode="&#x1ee3;" horiz-adv-x="557" 
d="M457 386q49 -58 49 -142q0 -112 -71 -182t-186 -72q-91 -1 -154 63q-60 65 -60 171.5t67 174.5t182 68q83 0 141 -49q109 12 107 49.5t-44 37.5q-6 0 -18 -2q-21 12 -21 30t11.5 29t28.5 11q35 0 60.5 -30.5t25.5 -64.5q0 -77 -118 -92zM289 22q63 0 94.5 53t31.5 137.5
t-43 153.5q-44 68 -109 68q-137 0 -137 -175q0 -93 34 -157q43 -80 129 -80zM306.5 -142.5q15.5 -15.5 15.5 -37.5t-16 -37.5t-38 -15.5t-38 15.5t-16 37.5t16 37.5t38.5 15.5t38 -15.5z" />
    <glyph glyph-name="Udotbelow" unicode="&#x1ee4;" horiz-adv-x="744" 
d="M723 692v-31q-59 0 -69 -10q-25 -25 -25 -78v-294q0 -160 -55 -227t-201 -67q-118 0 -183.5 71.5t-65.5 162.5v442h-92v31h275v-31h-94v-438q0 -208 189 -208q194 0 194 232v326q0 55 -26 79q-10 9 -67 9v31h220zM429.5 -145.5q15.5 -15.5 15.5 -37.5t-16 -37.5
t-38 -15.5t-38 15.5t-16 37.5t16 37.5t38.5 15.5t38 -15.5z" />
    <glyph glyph-name="udotbelow" unicode="&#x1ee5;" horiz-adv-x="603" 
d="M573 27v-28h-160l-1 81q-62 -93 -177 -93q-91 0 -120 54q-17 31 -17 114v241q-3 34 -34 34h-47v27h163v-292q0 -63 21.5 -90.5t83.5 -27.5q44 0 84 38q40 40 40 75v236q-2 34 -36 34h-46v27h163v-408q0 -11 8.5 -16.5t16.5 -5.5h58zM369.5 -148.5q15.5 -15.5 15.5 -37.5
t-16 -37.5t-38 -15.5t-38 15.5t-16 37.5t16 37.5t38.5 15.5t38 -15.5z" />
    <glyph glyph-name="Uhookabove" unicode="&#x1ee6;" horiz-adv-x="744" 
d="M723 692v-31q-59 0 -69 -10q-25 -25 -25 -78v-294q0 -160 -55 -227t-201 -67q-118 0 -183.5 71.5t-65.5 162.5v442h-92v31h275v-31h-94v-438q0 -208 189 -208q194 0 194 232v326q0 55 -26 79q-10 9 -67 9v31h220zM411 771q0 -3 6.5 -14t-6.5 -11q-9 0 -15 9t-6 22t27 45
t27 47q0 39 -42 34q-20 -1 -33 -27q-6 -10 -15 -10q-12 0 -12 17t16.5 33t36.5 20q11 4 31 4t39.5 -17t19.5 -43.5t-37 -62.5t-37 -46z" />
    <glyph glyph-name="uhookabove" unicode="&#x1ee7;" horiz-adv-x="603" 
d="M573 27v-28h-160l-1 81q-62 -93 -177 -93q-91 0 -120 54q-17 31 -17 114v241q-3 34 -34 34h-47v27h163v-292q0 -63 21.5 -90.5t83.5 -27.5q44 0 84 38q40 40 40 75v236q-2 34 -36 34h-46v27h163v-408q0 -11 8.5 -16.5t16.5 -5.5h58zM291 552q0 -3 6.5 -14t-6.5 -11
q-9 0 -15 9t-6 22.5t27 45t27 46.5q0 38 -42 34q-20 -2 -33 -27q-6 -10 -15 -10q-12 0 -12 17t16.5 33t36.5 20q11 4 31 4t39.5 -17t19.5 -43.5t-37 -62.5t-37 -46z" />
    <glyph glyph-name="Uhornacute" unicode="&#x1ee8;" horiz-adv-x="803" 
d="M825 752q0 -76 -115 -92q-49 -2 -56 -9q-25 -25 -25 -78v-294q0 -160 -55 -227t-201 -67q-118 0 -183.5 71.5t-65.5 162.5v442h-92v31h275v-31h-94v-438q0 -208 189 -208q194 0 194 232v326q0 55 -26 79q-10 9 -67 9v31l123 -1q78 2 104 7q53 11 53 44q-2 38 -44 38
q-9 0 -19 -3q-19 13 -19 31t11 29t28 11q34 0 59.5 -30.5t25.5 -65.5zM495 900q0 -19 -13 -32l-137 -126h-23l101 173q11 18 37 18q35 0 35 -33z" />
    <glyph glyph-name="uhornacute" unicode="&#x1ee9;" horiz-adv-x="545" 
d="M490 426v-377q0 -11 8.5 -16.5t16.5 -5.5h58v-28h-160l-1 81q-62 -93 -177 -93q-91 0 -120 54q-17 31 -17 114v241q-3 34 -34 34h-47v27h163v-292q0 -63 21.5 -90.5t83.5 -27.5q44 0 84 38q40 40 40 75v236q-2 34 -36 34h-46v27h163q29 0 51 14t23 33q2 39 -48 39
q-11 0 -16 -1q-19 12 -19 29t16 28t42.5 6t46.5 -31.5t22 -63t-40 -62.5q-28 -18 -78 -22zM403 674q0 -20 -12 -34l-132 -136l-22 3l97 182q10 19 36 19q33 0 33 -34z" />
    <glyph glyph-name="Uhorngrave" unicode="&#x1eea;" horiz-adv-x="799" 
d="M825 752q0 -76 -115 -92q-49 -2 -56 -9q-25 -25 -25 -78v-294q0 -160 -55 -227t-201 -67q-118 0 -183.5 71.5t-65.5 162.5v442h-92v31h275v-31h-94v-438q0 -208 189 -208q194 0 194 232v326q0 55 -26 79q-10 9 -67 9v31l123 -1q78 2 104 7q53 11 53 44q-2 38 -44 38
q-9 0 -19 -3q-19 13 -19 31t11 29t28 11q34 0 59.5 -30.5t25.5 -65.5zM410 917l86 -178h-25l-130 139q-11 11 -11 26q0 34 41 34q29 0 39 -21z" />
    <glyph glyph-name="uhorngrave" unicode="&#x1eeb;" horiz-adv-x="593" 
d="M490 426v-377q0 -11 8.5 -16.5t16.5 -5.5h58v-28h-160l-1 81q-62 -93 -177 -93q-91 0 -120 54q-17 31 -17 114v241q-3 34 -34 34h-47v27h163v-292q0 -63 21.5 -90.5t83.5 -27.5q44 0 84 38q40 40 40 75v236q-2 34 -36 34h-46v27h163q29 0 51 14t23 33q2 39 -48 39
q-11 0 -16 -1q-19 12 -19 29t16 28t42.5 6t46.5 -31.5t22 -63t-40 -62.5q-28 -18 -78 -22zM242 686l99 -182h-25l-138 135q-12 13 -12 31q0 37 38 37q28 0 38 -21z" />
    <glyph glyph-name="Uhornhookabove" unicode="&#x1eec;" horiz-adv-x="799" 
d="M825 752q0 -76 -115 -92q-49 -2 -56 -9q-25 -25 -25 -78v-294q0 -160 -55 -227t-201 -67q-118 0 -183.5 71.5t-65.5 162.5v442h-92v31h275v-31h-94v-438q0 -208 189 -208q194 0 194 232v326q0 55 -26 79q-10 9 -67 9v31l123 -1q78 2 104 7q53 11 53 44q-2 38 -44 38
q-9 0 -19 -3q-19 13 -19 31t11 29t28 11q34 0 59.5 -30.5t25.5 -65.5zM408 768q0 -3 6.5 -14t-6.5 -11q-9 0 -15 9t-6 22.5t27 44.5t27 47q0 39 -42 34q-19 -2 -33 -27q-6 -10 -15 -10q-12 0 -12 17t16.5 33t36.5 20q11 4 31 4t39.5 -17t19.5 -43.5t-37 -62.5t-37 -46z" />
    <glyph glyph-name="uhornhookabove" unicode="&#x1eed;" horiz-adv-x="595" 
d="M490 426v-377q0 -11 8.5 -16.5t16.5 -5.5h58v-28h-160l-1 81q-62 -93 -177 -93q-91 0 -120 54q-17 31 -17 114v241q-3 34 -34 34h-47v27h163v-292q0 -63 21.5 -90.5t83.5 -27.5q44 0 84 38q40 40 40 75v236q-2 34 -36 34h-46v27h163q29 0 51 14t23 33q2 39 -48 39
q-11 0 -16 -1q-19 12 -19 29t16 28t42.5 6t46.5 -31.5t22 -63t-40 -62.5q-28 -18 -78 -22zM295 540q0 -3 6.5 -14t-6.5 -11q-9 0 -15 9t-6 22.5t27 44.5t27 47q0 38 -42 34q-20 -2 -33 -27q-6 -10 -15 -10q-12 0 -12 17t16.5 33t36.5 20q11 4 31 4t39.5 -17t19.5 -43.5
t-37 -62.5t-37 -46z" />
    <glyph glyph-name="Uhorntilde" unicode="&#x1eee;" horiz-adv-x="792" 
d="M825 752q0 -76 -115 -92q-49 -2 -56 -9q-25 -25 -25 -78v-294q0 -160 -55 -227t-201 -67q-118 0 -183.5 71.5t-65.5 162.5v442h-92v31h275v-31h-94v-438q0 -208 189 -208q194 0 194 232v326q0 55 -26 79q-10 9 -67 9v31l123 -1q78 2 104 7q53 11 53 44q-2 38 -44 38
q-9 0 -19 -3q-19 13 -19 31t11 29t28 11q34 0 59.5 -30.5t25.5 -65.5zM556 844h28q0 -38 -31.5 -69.5t-70.5 -31.5q-21 0 -36 5l-20 8q-5 2 -18 8q-45 23 -64 23q-34 0 -51 -44h-28q17 96 106 96q20 0 72 -23q45 -22 63 -20t32 15q8 9 18 33z" />
    <glyph glyph-name="uhorntilde" unicode="&#x1eef;" horiz-adv-x="587" 
d="M490 426v-377q0 -11 8.5 -16.5t16.5 -5.5h58v-28h-160l-1 81q-62 -93 -177 -93q-91 0 -120 54q-17 31 -17 114v241q-3 34 -34 34h-47v27h163v-292q0 -63 21.5 -90.5t83.5 -27.5q44 0 84 38q40 40 40 75v236q-2 34 -36 34h-46v27h163q29 0 51 14t23 33q2 39 -48 39
q-11 0 -16 -1q-19 12 -19 29t16 28t42.5 6t46.5 -31.5t22 -63t-40 -62.5q-28 -18 -78 -22zM423 625h28q0 -38 -31.5 -69.5t-70.5 -31.5q-21 0 -36 6l-19 7q-6 2 -19 9q-45 22 -64 22q-34 0 -51 -44h-28q16 96 106 96q20 0 72 -23q45 -22 63.5 -20.5t31.5 15.5q7 9 18 33z
" />
    <glyph glyph-name="Uhorndotbelow" unicode="&#x1ef0;" horiz-adv-x="792" 
d="M825 752q0 -76 -115 -92q-49 -2 -56 -9q-25 -25 -25 -78v-294q0 -160 -55 -227t-201 -67q-118 0 -183.5 71.5t-65.5 162.5v442h-92v31h275v-31h-94v-438q0 -208 189 -208q194 0 194 232v326q0 55 -26 79q-10 9 -67 9v31l123 -1q78 2 104 7q53 11 53 44q-2 38 -44 38
q-9 0 -19 -3q-19 13 -19 31t11 29t28 11q34 0 59.5 -30.5t25.5 -65.5zM439.5 -143.5q15.5 -15.5 15.5 -37.5t-16 -37.5t-38 -15.5t-38 15.5t-16 37.5t16 37.5t38.5 15.5t38 -15.5z" />
    <glyph glyph-name="uhorndotbelow" unicode="&#x1ef1;" horiz-adv-x="591" 
d="M490 426v-377q0 -11 8.5 -16.5t16.5 -5.5h58v-28h-160l-1 81q-62 -93 -177 -93q-91 0 -120 54q-17 31 -17 114v241q-3 34 -34 34h-47v27h163v-292q0 -63 21.5 -90.5t83.5 -27.5q44 0 84 38q40 40 40 75v236q-2 34 -36 34h-46v27h163q29 0 51 14t23 33q2 39 -48 39
q-11 0 -16 -1q-19 12 -19 29t16 28t42.5 6t46.5 -31.5t22 -63t-40 -62.5q-28 -18 -78 -22zM315.5 -142.5q15.5 -15.5 15.5 -37.5t-16 -37.5t-38 -15.5t-38 15.5t-16 37.5t16 37.5t38.5 15.5t38 -15.5z" />
    <glyph glyph-name="Ygrave" unicode="&#x1ef2;" horiz-adv-x="684" 
d="M666 689l1 -37q-59 2 -74 -14q-21 -19 -50 -81l-145 -281v-246l96 1v-32l-282 1v31l92 -1v241l-220 387h-76v31h261v-31h-74l181 -335l114 223q30 52 30 79q0 12 -16 25q-8 8 -58 6l1 33h219zM251 877l133 -134h-38l-140 87q-39 24 -39 45q0 33 32 33q21 0 52 -31z" />
    <glyph glyph-name="ygrave" unicode="&#x1ef3;" 
d="M134 665q0 34 33 34q27 0 37 -18l97 -183l-22 -3l-132 135q-13 13 -13 35zM69 407q150 -354 154.5 -372t9.5 -33.5t6 -23.5q-9 -37 -26 -73q-10 -30 -39 -64q-20 -20 -29.5 -23.5t-22 -0.5t-17 4t-7.5 1q-5 1 -10 3q-44 3 -48 -32q-6 -25 13.5 -35t40 -10t37.5 6t49 35.5
t72 124.5q16 39 31 87l167 386q18 43 46 43h26v27h-182v-27h50q17 0 17 -16q0 -12 -6 -27l-118 -297l-119 310q-3 6 -3 11q0 19 26 19h47v27h-231v-27h31q26 0 35 -23z" />
    <glyph glyph-name="Ydotbelow" unicode="&#x1ef4;" horiz-adv-x="683" 
d="M680 689l1 -37q-59 2 -74 -14q-21 -19 -50 -81l-145 -281v-246l96 1v-32l-282 1v31l92 -1v241l-220 387h-76v31h261v-31h-74l181 -335l114 223q30 52 30 79q0 12 -16 25q-8 8 -58 6l1 33h219zM406.5 -142.5q15.5 -15.5 15.5 -37.5t-16 -37.5t-38 -15.5t-38 15.5t-16 37.5
t16 37.5t38.5 15.5t38 -15.5z" />
    <glyph glyph-name="ydotbelow" unicode="&#x1ef5;" 
d="M69 407q-9 23 -35 23h-31v27h231v-27h-47q-26 0 -26 -19q0 -5 3 -11l119 -310l118 297q6 15 6 27q0 16 -17 16h-50v27h182v-27h-26q-28 0 -46 -43l-167 -386q-15 -48 -31 -87q-40 -95 -72 -124.5t-49 -35.5t-37.5 -6t-40 10t-13.5 35q4 35 48 32q11 -4 29 -7.5t27.5 0
t29.5 23.5q29 34 39 64q17 36 26 73q-1 8 -6 23.5t-9.5 33.5t-154.5 372zM483.5 -140.5q15.5 -15.5 15.5 -37.5t-16 -37.5t-38 -15.5t-38 15.5t-16 37.5t16 37.5t38.5 15.5t38 -15.5z" />
    <glyph glyph-name="Yhookabove" unicode="&#x1ef6;" horiz-adv-x="683" 
d="M660 689l1 -37q-59 2 -74 -14q-21 -19 -50 -81l-145 -281v-246l96 1v-32l-282 1v31l92 -1v241l-220 387h-76v31h261v-31h-74l181 -335l114 223q30 52 30 79q0 12 -16 25q-8 8 -58 6l1 33h219zM373 764q0 -3 6.5 -14t-6.5 -11q-9 0 -15 9t-6 22.5t27 44.5t27 47
q0 38 -42 34q-20 -2 -33 -27q-6 -10 -15 -10q-12 0 -12 17t16.5 33t36.5 20q11 4 31 4t39.5 -17t19.5 -43.5t-37 -62.5t-37 -46z" />
    <glyph glyph-name="yhookabove" unicode="&#x1ef7;" 
d="M69 407q-9 23 -35 23h-31v27h231v-27h-47q-26 0 -26 -19q0 -5 3 -11l119 -310l118 297q6 15 6 27q0 16 -17 16h-50v27h182v-27h-26q-28 0 -46 -43l-167 -386q-15 -48 -31 -87q-40 -95 -72 -124.5t-49 -35.5t-37.5 -6t-40 10t-13.5 35q4 35 48 32q11 -4 29 -7.5t27.5 0
t29.5 23.5q29 34 39 64q17 36 26 73q-1 8 -6 23.5t-9.5 33.5t-154.5 372zM296 543q0 -3 6.5 -14t-6.5 -11q-9 0 -15 9t-6 22t27 44.5t27 47.5q0 39 -42 34q-19 -1 -33 -27q-6 -10 -15 -10q-12 0 -12 17t16.5 33t36.5 20q11 4 31 4t39.5 -17t19.5 -43.5t-37 -62.5t-37 -46z
" />
    <glyph glyph-name="Ytilde" unicode="&#x1ef8;" horiz-adv-x="684" 
d="M666 689l1 -37q-59 2 -74 -14q-21 -19 -50 -81l-145 -281v-246l96 1v-32l-282 1v31l92 -1v241l-220 387h-76v31h261v-31h-74l181 -335l114 223q30 52 30 79q0 12 -16 25q-8 8 -58 6l1 33h219zM505 841h28q0 -38 -31.5 -69.5t-70.5 -31.5q-21 0 -36 6l-19 7q-6 2 -19 9
q-45 22 -64 22q-34 0 -51 -44h-28q16 96 106 96q20 0 72 -23q45 -22 63.5 -20.5t31.5 15.5q7 9 18 33z" />
    <glyph glyph-name="ytilde" unicode="&#x1ef9;" 
d="M69 407q-9 23 -35 23h-31v27h231v-27h-47q-26 0 -26 -19q0 -5 3 -11l119 -310l118 297q6 15 6 27q0 16 -17 16h-50v27h182v-27h-26q-28 0 -46 -43l-167 -386q-15 -48 -31 -87q-40 -95 -72 -124.5t-49 -35.5t-37.5 -6t-40 10t-13.5 35q4 35 48 32q11 -4 29 -7.5t27.5 0
t29.5 23.5q29 34 39 64q17 36 26 73q-1 8 -6 23.5t-9.5 33.5t-154.5 372zM437 625h28q0 -38 -31.5 -69.5t-70.5 -31.5q-21 0 -36 6l-19 7q-6 2 -19 9q-45 22 -64 22q-34 0 -51 -44h-28q16 96 106 96q20 0 72 -23q45 -22 63.5 -20.5t31.5 15.5q7 9 18 33z" />
    <glyph glyph-name="uni1F00" unicode="&#x1f00;" horiz-adv-x="628" 
d="M338.5 711q24.5 -23 24.5 -65t-32.5 -80.5t-77.5 -38.5v18q28 9 48.5 32t20.5 48q0 40 -31 40q-3 0 -16 -6t-22 -6q-45 0 -45 36q0 45 66 45q40 0 64.5 -23zM607 90q0 -39 -17 -68q-20 -38 -58.5 -38t-67.5 63q-13 28 -32 99q-39 -76 -85.5 -119t-122.5 -43t-126.5 64
t-50.5 146q0 106 51 182q58 88 160 88q142 0 156 -180l65 169h103l-133 -280q11 -36 38 -66.5t59 -30.5t58 38q3 -10 3 -24zM210 15q54 0 117.5 94.5t63.5 146.5t-30.5 98.5t-86.5 46.5q-70 0 -114 -87q-36 -72 -36 -151q0 -148 86 -148z" />
    </font>
</defs>
</svg>
