<svg xmlns="http://www.w3.org/2000/svg"><defs> <font id="icons-icons" horiz-adv-x="5577"> <font-face font-family="icons" units-per-em="1001" ascent="1001" descent="0"/> <missing-glyph horiz-adv-x="0"/> <glyph glyph-name="angle-right-thick" unicode="&#xE001;" horiz-adv-x="603.4397163120567" d="M99.3900709219858 1001L0 901.6099290780141L404.6595744680851 496.9503546099291L0 99.3900709219859L99.3900709219858 0L603.4397163120567 496.9503546099291z"/> <glyph glyph-name="angle-right-thin" unicode="&#xE002;" horiz-adv-x="566.6037735849056" d="M66.1037735849057 1001L0 934.8962264150944L434.3962264150944 500.5L0 66.1037735849055L66.1037735849057 0L566.6037735849056 500.5z"/> <glyph glyph-name="ban" unicode="&#xE003;" horiz-adv-x="1001" d="M508.7434705294111 965.670588235294C243.708070488235 965.670588235294 28.8522763941169 750.8167313705882 28.8522763941169 485.779417652941C28.8522763941169 220.7420980470587 243.708070488235 5.8882411823529 508.7434705294111 5.8882411823529C773.778829352941 5.8882411823529 988.6346469999996 220.7440352764705 988.6346469999996 485.779417652941C988.6346469999996 750.8148000294118 773.7807724705873 965.670588235294 508.7434705294111 965.670588235294zM749.4266779999998 726.4610588529413C873.3997625294113 602.4878801117645 882.022258764705 413.0029550705882 788.5935115882344 280.1117672294116L303.0758083294117 765.6260376470589C436.0577986470585 859.1173649882352 625.5217792352937 850.3641499294117 749.4266779999998 726.4610588529413zM268.0602277294111 245.0982828411765C144.0871314235288 369.0713202647059 135.4646292999993 558.5560274411764 228.893382364705 691.4470621882353L714.41110917647 205.9333452647057C581.4309677647053 112.4421298 391.9651029411758 121.1934311823529 268.0602277294111 245.0982828411765z"/> <glyph glyph-name="cart" unicode="&#xE004;" horiz-adv-x="1093.3252427184466" d="M393.5970873786364 218.6650485436893C335.2864077669859 218.6650485436893 286.6941747572771 170.0728155339806 286.6941747572771 111.7621359223301S335.2864077669859 0 393.5970873786364 0S500.4999999999955 48.5922330097087 500.4999999999955 111.7621359223301C505.3592233009664 170.0728155339806 451.9077669902868 218.6650485436893 393.5970873786364 218.6650485436893zM393.5970873786364 53.4514563106796C364.4417475728111 53.4514563106796 340.1456310679568 77.747572815534 340.1456310679568 111.7621359223301S364.4417475728111 170.0728155339806 393.5970873786364 170.0728155339806S451.9077669902868 145.7766990291262 451.9077669902868 111.7621359223301C451.9077669902868 82.6067961165048 422.7524271844616 53.4514563106796 393.5970873786364 53.4514563106796zM884.3786407767012 218.6650485436893C826.0679611650507 218.6650485436893 777.475728155342 170.0728155339806 777.475728155342 111.7621359223301S826.0679611650507 0 884.3786407767012 0S991.2815533980604 48.5922330097087 991.2815533980604 111.7621359223301C991.2815533980604 170.0728155339806 942.6893203883516 218.6650485436893 884.3786407767012 218.6650485436893zM884.3786407767012 53.4514563106796C855.2233009708759 53.4514563106796 830.9271844660216 77.747572815534 830.9271844660216 111.7621359223301S855.2233009708759 170.0728155339806 884.3786407767012 170.0728155339806S942.6893203883516 145.7766990291262 942.6893203883516 111.7621359223301C937.8300970873808 82.6067961165048 913.5339805825262 53.4514563106796 884.3786407767012 53.4514563106796zM383.8786407767035 432.4708737864077H957.2669902912666L1093.3252427184511 860.0825242718446H257.5388349514609L213.8058252427229 996.140776699029H4.5e-12V942.6893203883494H174.9320388349559L335.2864077669948 451.9077669902912L257.5388349514609 276.9757281553398H1039.8737864077716V330.4271844660193H340.1456310679657zM276.9757281553442 811.4902912621358H1020.436893203888L918.3932038834994 485.9223300970873H383.8786407767035z"/> <glyph glyph-name="chat" unicode="&#xE005;" horiz-adv-x="1001" d="M500.5 0C224.1822916666667 0 0 224.1822916666666 0 500.5C0 776.8177083333333 224.1822916666667 1001 500.5 1001C776.8177083333334 1001 1001 776.8177083333333 1001 500.5C1001 224.1822916666666 776.8177083333334 0 500.5 0zM500.5 964.5052083333334C245.0364583333333 964.5052083333334 36.4947916666666 755.9635416666666 36.4947916666666 500.5S245.0364583333334 36.4947916666666 500.5 36.4947916666666S964.5052083333334 245.0364583333333 964.5052083333334 500.5S755.9635416666667 964.5052083333334 500.5 964.5052083333334zM771.6041666666667 424.9036458333333C758.5703125000001 401.4427083333333 737.7161458333334 377.9817708333333 714.2552083333335 359.7343749999999C664.7265625000001 320.6328124999999 596.9505208333335 299.7786458333333 526.5677083333335 299.7786458333333C492.6796875000001 299.7786458333333 458.7916666666667 304.9921874999999 427.5104166666668 315.4192708333333L406.65625 323.2395833333333L388.4088541666667 310.2057291666667C362.3411458333334 291.9583333333333 338.8802083333334 278.9244791666667 312.8125 271.1041666666667L281.5312500000001 260.6770833333333L297.1718750000001 289.3515625C307.5989583333334 304.9921875 315.4192708333334 320.6328125 320.6328125000001 336.2734375L331.0598958333334 362.3411458333334L312.8125 385.8020833333333C289.3515625 411.8697916666667 260.6770833333334 453.578125 260.6770833333334 508.3203124999999C260.6770833333334 536.9947916666666 268.4973958333334 563.0625 281.5312500000001 589.1302083333333C294.5651041666667 612.5911458333333 315.4192708333334 636.0520833333333 338.8802083333334 654.2994791666665C388.4088541666667 693.4010416666665 456.1848958333334 714.2552083333333 526.5677083333334 714.2552083333333S662.1197916666667 693.4010416666665 714.2552083333334 654.2994791666665C737.7161458333334 636.0520833333333 758.5703125 612.5911458333333 771.6041666666666 589.1302083333333C784.6380208333334 563.0624999999998 792.4583333333334 536.9947916666665 792.4583333333334 508.3203124999998C792.4583333333334 479.6458333333333 784.6380208333335 450.9713541666666 771.6041666666667 424.9036458333333M826.3463541666667 505.7135416666666C826.3463541666667 536.9947916666666 818.5260416666667 568.2760416666665 802.8854166666667 599.5572916666666C787.2447916666667 628.2317708333333 766.3906250000001 654.2994791666666 740.3229166666667 675.1536458333333C711.6484375000001 698.6145833333333 680.3671875000001 714.2552083333333 643.8723958333335 727.2890625C607.3776041666669 740.3229166666666 568.2760416666669 745.5364583333333 526.5677083333335 745.5364583333333C484.8593750000001 745.5364583333333 445.7578125000001 740.3229166666666 409.2630208333335 727.2890625C372.7682291666668 714.2552083333333 341.4869791666668 698.6145833333333 312.8125000000001 675.1536458333333C286.7447916666668 651.6927083333333 263.2838541666668 628.2317708333333 250.2500000000001 599.5572916666666C234.6093750000001 570.8828125 226.7890625 539.6015625 226.7890625 505.7135416666666C226.7890625 453.578125 247.6432291666667 404.0494791666667 286.7447916666667 359.7343749999999L291.9583333333333 354.5208333333333L289.3515625 349.3072916666667C271.1041666666667 302.3854166666667 237.2161458333334 263.2838541666667 229.3958333333334 255.4635416666665L229.3958333333334 255.4635416666665C224.1822916666667 250.2499999999999 224.1822916666667 242.4296874999999 226.7890625000001 237.2161458333333C229.3958333333334 232.0026041666667 234.6093750000001 226.7890625 242.4296875000001 226.7890625C312.8125 226.7890625 370.1614583333334 255.4635416666667 404.0494791666667 281.53125L409.2630208333334 284.1380208333334L414.4765625 281.53125C450.9713541666666 271.1041666666668 487.4661458333334 265.890625 523.9609375 265.890625C565.6692708333334 265.890625 604.7708333333334 271.1041666666667 641.265625 284.1380208333333C677.7604166666666 297.1718749999999 709.0416666666667 312.8125 737.7161458333334 336.2734374999999C763.7838541666666 359.7343749999999 787.2447916666666 383.1953125 800.2786458333333 411.8697916666667C818.5260416666667 443.1510416666667 826.3463541666667 474.4322916666666 826.3463541666667 505.7135416666666"/> <glyph glyph-name="checkmark" unicode="&#xE006;" horiz-adv-x="1370.3009708737864" d="M1302.2718446601941 1001L447.0485436893204 145.7766990291262L68.0291262135922 524.7961165048544L0 447.0485436893204L447.0485436893204 0L1370.3009708737864 932.9708737864077z"/> <glyph glyph-name="clock" unicode="&#xE007;" horiz-adv-x="1001" d="M500.5 0C224.1822916666667 0 0 224.1822916666666 0 500.5S224.1822916666667 1001 500.5 1001S1001 776.8177083333333 1001 500.5S776.8177083333334 0 500.5 0zM500.5 964.5052083333334C245.0364583333333 964.5052083333334 36.4947916666666 755.9635416666667 36.4947916666666 500.5S245.0364583333333 36.4947916666666 500.5 36.4947916666666S964.5052083333334 245.0364583333333 964.5052083333334 500.5S755.9635416666667 964.5052083333334 500.5 964.5052083333334zM675.1536458333334 284.1380208333333L469.2187500000001 487.4661458333333V896.7291666666666H505.7135416666667V503.1067708333333L701.2213541666667 310.2057291666667z"/> <glyph glyph-name="close--bold" unicode="&#xE008;" horiz-adv-x="1000.9999999999999" d="M688.3135313531352 500.4356435643564L970.023102310231 782.1881188118812C1011.3399339933994 823.5049504950495 1011.3399339933994 891.1221122112211 970.023102310231 932.4389438943894L932.4818481848185 969.9801980198018C891.1650165016501 1011.3399339933992 823.5478547854785 1011.3399339933992 782.2310231023104 969.9801980198018L500.5214521452145 688.227722772277L218.7689768976898 969.9801980198018C177.4950495049505 1011.2970297029702 109.8778877887789 1011.2970297029702 68.5610561056106 969.9801980198018L30.976897689769 932.4389438943894C-10.2970297029703 891.1221122112211 -10.2970297029703 823.5049504950493 30.976897689769 782.1881188118812L312.6864686468647 500.4785478547853L30.976897689769 218.7260726072607C-10.2970297029703 177.4092409240923 -10.2970297029703 109.7920792079207 30.976897689769 68.5181518151813L68.5610561056106 30.9768976897689C109.8778877887789 -10.3399339933995 177.4950495049505 -10.3399339933995 218.7689768976898 30.9768976897689L500.5214521452145 312.6435643564355L782.2310231023101 30.9768976897689C823.5478547854785 -10.3399339933995 891.1650165016501 -10.3399339933995 932.4818481848184 30.9768976897689L970.023102310231 68.5181518151813C1011.3399339933992 109.8349834983497 1011.3399339933992 177.4521452145214 970.023102310231 218.7260726072607L688.3135313531352 500.4356435643564z"/> <glyph glyph-name="close-thin" unicode="&#xE009;" horiz-adv-x="1025.2177419354837" d="M1025.2177419354837 944.491935483871L968.7096774193548 1001L508.5725806451612 540.8629032258065L56.508064516129 992.9274193548385L0 936.4193548387096L452.0645161290322 484.3548387096774L32.2903225806451 64.5806451612903L88.7983870967741 8.0725806451613L508.5725806451612 427.8467741935484L936.4193548387096 0L992.9274193548385 56.508064516129L565.0806451612902 484.3548387096773z"/> <glyph glyph-name="column" unicode="&#xE00A;" horiz-adv-x="1236.5294117647059" d="M1096.7574146941165 965.670588235294L160.9696205764697 965.670588235294C101.3581392352933 965.670588235294 52.9941058705876 919.6096085647058 52.9941058705876 862.8367689117646L52.9941058705876 108.7220663941176C52.9941058705876 51.9492267411764 101.3581392352933 5.8882411823529 160.9696205764697 5.8882411823529L1096.7574146941165 5.8882411823529C1156.3688960352938 5.8882411823529 1204.7329293999994 51.9492267411764 1204.7329293999994 108.7220663941176L1204.7329293999994 862.8367689117646C1204.7329293999994 919.6096085647058 1156.3688960352938 965.670588235294 1096.7574146941165 965.670588235294zM1060.7655764588226 143.0000042058824L196.9614588117637 143.0000042058824L196.9614588117637 691.4470621882353L1060.7655764588226 691.4470621882353L1060.7655764588226 143.0000042058824z"/> <glyph glyph-name="columns" unicode="&#xE00B;" horiz-adv-x="1236.5294117647059" d="M1087.336244111764 965.670588235294L151.5484558823523 965.670588235294C91.914475594117 965.670588235294 43.5729411764699 919.6310299647058 43.5729411764699 862.8367689117646L43.5729411764699 108.7220663941176C43.5729411764699 51.9277994529411 91.914475594117 5.8882411823529 151.5484558823523 5.8882411823529L1087.336244111764 5.8882411823529C1146.9702243999993 5.8882411823529 1195.3117588176465 51.9277994529411 1195.3117588176465 108.7220663941176L1195.3117588176465 862.8367689117646C1195.3117588176465 919.6310299647058 1146.9702243999993 965.670588235294 1087.336244111764 965.670588235294zM547.4586705823522 143.0000042058824L187.5402941176464 143.0000042058824L187.5402941176464 691.4470621882353L547.4586705823522 691.4470621882353L547.4586705823522 143.0000042058824zM1051.3444058764699 143.0000042058824L691.4260235235287 143.0000042058824L691.4260235235287 691.4470621882353L1051.3444058764699 691.4470621882353L1051.3444058764699 143.0000042058824z"/> <glyph glyph-name="envelope" unicode="&#xE00C;" horiz-adv-x="1387.3508771929824" d="M1325.8859649122805 1001H61.4649122807017C26.3421052631578 1001 -1e-13 974.657894736842 -1e-13 939.5350877192984V52.684210526316C-1e-13 17.5614035087721 26.3421052631578 -8.7807017543857 61.4649122807017 -8.7807017543857H1334.6666666666665C1369.7894736842104 -8.7807017543857 1396.131578947368 17.5614035087722 1396.131578947368 52.684210526316V939.5350877192984C1387.3508771929824 974.6578947368422 1361.0087719298244 1001.0000000000002 1325.8859649122805 1001.0000000000002zM1308.3245614035088 939.5350877192984L702.4561403508771 342.4473684210527L96.5877192982456 939.5350877192982zM61.4649122807019 939.5350877192984H70.2456140350878zM1325.8859649122808 61.4649122807019H61.4649122807019V904.4122807017544L702.4561403508771 263.4210526315791L1325.8859649122805 886.8508771929826z"/> <glyph glyph-name="facebook" unicode="&#xE00D;" horiz-adv-x="1001" d="M533.3328 0H55.055C24.66464 0 0 24.7447199999999 0 55.2551999999999V945.7448C0 976.25528 24.66464 1001 55.09504 1001H943.3423999999998C973.7728 1001 998.47748 976.25528 998.47748 945.7448V55.2552000000002C998.47748 24.7447200000001 973.7727999999998 1e-13 943.3423999999998 1e-13H688.92824V387.6272400000002H818.6978799999999L838.15732 538.6981600000001H688.92824V635.1945600000001C688.92824 678.9182400000002 701.02032 708.7080000000001 763.6028399999999 708.7080000000001H843.4025599999999V843.8830399999999C829.5887599999999 845.72488 782.2214399999999 849.88904 727.1263999999999 849.88904C612.0914799999998 849.88904 533.3327999999999 779.41864 533.3327999999999 650.1695199999999V538.7382H403.2027999999999V387.66728H533.3327999999999V0z"/> <glyph glyph-name="file-alt" unicode="&#xE00E;" horiz-adv-x="765.4705882352941" d="M562.1791999352936 500.7760169176471L562.1791999352936 448.2879165470589C562.1791999352936 435.915721417647 552.7313438705878 425.7930205941177 541.1839609647054 425.7930205941177L247.2506212647054 425.7930205941177C235.703238358823 425.7930205941177 226.2553822941172 435.915721417647 226.2553822941172 448.2879165470589L226.2553822941172 500.7760169176471C226.2553822941172 513.1482120470588 235.703238358823 523.2709128705883 247.2506212647054 523.2709128705883L541.1839609647054 523.2709128705883C552.7313438705878 523.2709128705883 562.1791999352936 513.1482120470588 562.1791999352936 500.7760169176471zM541.1839609647054 365.8066235352941L247.2506212647054 365.8066235352941C235.703238358823 365.8066235352941 226.2553822941172 355.6839168235292 226.2553822941172 343.3117216941175L226.2553822941172 290.8236272117647C226.2553822941172 278.451432082353 235.703238358823 268.3287253705882 247.2506212647054 268.3287253705882L541.1839609647054 268.3287253705882C552.7313438705878 268.3287253705882 562.1791999352936 278.451432082353 562.1791999352936 290.8236272117647L562.1791999352936 343.3117216941175C562.1791999352936 355.6839168235292 552.7313438705878 365.8066235352941 541.1839609647054 365.8066235352941zM730.1411116999996 718.4141611705882L730.1411116999996 95.8678367705882C730.1411116999996 46.1915983941176 692.5246445764701 5.8882411823529 646.1601558176465 5.8882411823529L142.2744264117642 5.8882411823529C95.9099376529406 5.8882411823529 58.2934705294112 46.1915983941176 58.2934705294112 95.8678367705882L58.2934705294112 875.6909985352942C58.2934705294112 925.3672310235294 95.9099376529406 965.670588235294 142.2744264117642 965.670588235294L499.3684460470582 965.670588235294C521.5884085176465 965.670588235294 542.9335676470583 956.1102609882354 558.6799983470582 939.239083135294L705.4717081176466 781.9622516588234C721.2181388176465 765.278531664706 730.1411116999996 742.2212621352942 730.1411116999996 718.4141611705882zM506.19189797647 868.3801538176469L506.19189797647 725.7250058882353L639.3367038882349 725.7250058882353L506.19189797647 868.3801538176469zM646.1601558176465 95.8678367705882L646.1601558176465 635.7454102999998L464.2014200352937 635.7454102999998C440.9316970882349 635.7454102999998 422.2109420941171 655.8033599764706 422.2109420941171 680.7352080941175L422.2109420941171 875.6909985352942L142.2744264117642 875.6909985352942L142.2744264117642 95.8678367705882L646.1601558176465 95.8678367705882z"/> <glyph glyph-name="image" unicode="&#xE00F;" horiz-adv-x="1215.5" d="M1082.643983849999 984.55500715L135.7158659999991 984.55500715C75.3719609499991 984.55500715 26.454928499999 932.3768382499998 26.454928499999 868.0100071499999L26.454928499999 168.74000715C26.454928499999 104.3731760500001 75.3719609499991 52.1950071499998 135.7158659999991 52.1950071499998L1082.643983849999 52.1950071499998C1142.987888899999 52.1950071499998 1191.9049213499989 104.3731760500001 1191.9049213499989 168.74000715L1191.9049213499989 868.0100071499999C1191.9049213499989 932.3768382499998 1142.987888899999 984.55500715 1082.643983849999 984.55500715zM1068.986368449999 168.74000715L149.3734813999991 168.74000715C141.8305888999991 168.74000715 135.7158659999991 175.2623801499999 135.7158659999991 183.30813215L135.7158659999991 853.4418821499999C135.7158659999991 861.48763415 141.8305888999991 868.0100071499999 149.3734813999991 868.0100071499999L1068.986368449999 868.0100071499999C1076.529260949999 868.0100071499999 1082.643983849999 861.48763415 1082.643983849999 853.4418821499999L1082.643983849999 183.30813215C1082.643983849999 175.2623801499999 1076.529260949999 168.74000715 1068.986368449999 168.74000715L1068.986368449999 168.74000715zM317.8174213499991 770.88916905C267.5323579499992 770.88916905 226.7666472499991 727.40574335 226.7666472499991 673.7683381C226.7666472499991 620.1309328499999 267.5323579499992 576.6475071499999 317.8174213499991 576.6475071499999C368.1024918999992 576.6475071499999 408.8682025999991 620.1309328499999 408.8682025999991 673.7683381C408.8682025999991 727.40574335 368.1024918999992 770.88916905 317.8174213499991 770.88916905zM244.9768034999992 285.28500715L973.383046349999 285.28500715L973.383046349999 479.52666905L774.1753233499991 692.0149164499999C763.5087245499992 703.3926184999999 746.213625299999 703.3926184999999 735.5447527999991 692.0149164499999L463.498671349999 401.8300071499999L373.551885849999 497.7732474000001C362.885287049999 509.1509565999999 345.5901877999991 509.1509565999999 334.9213152999989 497.7732474000001L244.9768034999992 401.8300071499999L244.9768034999992 285.28500715z"/> <glyph glyph-name="instagram" unicode="&#xE010;" horiz-adv-x="1001" d="M499.21872 1001C634.7941599999999 1001 651.81116 1000.43944 705.0643600000001 997.997C758.19744 995.5946 794.4736800000001 987.10612 826.2254 974.73376A244.6444 244.6444 0 0 0 914.67376 916.99608A245.4452 245.4452 0 0 0 972.25128 828.34752C984.5836 796.5157200000001 993.03204 760.11936 995.4744799999997 706.86616C997.87688 653.4528 998.47748 636.39576 998.47748 500.5C998.47748 364.5642000000001 997.87688 347.5472 995.4744799999997 294.13384C993.03204 240.88064 984.5836 204.48428 972.25128 172.6524800000001A245.4452 245.4452 0 0 0 914.67376 84.0039200000001A244.6444 244.6444 0 0 0 826.2254 26.2662400000002C794.4736800000001 13.8938800000001 758.19744 5.4454400000001 705.0643600000001 3.0430400000001C651.8111600000001 0.5605600000001 634.7941600000001 1e-13 499.2587600000001 1e-13C363.64328 1e-13 346.6663200000001 0.5605600000001 293.4131200000001 3.0030000000002C240.2800400000001 5.4054000000001 203.96376 13.8938800000001 172.21204 26.2662400000002A244.6444 244.6444 0 0 0 83.80372 84.0039200000001A245.40516 245.40516 0 0 0 26.2262 172.6524800000001C13.85384 204.4842800000001 5.4054 240.8806400000001 3.003 294.13384C0.6006 347.5472 0 364.60424 0 500.5C0 636.4358 0.56056 653.4528 3.003 706.86616C5.4054 760.11936 13.85384 796.51572 26.2262 828.34752A245.40516 245.40516 0 0 0 83.80372 916.99608A244.6444 244.6444 0 0 0 172.172 974.73376C203.92372 987.10612 240.24 995.55456 293.37308 997.95696C346.66632 1000.47948 363.64328 1001 499.21872 1001zM499.21872 910.82992C365.92556 910.82992 350.1498000000001 910.3094 297.4972 907.907C248.80856 905.66476 222.38216 897.4966 204.8046 890.6898A154.63448 154.63448 0 0 1 147.38724 853.21236A155.07492 155.07492 0 0 1 110.06996 795.67488C103.22312 778.05728 95.095 751.5508 92.85276 702.78208C90.45036 649.96932 89.96988 634.15352 89.96988 500.5C89.96988 366.84648 90.45036 351.03068 92.85276 298.2579599999999C95.095 249.4491999999999 103.22312 222.98276 110.06996 205.3251199999999C119.119 181.9417599999999 129.9298 165.2851199999999 147.38724 147.7876399999998C164.88472 130.2501199999999 181.50132 119.3992799999999 204.8046 110.3502399999999C222.4222 103.4633599999999 248.8486 95.3352399999999 297.4972 93.1330399999999C350.1498 90.6905999999999 365.92556 90.1700799999999 499.21872 90.1700799999999C632.55192 90.1700799999999 648.32768 90.6905999999999 700.9802799999999 93.0929999999999C749.6288799999999 95.3352399999999 776.0552799999999 103.5033999999999 793.67288 110.3101999999998A154.63448 154.63448 0 0 1 851.0501999999999 147.7876399999998C868.54768 165.2851199999999 879.35848 181.9417599999999 888.40752 205.3251199999999C895.21432 222.9427199999999 903.3824799999998 249.4491999999999 905.62472 298.21792C908.0271199999999 351.0306799999999 908.5076 366.84648 908.5076 500.4999999999999C908.5076 634.1535199999998 907.9870799999998 649.9693199999999 905.5846799999998 702.7420399999999C903.3824799999998 751.5507999999999 895.2543599999999 778.0172399999999 888.40752 795.6748799999998C879.35848 819.0582399999998 868.54768 835.7148799999999 851.0501999999999 853.2123599999999A154.63448 154.63448 0 0 1 793.67288 890.6497599999999C776.0552799999999 897.5366399999999 749.6288799999999 905.6647599999998 700.9802799999999 907.8669599999998C648.3276799999999 910.3093999999998 632.5118799999999 910.82992 499.2187199999999 910.82992zM499.21872 757.47672C640.80016 757.47672 755.59484 642.4418000000001 755.59484 500.5S640.8001599999999 243.48324 499.21872 243.48324C357.6372800000001 243.48324 242.88264 358.5582 242.88264 500.5C242.88264 642.4418000000001 357.6372800000001 757.51676 499.21872 757.51676zM499.21872 333.6533199999999A166.60644 166.60644 0 0 1 665.62496 500.4999999999999A166.60644 166.60644 0 0 1 499.21872 667.3466799999999A166.60644 166.60644 0 0 1 332.81248 500.5A166.60644 166.60644 0 0 1 499.21872 333.6533199999999zM825.6247999999999 767.6869199999999C825.6247999999999 734.49376 798.7979999999998 707.6269199999999 765.7249599999999 707.6269199999999A59.97992 59.97992 0 0 0 705.82512 767.6869199999999C705.82512 800.8400399999999 732.65192 827.7469199999999 765.7249599999999 827.7469199999999S825.6247999999999 800.8400399999999 825.6247999999999 767.6869199999999z"/> <glyph glyph-name="linkedin" unicode="&#xE011;" horiz-adv-x="1001" d="M792.4583333333334 1001H208.5416666666667C93.3849583333333 1001 0 907.6150416666666 0 792.4583333333333V208.5416666666666C0 93.3849583333333 93.3849583333333 0 208.5416666666667 0H792.4583333333334C907.6567500000002 0 1001 93.3849583333333 1001 208.5416666666666V792.4583333333333C1001 907.6150416666666 907.6567500000002 1001 792.4583333333334 1001zM333.6666666666667 208.5416666666666H208.5416666666667V667.3333333333333H333.6666666666667V208.5416666666666zM271.1041666666667 720.2195C230.8139166666667 720.2195 198.1145833333334 753.1690833333333 198.1145833333334 793.793S230.8139166666667 867.3665000000001 271.1041666666667 867.3665000000001S344.09375 834.4169166666667 344.09375 793.793S311.436125 720.2195 271.1041666666667 720.2195zM834.1666666666667 208.5416666666666H709.0416666666667V442.2751666666666C709.0416666666667 582.7488333333333 542.2083333333334 572.1132083333332 542.2083333333334 442.2751666666666V208.5416666666666H417.0833333333334V667.3333333333333H542.2083333333334V593.7181249999999C600.4331666666667 701.575875 834.1666666666667 709.5421666666666 834.1666666666667 490.4482916666666V208.5416666666666z"/> <glyph glyph-name="menu" unicode="&#xE012;" horiz-adv-x="1106.3684210526314" d="M0 1001H1106.3684210526314V948.3157894736842H0zM0 52.6842105263158H1106.3684210526314V0H0zM0 526.8421052631579H1106.3684210526314V474.1578947368421H0z"/> <glyph glyph-name="pin" unicode="&#xE013;" horiz-adv-x="815.6296296296297" d="M570.9407407407408 389.2777777777777H244.6888888888889V615.4296296296295C211.3222222222222 630.2592592592592 192.7851851851852 652.5037037037036 192.7851851851852 674.7481481481482C192.7851851851852 726.6518518518518 289.1777777777778 771.1407407407407 407.8148148148149 771.1407407407407S622.8444444444445 726.6518518518518 622.8444444444445 674.7481481481482C622.8444444444445 652.5037037037036 604.3074074074075 630.2592592592592 570.9407407407408 611.7222222222222zM278.0555555555556 426.3518518518519H533.8666666666667V637.674074074074L556.1111111111111 645.0888888888887C582.062962962963 659.9185185185185 585.7703703703704 671.0407407407406 585.7703703703704 674.7481481481482C585.7703703703704 696.9925925925925 519.0370370370371 734.0666666666666 407.8148148148149 734.0666666666666S229.8592592592593 696.9925925925925 229.8592592592593 674.7481481481482C229.8592592592593 671.0407407407407 237.2740740740741 656.211111111111 259.5185185185186 645.0888888888887L278.0555555555556 633.9666666666666zM407.8148148148149 14.8296296296295L392.9851851851852 29.6592592592591C140.8814814814815 270.6407407407407 18.537037037037 459.7185185185184 18.537037037037 600.5999999999999C18.537037037037 811.9222222222221 192.7851851851852 982.462962962963 407.8148148148149 982.462962962963S797.0925925925926 811.9222222222222 797.0925925925926 596.8925925925926C797.0925925925926 456.0111111111109 674.7481481481482 266.9333333333332 418.9370370370371 25.9518518518516zM407.8148148148149 945.388888888889C215.0296296296296 945.388888888889 55.6111111111111 789.6777777777777 55.6111111111111 600.5999999999999C55.6111111111111 474.5481481481481 174.2481481481482 296.5925925925926 407.8148148148149 70.4407407407406C641.3814814814815 296.5925925925926 760.0185185185186 474.5481481481481 760.0185185185186 600.5999999999999C760.0185185185186 789.6777777777777 600.6 945.388888888889 407.8148148148149 945.388888888889z"/> <glyph glyph-name="pinterest" unicode="&#xE014;" horiz-adv-x="1001" d="M499.2587599999999 1001C223.54332 1001 0 776.93616 0 500.5C0 295.5752799999999 122.9228 119.4793600000001 298.8986 42.0820400000001C297.4972 76.9969200000001 298.65836 118.9988800000001 307.5072 156.9968400000001L371.73136 429.7092800000002S355.83548 461.7012400000001 355.83548 508.9484400000001C355.83548 583.1025200000001 398.75836 638.47784 452.1316799999999 638.47784C497.4969999999999 638.47784 519.4389199999999 604.2836800000001 519.4389199999999 563.32276C519.4389199999999 517.59708 490.3298399999999 449.1286800000001 475.39492 385.74536C462.8623999999999 332.6122800000001 501.9014 289.32904 554.1536 289.32904C648.7280799999999 289.32904 712.4317199999999 411.13072 712.4317199999999 555.43488C712.4317199999999 665.1044400000001 638.75812 747.22648 504.7042 747.22648C353.31296 747.22648 258.97872 634.0334 258.97872 507.58708C258.97872 463.94348 271.7915200000001 433.19276 291.8115200000001 409.409C301.1008000000001 398.398 302.3420400000001 394.07368 299.0187200000001 381.4610800000001C296.65636 372.33196 291.1308400000001 350.06972 288.84856 341.3009600000001C285.4852 328.6483200000002 275.275 324.0837600000001 263.90364 328.7684400000001C194.07388 357.3169600000001 161.64148 433.9134800000001 161.64148 519.9994800000001C161.64148 662.1414800000001 281.2009200000001 832.7118800000001 518.39788 832.7118800000001C709.02832 832.7118800000001 834.47364 694.3336400000001 834.47364 545.9854400000002C834.47364 349.6292800000001 725.6449200000001 202.9627600000001 565.08452 202.9627600000001C511.23072 202.9627600000001 460.50004 232.1519200000002 443.1226800000001 265.2650000000002C443.1226800000001 265.2650000000002 414.1337200000001 149.9498000000002 408.0076 127.7276000000002C397.4770800000001 89.1690800000001 376.7363600000001 50.5705200000002 357.7574000000001 20.5405200000002A497.2968 497.2968 0 0 1 499.2988 0C775.0142400000001 0 998.5175200000002 224.06384 998.5175200000002 500.5S774.9742 1001 499.2587599999999 1001"/> <glyph glyph-name="plus" unicode="&#xE015;" horiz-adv-x="1001" d="M533.8666666666667 533.8666666666667V1001H467.1333333333333V533.8666666666667H0V467.1333333333333H467.1333333333333V0H533.8666666666667V467.1333333333333H1001V533.8666666666667z"/> <glyph glyph-name="printer" unicode="&#xE016;" horiz-adv-x="1050.8009950248756" d="M1025.9004975124378 851.5970149253732C1010.960199004975 866.5373134328358 991.039800995025 876.497512437811 966.1393034825873 876.497512437811H886.457711442786V1001H159.363184079602V876.497512437811H84.6616915422886C59.7611940298508 876.497512437811 39.8407960199005 866.5373134328358 24.9004975124379 851.5970149253732S1e-13 816.7363184079602 1e-13 791.8358208955224V378.4875621890548C1e-13 353.587064676617 9.9601990049752 333.6666666666668 24.9004975124379 318.7263681592041S59.7611940298508 293.8258706467663 84.6616915422886 293.8258706467663H199.2039800995025V0H846.6169154228855V293.8258706467662H966.139303482587C991.0398009950248 293.8258706467662 1010.960199004975 303.7860696517413 1025.9004975124376 318.726368159204S1050.8009950248754 353.5870646766168 1050.8009950248754 378.4875621890547V791.8358208955224C1050.8009950248754 816.7363184079602 1040.8407960199004 836.6567164179104 1025.9004975124376 851.5970149253731zM846.6169154228855 956.179104477612V876.497512437811H204.18407960199V956.179104477612zM199.2039800995025 587.6517412935323V343.6268656716418H84.6616915422886C59.7611940298508 343.6268656716418 44.8208955223881 358.5671641791045 44.8208955223881 383.4676616915423V791.8358208955224C44.8208955223881 816.7363184079602 54.7810945273632 826.6965174129352 84.6616915422886 826.6965174129352H971.1194029850745C996.0199004975124 826.6965174129352 1010.960199004975 816.7363184079602 1010.960199004975 791.8358208955224V378.4875621890547C1010.960199004975 353.5870646766168 1001 338.6467661691542 971.1194029850745 338.6467661691542H851.5970149253732V587.6517412935323zM244.0248756218906 44.820895522388V537.8507462686566H801.7960199004975V44.820895522388z"/> <glyph glyph-name="question" unicode="&#xE017;" horiz-adv-x="1001" d="M465.6826086956521 413.4565217391305C465.6826086956521 430.8652173913044 470.0347826086956 448.2739130434783 474.3869565217391 461.3304347826087S487.4434782608695 487.4434782608696 500.4999999999999 500.5C509.2043478260869 513.5565217391304 522.2608695652173 522.2608695652174 530.9652173913042 530.9652173913043C544.0217391304346 539.6695652173912 552.7260869565216 552.7260869565217 561.4304347826086 561.4304347826087C570.1347826086954 574.4869565217391 578.8391304347824 583.191304347826 587.5434782608694 596.2478260869565C591.8956521739128 609.304347826087 596.2478260869564 626.7130434782608 596.2478260869564 644.1217391304347C596.2478260869564 674.5869565217391 587.5434782608694 696.3478260869565 570.1347826086954 718.1086956521739S530.9652173913041 744.2217391304348 500.4999999999998 744.2217391304348S448.2739130434781 735.5173913043477 426.5130434782608 718.1086956521739S396.0478260869565 678.9391304347826 387.3434782608694 648.4739130434782L335.1173913043477 657.1782608695652C343.8217391304347 700.6999999999999 361.2304347826086 731.1652173913043 391.6956521739129 757.2782608695652S456.9782608695651 792.095652173913 496.1478260869563 792.095652173913C517.9086956521737 792.095652173913 539.6695652173911 787.7434782608696 557.078260869565 783.391304347826S591.8956521739129 765.9826086956521 604.9521739130433 757.2782608695652C618.0086956521737 744.2217391304348 631.0652173913041 731.1652173913043 635.4173913043477 713.7565217391304C644.1217391304345 696.3478260869565 648.4739130434781 674.586956521739 648.4739130434781 652.8260869565217S644.1217391304347 609.3043478260869 639.7695652173912 591.8956521739129S626.7130434782607 561.4304347826087 613.6565217391303 548.3739130434782C604.9521739130435 535.3173913043477 591.8956521739129 526.6130434782608 583.191304347826 513.5565217391304C570.1347826086956 504.8521739130434 561.4304347826086 491.7956521739129 552.7260869565217 483.0913043478261S535.3173913043478 461.3304347826086 526.6130434782608 448.2739130434782S517.908695652174 417.8086956521738 517.908695652174 400.3999999999999V348.1739130434783H465.6826086956522zM452.6260869565216 221.9608695652174C452.6260869565216 235.017391304348 456.9782608695651 243.7217391304349 465.6826086956521 248.0739130434785S478.7391304347826 261.1304347826089 491.795652173913 261.1304347826089S513.5565217391304 256.7782608695653 517.9086956521738 248.0739130434785S530.9652173913043 230.6652173913045 530.9652173913043 221.9608695652174S526.6130434782608 200.2000000000001 517.9086956521738 195.8478260869565C509.2043478260869 187.1434782608697 500.4999999999999 182.7913043478261 491.795652173913 182.7913043478261C478.7391304347825 182.7913043478261 470.0347826086956 187.1434782608697 465.6826086956521 195.8478260869565C452.6260869565216 204.5521739130435 452.6260869565216 213.2565217391305 452.6260869565216 221.9608695652174zM500.5 21.7608695652174C235.0173913043479 21.7608695652174 21.7608695652174 235.0173913043479 21.7608695652174 500.5S235.0173913043479 979.2391304347826 500.5 979.2391304347826S979.2391304347826 765.9826086956522 979.2391304347826 500.5S765.9826086956522 21.7608695652174 500.5 21.7608695652174zM500.5 935.7173913043478C261.1304347826087 935.7173913043478 65.2826086956522 739.8695652173913 65.2826086956522 500.5S261.1304347826087 65.2826086956522 500.5 65.2826086956522S935.7173913043478 261.1304347826088 935.7173913043478 500.5S739.8695652173913 935.7173913043478 500.5 935.7173913043478z"/> <glyph glyph-name="rating" unicode="&#xE018;" horiz-adv-x="5577" d="M500.5 1001L336.05 686.4L0 622.05L235.95 357.5L193.05 0L500.5 157.3L807.95 0L765.0500000000001 357.5L1001 622.05L664.95 686.4000000000001zM1644.5 1001L1480.05 686.4L1144 622.05L1379.95 357.5L1337.05 0L1644.5 157.3L1951.95 0L1909.05 357.5L2145 622.05L1808.95 686.4000000000001zM2788.5 1001L2624.05 686.4L2288 622.05L2523.95 357.5L2481.0499999999997 0L2788.4999999999995 157.3L3095.9499999999994 0L3053.0499999999993 357.5L3288.999999999999 622.05L2952.949999999999 686.4000000000001zM3932.5 1001L3768.05 686.4L3432 622.05L3667.95 357.5L3625.05 0L3932.499999999999 157.3L4239.949999999999 0L4197.049999999999 357.5L4432.999999999999 622.05L4096.949999999999 686.4000000000001zM5076.5 1001L4912.05 686.4L4576 622.05L4811.95 357.5L4769.05 0L5076.5 157.3L5383.95 0L5341.05 357.5L5577 622.05L5240.95 686.4000000000001z"/> <glyph glyph-name="replay" unicode="&#xE019;" horiz-adv-x="1067.7333333333333" d="M0 553.8866666666667C6.6733333333333 580.5799999999999 13.3466666666667 613.9466666666667 20.02 640.64C113.4466666666667 987.6533333333334 520.52 1114.4466666666667 780.78 880.88C787.4533333333334 880.88 787.4533333333334 880.88 787.4533333333334 874.2066666666667C767.4333333333334 834.1666666666666 740.74 787.4533333333334 714.0466666666666 740.74C613.9466666666666 840.84 493.8266666666667 874.2066666666667 360.36 827.4933333333333C273.6066666666667 794.1266666666667 206.8733333333333 727.3933333333334 173.5066666666667 633.9666666666667C100.1 447.1133333333333 186.8533333333333 240.24 367.0333333333334 173.5066666666667C567.2333333333333 100.1 734.0666666666667 233.5666666666666 780.78 367.0333333333333L667.3333333333334 367.0333333333333C734.0666666666667 493.8266666666667 800.8 613.9466666666667 867.5333333333333 734.0666666666666C874.2066666666667 720.72 874.2066666666667 720.72 880.88 714.0466666666666C940.94 607.2733333333333 994.3266666666668 500.5 1054.3866666666668 393.7266666666667C1061.06 387.0533333333334 1061.06 380.38 1067.7333333333333 373.7066666666666L1067.7333333333333 373.7066666666666C1027.6933333333334 373.7066666666666 994.3266666666668 373.7066666666666 954.2866666666667 373.7066666666666C940.94 373.7066666666666 934.2666666666667 367.0333333333333 934.2666666666667 353.6866666666667C927.5933333333334 326.9933333333334 914.2466666666666 300.3 900.9 280.28C814.1466666666666 93.4266666666667 627.2933333333334 -13.3466666666666 433.7666666666667 0C240.24 20.02 73.4066666666667 160.16 20.02 360.36C13.3466666666667 387.0533333333334 6.6733333333333 420.4200000000001 0 447.1133333333333L0 553.8866666666667z"/> <glyph glyph-name="search" unicode="&#xE01A;" horiz-adv-x="1131.5652173913043" d="M754.3768115942029 348.1739130434783C884.9420289855074 531.9323671497584 846.2560386473431 788.2270531400966 662.4975845410628 923.6280193236717C473.903381642512 1054.193236714976 212.7729468599033 1015.5072463768116 77.3719806763285 831.7487922705315C14.5072463768116 739.8695652173913 -14.5072463768116 633.4830917874397 4.8357487922705 522.2608695652173S82.207729468599 319.159420289855 169.2512077294686 251.4589371980676C241.7874396135266 198.2657004830917 328.8309178743961 174.086956521739 411.0386473429952 174.086956521739C522.2608695652175 174.086956521739 633.4830917874397 217.6086956521738 715.6908212560387 304.6521739130433L1097.714975845411 -2e-13L1131.5652173913045 43.5217391304345zM701.1835748792271 377.1884057971014C589.9613526570048 217.6086956521739 362.6811594202899 178.9227053140096 203.1014492753623 294.9806763285024C125.7294685990338 353.0096618357487 72.5362318840579 435.2173913043479 58.0289855072464 531.9323671497584S67.7004830917874 720.5265700483092 120.8937198067633 797.8985507246377C193.4299516908212 894.6135265700483 299.8164251207729 947.8067632850242 411.0386473429952 947.8067632850242C483.5748792270532 947.8067632850242 556.1111111111112 923.6280193236717 623.8115942028986 880.1062801932368C783.3913043478261 764.048309178744 822.0772946859904 536.768115942029 701.1835748792271 377.1884057971015z"/> <glyph glyph-name="star-fill" unicode="&#xE01B;" horiz-adv-x="1008.15" d="M500.5 1001L336.05 686.4L0 622.05L235.95 357.5L193.05 0L500.5 157.3L815.1 0L772.2 357.5L1008.15 622.05L664.95 686.4000000000001z"/> <glyph glyph-name="star-outline" unicode="&#xE01C;" horiz-adv-x="1054.9754901960785" d="M201.1813725490196 0L245.343137254902 358.2009803921569L0 618.264705882353L353.2941176470589 686.9607843137255L525.0343137254902 1001.0000000000002L696.7745098039215 686.9607843137255L1050.0686274509803 618.2647058823529L804.7254901960783 358.2009803921569L848.8872549019607 0L525.03431372549 152.1127450980394zM525.0343137254902 196.2745098039217L804.7254901960783 63.7892156862746L765.470588235294 372.9215686274511L976.4656862745098 598.6372549019609L672.2401960784314 657.5196078431374L525.0343137254902 932.3039215686276L377.828431372549 657.5196078431374L73.6029411764706 598.6372549019609L284.5980392156863 372.9215686274511L245.343137254902 63.7892156862746z"/> <glyph glyph-name="thumbs-down" unicode="&#xE01D;" horiz-adv-x="875.875" d="M487.9875000000007 0H381.6312500000007L375.3750000000008 18.7687500000001C275.2750000000007 218.96875 187.6875000000007 325.3250000000001 112.6125000000007 325.3250000000001H7e-13V919.66875L625.6250000000007 1007.25625C713.2125000000007 1019.76875 794.5437500000006 963.4625 807.0562500000007 875.875L869.6187500000007 525.5250000000001V494.2437500000001C869.6187500000007 406.6562500000001 794.5437500000007 331.5812500000002 706.9562500000008 331.5812500000002H500.5000000000007L569.3187500000006 112.6125000000002C569.3187500000006 106.3562500000002 575.5750000000006 93.8437500000001 575.5750000000006 87.5875000000001C569.3187500000006 37.5375000000001 531.7812500000007 1e-13 487.9875000000006 1e-13zM419.1687500000008 62.5625H487.9875000000007C500.5000000000007 62.5625 506.7562500000008 68.81875 506.7562500000008 81.3312500000001L412.9125000000008 387.8875000000001H706.9562500000008C763.2625000000007 387.8875000000001 807.0562500000007 431.68125 807.0562500000007 487.9875000000001C807.0562500000007 494.24375 807.0562500000007 500.5000000000001 807.0562500000007 506.75625L744.4937500000007 857.10625C731.9812500000007 913.4125 688.1875000000007 944.69375 631.8812500000006 938.4375L56.3062500000007 857.10625V381.6312500000002H106.3562500000007C212.7125000000007 381.6312500000002 306.5562500000007 281.5312500000001 419.1687500000007 62.5625000000001z"/> <glyph glyph-name="thumbs-up--circle" unicode="&#xE01E;" horiz-adv-x="1001" d="M500.5 993.3C228.4333333333334 993.3 7.7 772.5666666666666 7.7 500.5S228.4333333333334 7.6999999999999 500.5 7.6999999999999S993.3 228.4333333333333 993.3 500.4999999999999S772.5666666666667 993.2999999999998 500.5000000000001 993.2999999999998zM500.5 43.6333333333333C248.9666666666667 43.6333333333333 43.6333333333333 248.9666666666667 43.6333333333333 500.5000000000001S248.9666666666667 957.3666666666668 500.5 957.3666666666668S957.3666666666666 752.0333333333334 957.3666666666666 500.5000000000001S752.0333333333333 43.6333333333333 500.4999999999999 43.6333333333333zM672.4666666666667 605.7333333333333H549.2666666666667L587.7666666666667 734.0666666666666C590.3333333333334 739.2 590.3333333333334 741.7666666666667 590.3333333333334 746.9C590.3333333333334 772.5666666666666 569.8 795.6666666666666 541.5666666666667 795.6666666666666H477.4L472.2666666666668 785.4C413.2333333333334 664.7666666666667 361.9000000000001 605.7333333333333 320.8333333333334 605.7333333333333H256.6666666666668V256.6666666666667L623.7000000000002 205.3333333333333H636.5333333333334C682.7333333333335 205.3333333333333 723.8000000000001 238.7 731.5000000000001 284.9L767.4333333333334 492.8000000000001C767.4333333333334 497.9333333333333 770.0000000000001 503.0666666666667 770.0000000000001 508.2000000000001C770.0000000000001 562.1000000000001 726.3666666666668 605.7333333333335 672.4666666666668 605.7333333333335zM734.0666666666666 497.9333333333333L698.1333333333333 290.0333333333332C693 256.6666666666665 662.2 236.1333333333332 631.4 241.2666666666667L295.1666666666667 287.4666666666666V569.8H325.9666666666667C385 569.8 438.9 628.8333333333333 505.6333333333333 759.7333333333333H546.6999999999999C554.4 759.7333333333333 559.5333333333333 754.6 559.5333333333333 746.9V744.3333333333333L505.6333333333333 569.8H677.5999999999999C710.9666666666666 569.8 736.6333333333332 541.5666666666666 736.6333333333332 510.7666666666666C734.0666666666666 505.6333333333333 734.0666666666666 503.0666666666666 734.0666666666666 497.9333333333333z"/> <glyph glyph-name="thumbs-up" unicode="&#xE01F;" horiz-adv-x="875.875" d="M650.6500000000003 0C644.3937500000004 0 638.1375000000004 0 625.6250000000003 0L3e-13 87.5875V681.9312500000001H112.6125000000004C187.6875000000004 681.9312500000001 275.2750000000004 782.03125 375.3750000000004 988.4875L381.6312500000003 1007.25625H487.9875000000003C531.7812500000003 1007.25625 569.3187500000004 969.71875 569.3187500000004 925.925C569.3187500000004 919.66875 569.3187500000004 907.15625 563.0625000000003 900.9L494.2437500000004 681.9312500000001H706.9562500000004C794.5437500000004 681.9312500000001 869.6187500000003 606.85625 869.6187500000003 519.2687500000001V487.9875000000001L807.0562500000003 137.6375000000001C794.5437500000004 56.30625 725.7250000000004 0 650.6500000000003 0zM62.5625000000003 143.8937500000001L638.1375000000003 62.5625C694.4437500000004 56.30625 744.4937500000002 93.84375 750.7500000000003 143.8937500000001L813.3125000000003 494.24375C813.3125000000003 500.5 813.3125000000003 506.75625 813.3125000000003 513.0125C813.3125000000003 569.31875 769.5187500000004 613.1125000000001 713.2125000000003 613.1125000000001H419.1687500000004L506.7562500000003 913.4125C506.7562500000003 932.18125 500.5000000000003 938.4375 487.9875000000003 938.4375H419.1687500000003C306.5562500000003 713.2125000000001 212.7125000000003 613.1125000000001 112.6125000000003 613.1125000000001H62.5625000000003z"/> <glyph glyph-name="twitter" unicode="&#xE020;" horiz-adv-x="1191.6666666666665" d="M1188.6636666666666 883.454A475.3796666666667 475.3796666666667 0 0 0 1048.6190000000001 843.986A250.0593333333334 250.0593333333334 0 0 1 1155.8690000000001 982.6483333333334C1108.679 953.953 1056.5793333333336 933.075 1000.9046666666666 921.8733333333334A240.24 240.24 0 0 1 822.9173333333333 1001C688.3543333333332 1001 579.1499999999999 888.745 579.1499999999999 750.2733333333333C579.1499999999999 730.6823333333334 581.2473333333332 711.568 585.4419999999999 693.2163333333333C382.7633333333333 703.703 203.06 803.374 82.7493333333333 955.24A255.7316666666667 255.7316666666667 0 0 1 49.764 829.0663333333333C49.764 742.1223333333334 92.807 665.379 158.2533333333333 620.4293333333334A238.953 238.953 0 0 0 47.6666666666667 651.6986666666667V648.6003333333333C47.6666666666667 527.098 131.7506666666667 425.7586666666666 243.386 402.7833333333333A231.9936666666667 231.9936666666667 0 0 0 179.1313333333333 393.9649999999999C163.4013333333333 393.9649999999999 148.0526666666667 395.4903333333333 133.2283333333333 398.4456666666667C164.2116666666667 298.8699999999999 254.3016666666667 226.3690000000001 361.0273333333334 224.4146666666667A480.766 480.766 0 0 0 0 120.5013333333333A677.7246666666666 677.7246666666666 0 0 1 373.802 7.9603333333333C822.4406666666667 7.9603333333333 1067.6856666666667 389.8656666666666 1067.6856666666667 721.1966666666665C1067.6856666666667 732.1123333333333 1067.4473333333333 742.9803333333332 1067.0183333333334 753.7053333333332C1114.685 789.0263333333332 1156.0596666666665 833.1656666666665 1188.6636666666666 883.454"/> <glyph glyph-name="user" unicode="&#xE021;" horiz-adv-x="871.6842105263158" d="M445.421052631579 507.6842105263157C306.5263157894737 507.6842105263157 191.5789473684211 617.8421052631579 191.5789473684211 756.7368421052631S306.5263157894737 1001 445.421052631579 1001S699.263157894737 890.8421052631578 699.263157894737 756.7368421052631S584.3157894736843 507.6842105263157 445.421052631579 507.6842105263157zM445.421052631579 948.3157894736842C335.263157894737 948.3157894736842 244.2631578947369 862.1052631578947 244.2631578947369 756.7368421052631S335.2631578947369 565.1578947368421 445.421052631579 565.1578947368421S646.5789473684212 651.3684210526314 646.5789473684212 756.7368421052631C641.7894736842106 862.1052631578947 555.578947368421 948.3157894736842 445.421052631579 948.3157894736842zM871.6842105263158 0H819C819 205.9473684210527 646.578947368421 373.5789473684212 435.8421052631578 373.5789473684212S52.6842105263157 205.9473684210527 52.6842105263157 0H-1e-13C-1e-13 234.6842105263159 196.3684210526315 426.2631578947369 435.8421052631578 426.2631578947369S871.6842105263156 234.6842105263159 871.6842105263156 0z"/> <glyph glyph-name="yield" unicode="&#xE022;" horiz-adv-x="1001" d="M500.5 0C224.1822916666667 0 0 224.1822916666666 0 500.5S224.1822916666667 1001 500.5 1001S1001 776.8177083333333 1001 500.5S776.8177083333334 0 500.5 0zM500.5 964.5052083333334C245.0364583333333 964.5052083333334 36.4947916666666 755.9635416666667 36.4947916666666 500.5S245.0364583333333 36.4947916666666 500.5 36.4947916666666S964.5052083333334 245.0364583333333 964.5052083333334 500.5S755.9635416666667 964.5052083333334 500.5 964.5052083333334zM383.1953125 521.3541666666667C312.8125 521.3541666666667 255.4635416666667 578.703125 255.4635416666667 649.0859375S312.8125 776.8177083333334 383.1953125 776.8177083333334S510.9270833333334 719.46875 510.9270833333334 649.0859375S453.5781250000001 521.3541666666667 383.1953125000001 521.3541666666667zM383.1953125 740.3229166666667C333.6666666666667 740.3229166666667 291.9583333333333 698.6145833333334 291.9583333333333 649.0859375S333.6666666666667 557.8489583333333 383.1953125 557.8489583333333S474.4322916666667 599.5572916666666 474.4322916666667 649.0859375S432.7239583333333 740.3229166666666 383.1953125 740.3229166666666zM696.0078125 364.9479166666667C625.625 364.9479166666667 568.2760416666666 422.296875 568.2760416666666 492.6796874999999S625.625 620.4114583333333 696.0078125 620.4114583333333S823.7395833333333 563.0625 823.7395833333333 492.6796874999999S766.3906249999999 364.9479166666667 696.0078125 364.9479166666667zM696.0078125 583.9166666666667C646.4791666666667 583.9166666666667 604.7708333333334 542.2083333333334 604.7708333333334 492.6796874999999S646.4791666666667 401.4427083333333 696.0078125 401.4427083333333S787.2447916666667 443.1510416666667 787.2447916666667 492.6796874999999C787.2447916666667 544.8151041666666 745.5364583333334 583.9166666666666 696.0078125 583.9166666666666zM409.2630208333334 182.4739583333333C338.8802083333334 182.4739583333333 281.53125 239.8229166666667 281.53125 310.2057291666667S338.8802083333334 437.9374999999999 409.2630208333334 437.9374999999999S536.9947916666667 380.5885416666667 536.9947916666667 310.2057291666667S479.6458333333334 182.4739583333333 409.2630208333334 182.4739583333333zM409.2630208333334 401.4427083333333C359.734375 401.4427083333333 318.0260416666667 359.7343749999999 318.0260416666667 310.2057291666667S359.734375 218.9687499999999 409.2630208333334 218.9687499999999S500.5 260.6770833333333 500.5 310.2057291666667C500.5 362.3411458333333 458.7916666666666 401.4427083333333 409.2630208333334 401.4427083333333z"/> <glyph glyph-name="youtube" unicode="&#xE023;" horiz-adv-x="1430" d="M544.8299999999999 330.6636666666667V727.9176666666667L916.2486666666668 528.6233333333333L544.83 330.7113333333333zM1372.8953333333332 786.7860000000001S1359.3103333333333 884.0736666666667 1317.745 926.926C1265.0733333333333 983.1726666666668 1205.9666666666667 983.4586666666665 1178.8443333333335 986.7C984.7456666666666 1001 693.693 1001 693.693 1001H693.0733333333334S401.973 1001 207.922 986.7C180.7996666666667 983.4586666666665 121.7406666666667 983.1726666666668 68.926 926.926C27.4083333333333 884.0736666666667 13.871 786.7860000000001 13.871 786.7860000000001S0 672.529 0 558.2719999999999V451.1650000000001C0 336.8603333333334 13.8233333333333 222.651 13.8233333333333 222.651S27.4083333333333 125.3633333333334 68.926 82.511C121.7406666666667 26.2643333333333 191.048 28.0279999999999 221.8883333333333 22.1649999999999C332.8086666666667 11.2969999999998 693.3593333333333 7.9603333333333 693.3593333333333 7.9603333333333S984.7456666666666 8.3893333333333 1178.8443333333335 22.6893333333334C1205.919 26.0260000000001 1265.0256666666667 26.2643333333333 1317.7450000000001 82.511C1359.3103333333333 125.3633333333334 1372.8953333333334 222.651 1372.8953333333334 222.651S1386.7186666666666 336.8603333333334 1386.7186666666666 451.1650000000001V558.2719999999999C1386.7186666666666 672.529 1372.8953333333334 786.786 1372.8953333333334 786.786z"/> </font>  <font id="icons2-icons" horiz-adv-x="5577"> <font-face font-family="icons" units-per-em="1001" ascent="1001" descent="0"/> <missing-glyph horiz-adv-x="0"/> <glyph glyph-name="angle-right-thick" unicode="&#xE001;" horiz-adv-x="603.4397163120567" d="M99.3900709219858 1001L0 901.6099290780141L404.6595744680851 496.9503546099291L0 99.3900709219859L99.3900709219858 0L603.4397163120567 496.9503546099291z"/> <glyph glyph-name="angle-right-thin" unicode="&#xE002;" horiz-adv-x="566.6037735849056" d="M66.1037735849057 1001L0 934.8962264150944L434.3962264150944 500.5L0 66.1037735849055L66.1037735849057 0L566.6037735849056 500.5z"/> <glyph glyph-name="ban" unicode="&#xE003;" horiz-adv-x="1001" d="M508.7434705294111 965.670588235294C243.708070488235 965.670588235294 28.8522763941169 750.8167313705882 28.8522763941169 485.779417652941C28.8522763941169 220.7420980470587 243.708070488235 5.8882411823529 508.7434705294111 5.8882411823529C773.778829352941 5.8882411823529 988.6346469999996 220.7440352764705 988.6346469999996 485.779417652941C988.6346469999996 750.8148000294118 773.7807724705873 965.670588235294 508.7434705294111 965.670588235294zM749.4266779999998 726.4610588529413C873.3997625294113 602.4878801117645 882.022258764705 413.0029550705882 788.5935115882344 280.1117672294116L303.0758083294117 765.6260376470589C436.0577986470585 859.1173649882352 625.5217792352937 850.3641499294117 749.4266779999998 726.4610588529413zM268.0602277294111 245.0982828411765C144.0871314235288 369.0713202647059 135.4646292999993 558.5560274411764 228.893382364705 691.4470621882353L714.41110917647 205.9333452647057C581.4309677647053 112.4421298 391.9651029411758 121.1934311823529 268.0602277294111 245.0982828411765z"/> <glyph glyph-name="cart" unicode="&#xE004;" horiz-adv-x="1093.3252427184466" d="M393.5970873786364 218.6650485436893C335.2864077669859 218.6650485436893 286.6941747572771 170.0728155339806 286.6941747572771 111.7621359223301S335.2864077669859 0 393.5970873786364 0S500.4999999999955 48.5922330097087 500.4999999999955 111.7621359223301C505.3592233009664 170.0728155339806 451.9077669902868 218.6650485436893 393.5970873786364 218.6650485436893zM393.5970873786364 53.4514563106796C364.4417475728111 53.4514563106796 340.1456310679568 77.747572815534 340.1456310679568 111.7621359223301S364.4417475728111 170.0728155339806 393.5970873786364 170.0728155339806S451.9077669902868 145.7766990291262 451.9077669902868 111.7621359223301C451.9077669902868 82.6067961165048 422.7524271844616 53.4514563106796 393.5970873786364 53.4514563106796zM884.3786407767012 218.6650485436893C826.0679611650507 218.6650485436893 777.475728155342 170.0728155339806 777.475728155342 111.7621359223301S826.0679611650507 0 884.3786407767012 0S991.2815533980604 48.5922330097087 991.2815533980604 111.7621359223301C991.2815533980604 170.0728155339806 942.6893203883516 218.6650485436893 884.3786407767012 218.6650485436893zM884.3786407767012 53.4514563106796C855.2233009708759 53.4514563106796 830.9271844660216 77.747572815534 830.9271844660216 111.7621359223301S855.2233009708759 170.0728155339806 884.3786407767012 170.0728155339806S942.6893203883516 145.7766990291262 942.6893203883516 111.7621359223301C937.8300970873808 82.6067961165048 913.5339805825262 53.4514563106796 884.3786407767012 53.4514563106796zM383.8786407767035 432.4708737864077H957.2669902912666L1093.3252427184511 860.0825242718446H257.5388349514609L213.8058252427229 996.140776699029H4.5e-12V942.6893203883494H174.9320388349559L335.2864077669948 451.9077669902912L257.5388349514609 276.9757281553398H1039.8737864077716V330.4271844660193H340.1456310679657zM276.9757281553442 811.4902912621358H1020.436893203888L918.3932038834994 485.9223300970873H383.8786407767035z"/> <glyph glyph-name="chat" unicode="&#xE005;" horiz-adv-x="1001" d="M500.5 0C224.1822916666667 0 0 224.1822916666666 0 500.5C0 776.8177083333333 224.1822916666667 1001 500.5 1001C776.8177083333334 1001 1001 776.8177083333333 1001 500.5C1001 224.1822916666666 776.8177083333334 0 500.5 0zM500.5 964.5052083333334C245.0364583333333 964.5052083333334 36.4947916666666 755.9635416666666 36.4947916666666 500.5S245.0364583333334 36.4947916666666 500.5 36.4947916666666S964.5052083333334 245.0364583333333 964.5052083333334 500.5S755.9635416666667 964.5052083333334 500.5 964.5052083333334zM771.6041666666667 424.9036458333333C758.5703125000001 401.4427083333333 737.7161458333334 377.9817708333333 714.2552083333335 359.7343749999999C664.7265625000001 320.6328124999999 596.9505208333335 299.7786458333333 526.5677083333335 299.7786458333333C492.6796875000001 299.7786458333333 458.7916666666667 304.9921874999999 427.5104166666668 315.4192708333333L406.65625 323.2395833333333L388.4088541666667 310.2057291666667C362.3411458333334 291.9583333333333 338.8802083333334 278.9244791666667 312.8125 271.1041666666667L281.5312500000001 260.6770833333333L297.1718750000001 289.3515625C307.5989583333334 304.9921875 315.4192708333334 320.6328125 320.6328125000001 336.2734375L331.0598958333334 362.3411458333334L312.8125 385.8020833333333C289.3515625 411.8697916666667 260.6770833333334 453.578125 260.6770833333334 508.3203124999999C260.6770833333334 536.9947916666666 268.4973958333334 563.0625 281.5312500000001 589.1302083333333C294.5651041666667 612.5911458333333 315.4192708333334 636.0520833333333 338.8802083333334 654.2994791666665C388.4088541666667 693.4010416666665 456.1848958333334 714.2552083333333 526.5677083333334 714.2552083333333S662.1197916666667 693.4010416666665 714.2552083333334 654.2994791666665C737.7161458333334 636.0520833333333 758.5703125 612.5911458333333 771.6041666666666 589.1302083333333C784.6380208333334 563.0624999999998 792.4583333333334 536.9947916666665 792.4583333333334 508.3203124999998C792.4583333333334 479.6458333333333 784.6380208333335 450.9713541666666 771.6041666666667 424.9036458333333M826.3463541666667 505.7135416666666C826.3463541666667 536.9947916666666 818.5260416666667 568.2760416666665 802.8854166666667 599.5572916666666C787.2447916666667 628.2317708333333 766.3906250000001 654.2994791666666 740.3229166666667 675.1536458333333C711.6484375000001 698.6145833333333 680.3671875000001 714.2552083333333 643.8723958333335 727.2890625C607.3776041666669 740.3229166666666 568.2760416666669 745.5364583333333 526.5677083333335 745.5364583333333C484.8593750000001 745.5364583333333 445.7578125000001 740.3229166666666 409.2630208333335 727.2890625C372.7682291666668 714.2552083333333 341.4869791666668 698.6145833333333 312.8125000000001 675.1536458333333C286.7447916666668 651.6927083333333 263.2838541666668 628.2317708333333 250.2500000000001 599.5572916666666C234.6093750000001 570.8828125 226.7890625 539.6015625 226.7890625 505.7135416666666C226.7890625 453.578125 247.6432291666667 404.0494791666667 286.7447916666667 359.7343749999999L291.9583333333333 354.5208333333333L289.3515625 349.3072916666667C271.1041666666667 302.3854166666667 237.2161458333334 263.2838541666667 229.3958333333334 255.4635416666665L229.3958333333334 255.4635416666665C224.1822916666667 250.2499999999999 224.1822916666667 242.4296874999999 226.7890625000001 237.2161458333333C229.3958333333334 232.0026041666667 234.6093750000001 226.7890625 242.4296875000001 226.7890625C312.8125 226.7890625 370.1614583333334 255.4635416666667 404.0494791666667 281.53125L409.2630208333334 284.1380208333334L414.4765625 281.53125C450.9713541666666 271.1041666666668 487.4661458333334 265.890625 523.9609375 265.890625C565.6692708333334 265.890625 604.7708333333334 271.1041666666667 641.265625 284.1380208333333C677.7604166666666 297.1718749999999 709.0416666666667 312.8125 737.7161458333334 336.2734374999999C763.7838541666666 359.7343749999999 787.2447916666666 383.1953125 800.2786458333333 411.8697916666667C818.5260416666667 443.1510416666667 826.3463541666667 474.4322916666666 826.3463541666667 505.7135416666666"/> <glyph glyph-name="checkmark" unicode="&#xE006;" horiz-adv-x="1370.3009708737864" d="M1302.2718446601941 1001L447.0485436893204 145.7766990291262L68.0291262135922 524.7961165048544L0 447.0485436893204L447.0485436893204 0L1370.3009708737864 932.9708737864077z"/> <glyph glyph-name="clock" unicode="&#xE007;" horiz-adv-x="1001" d="M500.5 0C224.1822916666667 0 0 224.1822916666666 0 500.5S224.1822916666667 1001 500.5 1001S1001 776.8177083333333 1001 500.5S776.8177083333334 0 500.5 0zM500.5 964.5052083333334C245.0364583333333 964.5052083333334 36.4947916666666 755.9635416666667 36.4947916666666 500.5S245.0364583333333 36.4947916666666 500.5 36.4947916666666S964.5052083333334 245.0364583333333 964.5052083333334 500.5S755.9635416666667 964.5052083333334 500.5 964.5052083333334zM675.1536458333334 284.1380208333333L469.2187500000001 487.4661458333333V896.7291666666666H505.7135416666667V503.1067708333333L701.2213541666667 310.2057291666667z"/> <glyph glyph-name="close--bold" unicode="&#xE008;" horiz-adv-x="1000.9999999999999" d="M688.3135313531352 500.4356435643564L970.023102310231 782.1881188118812C1011.3399339933994 823.5049504950495 1011.3399339933994 891.1221122112211 970.023102310231 932.4389438943894L932.4818481848185 969.9801980198018C891.1650165016501 1011.3399339933992 823.5478547854785 1011.3399339933992 782.2310231023104 969.9801980198018L500.5214521452145 688.227722772277L218.7689768976898 969.9801980198018C177.4950495049505 1011.2970297029702 109.8778877887789 1011.2970297029702 68.5610561056106 969.9801980198018L30.976897689769 932.4389438943894C-10.2970297029703 891.1221122112211 -10.2970297029703 823.5049504950493 30.976897689769 782.1881188118812L312.6864686468647 500.4785478547853L30.976897689769 218.7260726072607C-10.2970297029703 177.4092409240923 -10.2970297029703 109.7920792079207 30.976897689769 68.5181518151813L68.5610561056106 30.9768976897689C109.8778877887789 -10.3399339933995 177.4950495049505 -10.3399339933995 218.7689768976898 30.9768976897689L500.5214521452145 312.6435643564355L782.2310231023101 30.9768976897689C823.5478547854785 -10.3399339933995 891.1650165016501 -10.3399339933995 932.4818481848184 30.9768976897689L970.023102310231 68.5181518151813C1011.3399339933992 109.8349834983497 1011.3399339933992 177.4521452145214 970.023102310231 218.7260726072607L688.3135313531352 500.4356435643564z"/> <glyph glyph-name="close-thin" unicode="&#xE009;" horiz-adv-x="1025.2177419354837" d="M1025.2177419354837 944.491935483871L968.7096774193548 1001L508.5725806451612 540.8629032258065L56.508064516129 992.9274193548385L0 936.4193548387096L452.0645161290322 484.3548387096774L32.2903225806451 64.5806451612903L88.7983870967741 8.0725806451613L508.5725806451612 427.8467741935484L936.4193548387096 0L992.9274193548385 56.508064516129L565.0806451612902 484.3548387096773z"/> <glyph glyph-name="column" unicode="&#xE00A;" horiz-adv-x="1236.5294117647059" d="M1096.7574146941165 965.670588235294L160.9696205764697 965.670588235294C101.3581392352933 965.670588235294 52.9941058705876 919.6096085647058 52.9941058705876 862.8367689117646L52.9941058705876 108.7220663941176C52.9941058705876 51.9492267411764 101.3581392352933 5.8882411823529 160.9696205764697 5.8882411823529L1096.7574146941165 5.8882411823529C1156.3688960352938 5.8882411823529 1204.7329293999994 51.9492267411764 1204.7329293999994 108.7220663941176L1204.7329293999994 862.8367689117646C1204.7329293999994 919.6096085647058 1156.3688960352938 965.670588235294 1096.7574146941165 965.670588235294zM1060.7655764588226 143.0000042058824L196.9614588117637 143.0000042058824L196.9614588117637 691.4470621882353L1060.7655764588226 691.4470621882353L1060.7655764588226 143.0000042058824z"/> <glyph glyph-name="columns" unicode="&#xE00B;" horiz-adv-x="1236.5294117647059" d="M1087.336244111764 965.670588235294L151.5484558823523 965.670588235294C91.914475594117 965.670588235294 43.5729411764699 919.6310299647058 43.5729411764699 862.8367689117646L43.5729411764699 108.7220663941176C43.5729411764699 51.9277994529411 91.914475594117 5.8882411823529 151.5484558823523 5.8882411823529L1087.336244111764 5.8882411823529C1146.9702243999993 5.8882411823529 1195.3117588176465 51.9277994529411 1195.3117588176465 108.7220663941176L1195.3117588176465 862.8367689117646C1195.3117588176465 919.6310299647058 1146.9702243999993 965.670588235294 1087.336244111764 965.670588235294zM547.4586705823522 143.0000042058824L187.5402941176464 143.0000042058824L187.5402941176464 691.4470621882353L547.4586705823522 691.4470621882353L547.4586705823522 143.0000042058824zM1051.3444058764699 143.0000042058824L691.4260235235287 143.0000042058824L691.4260235235287 691.4470621882353L1051.3444058764699 691.4470621882353L1051.3444058764699 143.0000042058824z"/> <glyph glyph-name="envelope" unicode="&#xE00C;" horiz-adv-x="1387.3508771929824" d="M1325.8859649122805 1001H61.4649122807017C26.3421052631578 1001 -1e-13 974.657894736842 -1e-13 939.5350877192984V52.684210526316C-1e-13 17.5614035087721 26.3421052631578 -8.7807017543857 61.4649122807017 -8.7807017543857H1334.6666666666665C1369.7894736842104 -8.7807017543857 1396.131578947368 17.5614035087722 1396.131578947368 52.684210526316V939.5350877192984C1387.3508771929824 974.6578947368422 1361.0087719298244 1001.0000000000002 1325.8859649122805 1001.0000000000002zM1308.3245614035088 939.5350877192984L702.4561403508771 342.4473684210527L96.5877192982456 939.5350877192982zM61.4649122807019 939.5350877192984H70.2456140350878zM1325.8859649122808 61.4649122807019H61.4649122807019V904.4122807017544L702.4561403508771 263.4210526315791L1325.8859649122805 886.8508771929826z"/> <glyph glyph-name="facebook" unicode="&#xE00D;" horiz-adv-x="1001" d="M533.3328 0H55.055C24.66464 0 0 24.7447199999999 0 55.2551999999999V945.7448C0 976.25528 24.66464 1001 55.09504 1001H943.3423999999998C973.7728 1001 998.47748 976.25528 998.47748 945.7448V55.2552000000002C998.47748 24.7447200000001 973.7727999999998 1e-13 943.3423999999998 1e-13H688.92824V387.6272400000002H818.6978799999999L838.15732 538.6981600000001H688.92824V635.1945600000001C688.92824 678.9182400000002 701.02032 708.7080000000001 763.6028399999999 708.7080000000001H843.4025599999999V843.8830399999999C829.5887599999999 845.72488 782.2214399999999 849.88904 727.1263999999999 849.88904C612.0914799999998 849.88904 533.3327999999999 779.41864 533.3327999999999 650.1695199999999V538.7382H403.2027999999999V387.66728H533.3327999999999V0z"/> <glyph glyph-name="file-alt" unicode="&#xE00E;" horiz-adv-x="765.4705882352941" d="M562.1791999352936 500.7760169176471L562.1791999352936 448.2879165470589C562.1791999352936 435.915721417647 552.7313438705878 425.7930205941177 541.1839609647054 425.7930205941177L247.2506212647054 425.7930205941177C235.703238358823 425.7930205941177 226.2553822941172 435.915721417647 226.2553822941172 448.2879165470589L226.2553822941172 500.7760169176471C226.2553822941172 513.1482120470588 235.703238358823 523.2709128705883 247.2506212647054 523.2709128705883L541.1839609647054 523.2709128705883C552.7313438705878 523.2709128705883 562.1791999352936 513.1482120470588 562.1791999352936 500.7760169176471zM541.1839609647054 365.8066235352941L247.2506212647054 365.8066235352941C235.703238358823 365.8066235352941 226.2553822941172 355.6839168235292 226.2553822941172 343.3117216941175L226.2553822941172 290.8236272117647C226.2553822941172 278.451432082353 235.703238358823 268.3287253705882 247.2506212647054 268.3287253705882L541.1839609647054 268.3287253705882C552.7313438705878 268.3287253705882 562.1791999352936 278.451432082353 562.1791999352936 290.8236272117647L562.1791999352936 343.3117216941175C562.1791999352936 355.6839168235292 552.7313438705878 365.8066235352941 541.1839609647054 365.8066235352941zM730.1411116999996 718.4141611705882L730.1411116999996 95.8678367705882C730.1411116999996 46.1915983941176 692.5246445764701 5.8882411823529 646.1601558176465 5.8882411823529L142.2744264117642 5.8882411823529C95.9099376529406 5.8882411823529 58.2934705294112 46.1915983941176 58.2934705294112 95.8678367705882L58.2934705294112 875.6909985352942C58.2934705294112 925.3672310235294 95.9099376529406 965.670588235294 142.2744264117642 965.670588235294L499.3684460470582 965.670588235294C521.5884085176465 965.670588235294 542.9335676470583 956.1102609882354 558.6799983470582 939.239083135294L705.4717081176466 781.9622516588234C721.2181388176465 765.278531664706 730.1411116999996 742.2212621352942 730.1411116999996 718.4141611705882zM506.19189797647 868.3801538176469L506.19189797647 725.7250058882353L639.3367038882349 725.7250058882353L506.19189797647 868.3801538176469zM646.1601558176465 95.8678367705882L646.1601558176465 635.7454102999998L464.2014200352937 635.7454102999998C440.9316970882349 635.7454102999998 422.2109420941171 655.8033599764706 422.2109420941171 680.7352080941175L422.2109420941171 875.6909985352942L142.2744264117642 875.6909985352942L142.2744264117642 95.8678367705882L646.1601558176465 95.8678367705882z"/> <glyph glyph-name="image" unicode="&#xE00F;" horiz-adv-x="1215.5" d="M1082.643983849999 984.55500715L135.7158659999991 984.55500715C75.3719609499991 984.55500715 26.454928499999 932.3768382499998 26.454928499999 868.0100071499999L26.454928499999 168.74000715C26.454928499999 104.3731760500001 75.3719609499991 52.1950071499998 135.7158659999991 52.1950071499998L1082.643983849999 52.1950071499998C1142.987888899999 52.1950071499998 1191.9049213499989 104.3731760500001 1191.9049213499989 168.74000715L1191.9049213499989 868.0100071499999C1191.9049213499989 932.3768382499998 1142.987888899999 984.55500715 1082.643983849999 984.55500715zM1068.986368449999 168.74000715L149.3734813999991 168.74000715C141.8305888999991 168.74000715 135.7158659999991 175.2623801499999 135.7158659999991 183.30813215L135.7158659999991 853.4418821499999C135.7158659999991 861.48763415 141.8305888999991 868.0100071499999 149.3734813999991 868.0100071499999L1068.986368449999 868.0100071499999C1076.529260949999 868.0100071499999 1082.643983849999 861.48763415 1082.643983849999 853.4418821499999L1082.643983849999 183.30813215C1082.643983849999 175.2623801499999 1076.529260949999 168.74000715 1068.986368449999 168.74000715L1068.986368449999 168.74000715zM317.8174213499991 770.88916905C267.5323579499992 770.88916905 226.7666472499991 727.40574335 226.7666472499991 673.7683381C226.7666472499991 620.1309328499999 267.5323579499992 576.6475071499999 317.8174213499991 576.6475071499999C368.1024918999992 576.6475071499999 408.8682025999991 620.1309328499999 408.8682025999991 673.7683381C408.8682025999991 727.40574335 368.1024918999992 770.88916905 317.8174213499991 770.88916905zM244.9768034999992 285.28500715L973.383046349999 285.28500715L973.383046349999 479.52666905L774.1753233499991 692.0149164499999C763.5087245499992 703.3926184999999 746.213625299999 703.3926184999999 735.5447527999991 692.0149164499999L463.498671349999 401.8300071499999L373.551885849999 497.7732474000001C362.885287049999 509.1509565999999 345.5901877999991 509.1509565999999 334.9213152999989 497.7732474000001L244.9768034999992 401.8300071499999L244.9768034999992 285.28500715z"/> <glyph glyph-name="instagram" unicode="&#xE010;" horiz-adv-x="1001" d="M499.21872 1001C634.7941599999999 1001 651.81116 1000.43944 705.0643600000001 997.997C758.19744 995.5946 794.4736800000001 987.10612 826.2254 974.73376A244.6444 244.6444 0 0 0 914.67376 916.99608A245.4452 245.4452 0 0 0 972.25128 828.34752C984.5836 796.5157200000001 993.03204 760.11936 995.4744799999997 706.86616C997.87688 653.4528 998.47748 636.39576 998.47748 500.5C998.47748 364.5642000000001 997.87688 347.5472 995.4744799999997 294.13384C993.03204 240.88064 984.5836 204.48428 972.25128 172.6524800000001A245.4452 245.4452 0 0 0 914.67376 84.0039200000001A244.6444 244.6444 0 0 0 826.2254 26.2662400000002C794.4736800000001 13.8938800000001 758.19744 5.4454400000001 705.0643600000001 3.0430400000001C651.8111600000001 0.5605600000001 634.7941600000001 1e-13 499.2587600000001 1e-13C363.64328 1e-13 346.6663200000001 0.5605600000001 293.4131200000001 3.0030000000002C240.2800400000001 5.4054000000001 203.96376 13.8938800000001 172.21204 26.2662400000002A244.6444 244.6444 0 0 0 83.80372 84.0039200000001A245.40516 245.40516 0 0 0 26.2262 172.6524800000001C13.85384 204.4842800000001 5.4054 240.8806400000001 3.003 294.13384C0.6006 347.5472 0 364.60424 0 500.5C0 636.4358 0.56056 653.4528 3.003 706.86616C5.4054 760.11936 13.85384 796.51572 26.2262 828.34752A245.40516 245.40516 0 0 0 83.80372 916.99608A244.6444 244.6444 0 0 0 172.172 974.73376C203.92372 987.10612 240.24 995.55456 293.37308 997.95696C346.66632 1000.47948 363.64328 1001 499.21872 1001zM499.21872 910.82992C365.92556 910.82992 350.1498000000001 910.3094 297.4972 907.907C248.80856 905.66476 222.38216 897.4966 204.8046 890.6898A154.63448 154.63448 0 0 1 147.38724 853.21236A155.07492 155.07492 0 0 1 110.06996 795.67488C103.22312 778.05728 95.095 751.5508 92.85276 702.78208C90.45036 649.96932 89.96988 634.15352 89.96988 500.5C89.96988 366.84648 90.45036 351.03068 92.85276 298.2579599999999C95.095 249.4491999999999 103.22312 222.98276 110.06996 205.3251199999999C119.119 181.9417599999999 129.9298 165.2851199999999 147.38724 147.7876399999998C164.88472 130.2501199999999 181.50132 119.3992799999999 204.8046 110.3502399999999C222.4222 103.4633599999999 248.8486 95.3352399999999 297.4972 93.1330399999999C350.1498 90.6905999999999 365.92556 90.1700799999999 499.21872 90.1700799999999C632.55192 90.1700799999999 648.32768 90.6905999999999 700.9802799999999 93.0929999999999C749.6288799999999 95.3352399999999 776.0552799999999 103.5033999999999 793.67288 110.3101999999998A154.63448 154.63448 0 0 1 851.0501999999999 147.7876399999998C868.54768 165.2851199999999 879.35848 181.9417599999999 888.40752 205.3251199999999C895.21432 222.9427199999999 903.3824799999998 249.4491999999999 905.62472 298.21792C908.0271199999999 351.0306799999999 908.5076 366.84648 908.5076 500.4999999999999C908.5076 634.1535199999998 907.9870799999998 649.9693199999999 905.5846799999998 702.7420399999999C903.3824799999998 751.5507999999999 895.2543599999999 778.0172399999999 888.40752 795.6748799999998C879.35848 819.0582399999998 868.54768 835.7148799999999 851.0501999999999 853.2123599999999A154.63448 154.63448 0 0 1 793.67288 890.6497599999999C776.0552799999999 897.5366399999999 749.6288799999999 905.6647599999998 700.9802799999999 907.8669599999998C648.3276799999999 910.3093999999998 632.5118799999999 910.82992 499.2187199999999 910.82992zM499.21872 757.47672C640.80016 757.47672 755.59484 642.4418000000001 755.59484 500.5S640.8001599999999 243.48324 499.21872 243.48324C357.6372800000001 243.48324 242.88264 358.5582 242.88264 500.5C242.88264 642.4418000000001 357.6372800000001 757.51676 499.21872 757.51676zM499.21872 333.6533199999999A166.60644 166.60644 0 0 1 665.62496 500.4999999999999A166.60644 166.60644 0 0 1 499.21872 667.3466799999999A166.60644 166.60644 0 0 1 332.81248 500.5A166.60644 166.60644 0 0 1 499.21872 333.6533199999999zM825.6247999999999 767.6869199999999C825.6247999999999 734.49376 798.7979999999998 707.6269199999999 765.7249599999999 707.6269199999999A59.97992 59.97992 0 0 0 705.82512 767.6869199999999C705.82512 800.8400399999999 732.65192 827.7469199999999 765.7249599999999 827.7469199999999S825.6247999999999 800.8400399999999 825.6247999999999 767.6869199999999z"/> <glyph glyph-name="linkedin" unicode="&#xE011;" horiz-adv-x="1001" d="M792.4583333333334 1001H208.5416666666667C93.3849583333333 1001 0 907.6150416666666 0 792.4583333333333V208.5416666666666C0 93.3849583333333 93.3849583333333 0 208.5416666666667 0H792.4583333333334C907.6567500000002 0 1001 93.3849583333333 1001 208.5416666666666V792.4583333333333C1001 907.6150416666666 907.6567500000002 1001 792.4583333333334 1001zM333.6666666666667 208.5416666666666H208.5416666666667V667.3333333333333H333.6666666666667V208.5416666666666zM271.1041666666667 720.2195C230.8139166666667 720.2195 198.1145833333334 753.1690833333333 198.1145833333334 793.793S230.8139166666667 867.3665000000001 271.1041666666667 867.3665000000001S344.09375 834.4169166666667 344.09375 793.793S311.436125 720.2195 271.1041666666667 720.2195zM834.1666666666667 208.5416666666666H709.0416666666667V442.2751666666666C709.0416666666667 582.7488333333333 542.2083333333334 572.1132083333332 542.2083333333334 442.2751666666666V208.5416666666666H417.0833333333334V667.3333333333333H542.2083333333334V593.7181249999999C600.4331666666667 701.575875 834.1666666666667 709.5421666666666 834.1666666666667 490.4482916666666V208.5416666666666z"/> <glyph glyph-name="menu" unicode="&#xE012;" horiz-adv-x="1106.3684210526314" d="M0 1001H1106.3684210526314V948.3157894736842H0zM0 52.6842105263158H1106.3684210526314V0H0zM0 526.8421052631579H1106.3684210526314V474.1578947368421H0z"/> <glyph glyph-name="pin" unicode="&#xE013;" horiz-adv-x="815.6296296296297" d="M570.9407407407408 389.2777777777777H244.6888888888889V615.4296296296295C211.3222222222222 630.2592592592592 192.7851851851852 652.5037037037036 192.7851851851852 674.7481481481482C192.7851851851852 726.6518518518518 289.1777777777778 771.1407407407407 407.8148148148149 771.1407407407407S622.8444444444445 726.6518518518518 622.8444444444445 674.7481481481482C622.8444444444445 652.5037037037036 604.3074074074075 630.2592592592592 570.9407407407408 611.7222222222222zM278.0555555555556 426.3518518518519H533.8666666666667V637.674074074074L556.1111111111111 645.0888888888887C582.062962962963 659.9185185185185 585.7703703703704 671.0407407407406 585.7703703703704 674.7481481481482C585.7703703703704 696.9925925925925 519.0370370370371 734.0666666666666 407.8148148148149 734.0666666666666S229.8592592592593 696.9925925925925 229.8592592592593 674.7481481481482C229.8592592592593 671.0407407407407 237.2740740740741 656.211111111111 259.5185185185186 645.0888888888887L278.0555555555556 633.9666666666666zM407.8148148148149 14.8296296296295L392.9851851851852 29.6592592592591C140.8814814814815 270.6407407407407 18.537037037037 459.7185185185184 18.537037037037 600.5999999999999C18.537037037037 811.9222222222221 192.7851851851852 982.462962962963 407.8148148148149 982.462962962963S797.0925925925926 811.9222222222222 797.0925925925926 596.8925925925926C797.0925925925926 456.0111111111109 674.7481481481482 266.9333333333332 418.9370370370371 25.9518518518516zM407.8148148148149 945.388888888889C215.0296296296296 945.388888888889 55.6111111111111 789.6777777777777 55.6111111111111 600.5999999999999C55.6111111111111 474.5481481481481 174.2481481481482 296.5925925925926 407.8148148148149 70.4407407407406C641.3814814814815 296.5925925925926 760.0185185185186 474.5481481481481 760.0185185185186 600.5999999999999C760.0185185185186 789.6777777777777 600.6 945.388888888889 407.8148148148149 945.388888888889z"/> <glyph glyph-name="pinterest" unicode="&#xE014;" horiz-adv-x="1001" d="M499.2587599999999 1001C223.54332 1001 0 776.93616 0 500.5C0 295.5752799999999 122.9228 119.4793600000001 298.8986 42.0820400000001C297.4972 76.9969200000001 298.65836 118.9988800000001 307.5072 156.9968400000001L371.73136 429.7092800000002S355.83548 461.7012400000001 355.83548 508.9484400000001C355.83548 583.1025200000001 398.75836 638.47784 452.1316799999999 638.47784C497.4969999999999 638.47784 519.4389199999999 604.2836800000001 519.4389199999999 563.32276C519.4389199999999 517.59708 490.3298399999999 449.1286800000001 475.39492 385.74536C462.8623999999999 332.6122800000001 501.9014 289.32904 554.1536 289.32904C648.7280799999999 289.32904 712.4317199999999 411.13072 712.4317199999999 555.43488C712.4317199999999 665.1044400000001 638.75812 747.22648 504.7042 747.22648C353.31296 747.22648 258.97872 634.0334 258.97872 507.58708C258.97872 463.94348 271.7915200000001 433.19276 291.8115200000001 409.409C301.1008000000001 398.398 302.3420400000001 394.07368 299.0187200000001 381.4610800000001C296.65636 372.33196 291.1308400000001 350.06972 288.84856 341.3009600000001C285.4852 328.6483200000002 275.275 324.0837600000001 263.90364 328.7684400000001C194.07388 357.3169600000001 161.64148 433.9134800000001 161.64148 519.9994800000001C161.64148 662.1414800000001 281.2009200000001 832.7118800000001 518.39788 832.7118800000001C709.02832 832.7118800000001 834.47364 694.3336400000001 834.47364 545.9854400000002C834.47364 349.6292800000001 725.6449200000001 202.9627600000001 565.08452 202.9627600000001C511.23072 202.9627600000001 460.50004 232.1519200000002 443.1226800000001 265.2650000000002C443.1226800000001 265.2650000000002 414.1337200000001 149.9498000000002 408.0076 127.7276000000002C397.4770800000001 89.1690800000001 376.7363600000001 50.5705200000002 357.7574000000001 20.5405200000002A497.2968 497.2968 0 0 1 499.2988 0C775.0142400000001 0 998.5175200000002 224.06384 998.5175200000002 500.5S774.9742 1001 499.2587599999999 1001"/> <glyph glyph-name="plus" unicode="&#xE015;" horiz-adv-x="1001" d="M533.8666666666667 533.8666666666667V1001H467.1333333333333V533.8666666666667H0V467.1333333333333H467.1333333333333V0H533.8666666666667V467.1333333333333H1001V533.8666666666667z"/> <glyph glyph-name="printer" unicode="&#xE016;" horiz-adv-x="1050.8009950248756" d="M1025.9004975124378 851.5970149253732C1010.960199004975 866.5373134328358 991.039800995025 876.497512437811 966.1393034825873 876.497512437811H886.457711442786V1001H159.363184079602V876.497512437811H84.6616915422886C59.7611940298508 876.497512437811 39.8407960199005 866.5373134328358 24.9004975124379 851.5970149253732S1e-13 816.7363184079602 1e-13 791.8358208955224V378.4875621890548C1e-13 353.587064676617 9.9601990049752 333.6666666666668 24.9004975124379 318.7263681592041S59.7611940298508 293.8258706467663 84.6616915422886 293.8258706467663H199.2039800995025V0H846.6169154228855V293.8258706467662H966.139303482587C991.0398009950248 293.8258706467662 1010.960199004975 303.7860696517413 1025.9004975124376 318.726368159204S1050.8009950248754 353.5870646766168 1050.8009950248754 378.4875621890547V791.8358208955224C1050.8009950248754 816.7363184079602 1040.8407960199004 836.6567164179104 1025.9004975124376 851.5970149253731zM846.6169154228855 956.179104477612V876.497512437811H204.18407960199V956.179104477612zM199.2039800995025 587.6517412935323V343.6268656716418H84.6616915422886C59.7611940298508 343.6268656716418 44.8208955223881 358.5671641791045 44.8208955223881 383.4676616915423V791.8358208955224C44.8208955223881 816.7363184079602 54.7810945273632 826.6965174129352 84.6616915422886 826.6965174129352H971.1194029850745C996.0199004975124 826.6965174129352 1010.960199004975 816.7363184079602 1010.960199004975 791.8358208955224V378.4875621890547C1010.960199004975 353.5870646766168 1001 338.6467661691542 971.1194029850745 338.6467661691542H851.5970149253732V587.6517412935323zM244.0248756218906 44.820895522388V537.8507462686566H801.7960199004975V44.820895522388z"/> <glyph glyph-name="question" unicode="&#xE017;" horiz-adv-x="1001" d="M465.6826086956521 413.4565217391305C465.6826086956521 430.8652173913044 470.0347826086956 448.2739130434783 474.3869565217391 461.3304347826087S487.4434782608695 487.4434782608696 500.4999999999999 500.5C509.2043478260869 513.5565217391304 522.2608695652173 522.2608695652174 530.9652173913042 530.9652173913043C544.0217391304346 539.6695652173912 552.7260869565216 552.7260869565217 561.4304347826086 561.4304347826087C570.1347826086954 574.4869565217391 578.8391304347824 583.191304347826 587.5434782608694 596.2478260869565C591.8956521739128 609.304347826087 596.2478260869564 626.7130434782608 596.2478260869564 644.1217391304347C596.2478260869564 674.5869565217391 587.5434782608694 696.3478260869565 570.1347826086954 718.1086956521739S530.9652173913041 744.2217391304348 500.4999999999998 744.2217391304348S448.2739130434781 735.5173913043477 426.5130434782608 718.1086956521739S396.0478260869565 678.9391304347826 387.3434782608694 648.4739130434782L335.1173913043477 657.1782608695652C343.8217391304347 700.6999999999999 361.2304347826086 731.1652173913043 391.6956521739129 757.2782608695652S456.9782608695651 792.095652173913 496.1478260869563 792.095652173913C517.9086956521737 792.095652173913 539.6695652173911 787.7434782608696 557.078260869565 783.391304347826S591.8956521739129 765.9826086956521 604.9521739130433 757.2782608695652C618.0086956521737 744.2217391304348 631.0652173913041 731.1652173913043 635.4173913043477 713.7565217391304C644.1217391304345 696.3478260869565 648.4739130434781 674.586956521739 648.4739130434781 652.8260869565217S644.1217391304347 609.3043478260869 639.7695652173912 591.8956521739129S626.7130434782607 561.4304347826087 613.6565217391303 548.3739130434782C604.9521739130435 535.3173913043477 591.8956521739129 526.6130434782608 583.191304347826 513.5565217391304C570.1347826086956 504.8521739130434 561.4304347826086 491.7956521739129 552.7260869565217 483.0913043478261S535.3173913043478 461.3304347826086 526.6130434782608 448.2739130434782S517.908695652174 417.8086956521738 517.908695652174 400.3999999999999V348.1739130434783H465.6826086956522zM452.6260869565216 221.9608695652174C452.6260869565216 235.017391304348 456.9782608695651 243.7217391304349 465.6826086956521 248.0739130434785S478.7391304347826 261.1304347826089 491.795652173913 261.1304347826089S513.5565217391304 256.7782608695653 517.9086956521738 248.0739130434785S530.9652173913043 230.6652173913045 530.9652173913043 221.9608695652174S526.6130434782608 200.2000000000001 517.9086956521738 195.8478260869565C509.2043478260869 187.1434782608697 500.4999999999999 182.7913043478261 491.795652173913 182.7913043478261C478.7391304347825 182.7913043478261 470.0347826086956 187.1434782608697 465.6826086956521 195.8478260869565C452.6260869565216 204.5521739130435 452.6260869565216 213.2565217391305 452.6260869565216 221.9608695652174zM500.5 21.7608695652174C235.0173913043479 21.7608695652174 21.7608695652174 235.0173913043479 21.7608695652174 500.5S235.0173913043479 979.2391304347826 500.5 979.2391304347826S979.2391304347826 765.9826086956522 979.2391304347826 500.5S765.9826086956522 21.7608695652174 500.5 21.7608695652174zM500.5 935.7173913043478C261.1304347826087 935.7173913043478 65.2826086956522 739.8695652173913 65.2826086956522 500.5S261.1304347826087 65.2826086956522 500.5 65.2826086956522S935.7173913043478 261.1304347826088 935.7173913043478 500.5S739.8695652173913 935.7173913043478 500.5 935.7173913043478z"/> <glyph glyph-name="rating" unicode="&#xE018;" horiz-adv-x="5577" d="M500.5 1001L336.05 686.4L0 622.05L235.95 357.5L193.05 0L500.5 157.3L807.95 0L765.0500000000001 357.5L1001 622.05L664.95 686.4000000000001zM1644.5 1001L1480.05 686.4L1144 622.05L1379.95 357.5L1337.05 0L1644.5 157.3L1951.95 0L1909.05 357.5L2145 622.05L1808.95 686.4000000000001zM2788.5 1001L2624.05 686.4L2288 622.05L2523.95 357.5L2481.0499999999997 0L2788.4999999999995 157.3L3095.9499999999994 0L3053.0499999999993 357.5L3288.999999999999 622.05L2952.949999999999 686.4000000000001zM3932.5 1001L3768.05 686.4L3432 622.05L3667.95 357.5L3625.05 0L3932.499999999999 157.3L4239.949999999999 0L4197.049999999999 357.5L4432.999999999999 622.05L4096.949999999999 686.4000000000001zM5076.5 1001L4912.05 686.4L4576 622.05L4811.95 357.5L4769.05 0L5076.5 157.3L5383.95 0L5341.05 357.5L5577 622.05L5240.95 686.4000000000001z"/> <glyph glyph-name="replay" unicode="&#xE019;" horiz-adv-x="1067.7333333333333" d="M0 553.8866666666667C6.6733333333333 580.5799999999999 13.3466666666667 613.9466666666667 20.02 640.64C113.4466666666667 987.6533333333334 520.52 1114.4466666666667 780.78 880.88C787.4533333333334 880.88 787.4533333333334 880.88 787.4533333333334 874.2066666666667C767.4333333333334 834.1666666666666 740.74 787.4533333333334 714.0466666666666 740.74C613.9466666666666 840.84 493.8266666666667 874.2066666666667 360.36 827.4933333333333C273.6066666666667 794.1266666666667 206.8733333333333 727.3933333333334 173.5066666666667 633.9666666666667C100.1 447.1133333333333 186.8533333333333 240.24 367.0333333333334 173.5066666666667C567.2333333333333 100.1 734.0666666666667 233.5666666666666 780.78 367.0333333333333L667.3333333333334 367.0333333333333C734.0666666666667 493.8266666666667 800.8 613.9466666666667 867.5333333333333 734.0666666666666C874.2066666666667 720.72 874.2066666666667 720.72 880.88 714.0466666666666C940.94 607.2733333333333 994.3266666666668 500.5 1054.3866666666668 393.7266666666667C1061.06 387.0533333333334 1061.06 380.38 1067.7333333333333 373.7066666666666L1067.7333333333333 373.7066666666666C1027.6933333333334 373.7066666666666 994.3266666666668 373.7066666666666 954.2866666666667 373.7066666666666C940.94 373.7066666666666 934.2666666666667 367.0333333333333 934.2666666666667 353.6866666666667C927.5933333333334 326.9933333333334 914.2466666666666 300.3 900.9 280.28C814.1466666666666 93.4266666666667 627.2933333333334 -13.3466666666666 433.7666666666667 0C240.24 20.02 73.4066666666667 160.16 20.02 360.36C13.3466666666667 387.0533333333334 6.6733333333333 420.4200000000001 0 447.1133333333333L0 553.8866666666667z"/> <glyph glyph-name="search" unicode="&#xE01A;" horiz-adv-x="1131.5652173913043" d="M754.3768115942029 348.1739130434783C884.9420289855074 531.9323671497584 846.2560386473431 788.2270531400966 662.4975845410628 923.6280193236717C473.903381642512 1054.193236714976 212.7729468599033 1015.5072463768116 77.3719806763285 831.7487922705315C14.5072463768116 739.8695652173913 -14.5072463768116 633.4830917874397 4.8357487922705 522.2608695652173S82.207729468599 319.159420289855 169.2512077294686 251.4589371980676C241.7874396135266 198.2657004830917 328.8309178743961 174.086956521739 411.0386473429952 174.086956521739C522.2608695652175 174.086956521739 633.4830917874397 217.6086956521738 715.6908212560387 304.6521739130433L1097.714975845411 -2e-13L1131.5652173913045 43.5217391304345zM701.1835748792271 377.1884057971014C589.9613526570048 217.6086956521739 362.6811594202899 178.9227053140096 203.1014492753623 294.9806763285024C125.7294685990338 353.0096618357487 72.5362318840579 435.2173913043479 58.0289855072464 531.9323671497584S67.7004830917874 720.5265700483092 120.8937198067633 797.8985507246377C193.4299516908212 894.6135265700483 299.8164251207729 947.8067632850242 411.0386473429952 947.8067632850242C483.5748792270532 947.8067632850242 556.1111111111112 923.6280193236717 623.8115942028986 880.1062801932368C783.3913043478261 764.048309178744 822.0772946859904 536.768115942029 701.1835748792271 377.1884057971015z"/> <glyph glyph-name="star-fill" unicode="&#xE01B;" horiz-adv-x="1008.15" d="M500.5 1001L336.05 686.4L0 622.05L235.95 357.5L193.05 0L500.5 157.3L815.1 0L772.2 357.5L1008.15 622.05L664.95 686.4000000000001z"/> <glyph glyph-name="star-outline" unicode="&#xE01C;" horiz-adv-x="1054.9754901960785" d="M201.1813725490196 0L245.343137254902 358.2009803921569L0 618.264705882353L353.2941176470589 686.9607843137255L525.0343137254902 1001.0000000000002L696.7745098039215 686.9607843137255L1050.0686274509803 618.2647058823529L804.7254901960783 358.2009803921569L848.8872549019607 0L525.03431372549 152.1127450980394zM525.0343137254902 196.2745098039217L804.7254901960783 63.7892156862746L765.470588235294 372.9215686274511L976.4656862745098 598.6372549019609L672.2401960784314 657.5196078431374L525.0343137254902 932.3039215686276L377.828431372549 657.5196078431374L73.6029411764706 598.6372549019609L284.5980392156863 372.9215686274511L245.343137254902 63.7892156862746z"/> <glyph glyph-name="thumbs-down" unicode="&#xE01D;" horiz-adv-x="875.875" d="M487.9875000000007 0H381.6312500000007L375.3750000000008 18.7687500000001C275.2750000000007 218.96875 187.6875000000007 325.3250000000001 112.6125000000007 325.3250000000001H7e-13V919.66875L625.6250000000007 1007.25625C713.2125000000007 1019.76875 794.5437500000006 963.4625 807.0562500000007 875.875L869.6187500000007 525.5250000000001V494.2437500000001C869.6187500000007 406.6562500000001 794.5437500000007 331.5812500000002 706.9562500000008 331.5812500000002H500.5000000000007L569.3187500000006 112.6125000000002C569.3187500000006 106.3562500000002 575.5750000000006 93.8437500000001 575.5750000000006 87.5875000000001C569.3187500000006 37.5375000000001 531.7812500000007 1e-13 487.9875000000006 1e-13zM419.1687500000008 62.5625H487.9875000000007C500.5000000000007 62.5625 506.7562500000008 68.81875 506.7562500000008 81.3312500000001L412.9125000000008 387.8875000000001H706.9562500000008C763.2625000000007 387.8875000000001 807.0562500000007 431.68125 807.0562500000007 487.9875000000001C807.0562500000007 494.24375 807.0562500000007 500.5000000000001 807.0562500000007 506.75625L744.4937500000007 857.10625C731.9812500000007 913.4125 688.1875000000007 944.69375 631.8812500000006 938.4375L56.3062500000007 857.10625V381.6312500000002H106.3562500000007C212.7125000000007 381.6312500000002 306.5562500000007 281.5312500000001 419.1687500000007 62.5625000000001z"/> <glyph glyph-name="thumbs-up--circle" unicode="&#xE01E;" horiz-adv-x="1001" d="M500.5 993.3C228.4333333333334 993.3 7.7 772.5666666666666 7.7 500.5S228.4333333333334 7.6999999999999 500.5 7.6999999999999S993.3 228.4333333333333 993.3 500.4999999999999S772.5666666666667 993.2999999999998 500.5000000000001 993.2999999999998zM500.5 43.6333333333333C248.9666666666667 43.6333333333333 43.6333333333333 248.9666666666667 43.6333333333333 500.5000000000001S248.9666666666667 957.3666666666668 500.5 957.3666666666668S957.3666666666666 752.0333333333334 957.3666666666666 500.5000000000001S752.0333333333333 43.6333333333333 500.4999999999999 43.6333333333333zM672.4666666666667 605.7333333333333H549.2666666666667L587.7666666666667 734.0666666666666C590.3333333333334 739.2 590.3333333333334 741.7666666666667 590.3333333333334 746.9C590.3333333333334 772.5666666666666 569.8 795.6666666666666 541.5666666666667 795.6666666666666H477.4L472.2666666666668 785.4C413.2333333333334 664.7666666666667 361.9000000000001 605.7333333333333 320.8333333333334 605.7333333333333H256.6666666666668V256.6666666666667L623.7000000000002 205.3333333333333H636.5333333333334C682.7333333333335 205.3333333333333 723.8000000000001 238.7 731.5000000000001 284.9L767.4333333333334 492.8000000000001C767.4333333333334 497.9333333333333 770.0000000000001 503.0666666666667 770.0000000000001 508.2000000000001C770.0000000000001 562.1000000000001 726.3666666666668 605.7333333333335 672.4666666666668 605.7333333333335zM734.0666666666666 497.9333333333333L698.1333333333333 290.0333333333332C693 256.6666666666665 662.2 236.1333333333332 631.4 241.2666666666667L295.1666666666667 287.4666666666666V569.8H325.9666666666667C385 569.8 438.9 628.8333333333333 505.6333333333333 759.7333333333333H546.6999999999999C554.4 759.7333333333333 559.5333333333333 754.6 559.5333333333333 746.9V744.3333333333333L505.6333333333333 569.8H677.5999999999999C710.9666666666666 569.8 736.6333333333332 541.5666666666666 736.6333333333332 510.7666666666666C734.0666666666666 505.6333333333333 734.0666666666666 503.0666666666666 734.0666666666666 497.9333333333333z"/> <glyph glyph-name="thumbs-up" unicode="&#xE01F;" horiz-adv-x="875.875" d="M650.6500000000003 0C644.3937500000004 0 638.1375000000004 0 625.6250000000003 0L3e-13 87.5875V681.9312500000001H112.6125000000004C187.6875000000004 681.9312500000001 275.2750000000004 782.03125 375.3750000000004 988.4875L381.6312500000003 1007.25625H487.9875000000003C531.7812500000003 1007.25625 569.3187500000004 969.71875 569.3187500000004 925.925C569.3187500000004 919.66875 569.3187500000004 907.15625 563.0625000000003 900.9L494.2437500000004 681.9312500000001H706.9562500000004C794.5437500000004 681.9312500000001 869.6187500000003 606.85625 869.6187500000003 519.2687500000001V487.9875000000001L807.0562500000003 137.6375000000001C794.5437500000004 56.30625 725.7250000000004 0 650.6500000000003 0zM62.5625000000003 143.8937500000001L638.1375000000003 62.5625C694.4437500000004 56.30625 744.4937500000002 93.84375 750.7500000000003 143.8937500000001L813.3125000000003 494.24375C813.3125000000003 500.5 813.3125000000003 506.75625 813.3125000000003 513.0125C813.3125000000003 569.31875 769.5187500000004 613.1125000000001 713.2125000000003 613.1125000000001H419.1687500000004L506.7562500000003 913.4125C506.7562500000003 932.18125 500.5000000000003 938.4375 487.9875000000003 938.4375H419.1687500000003C306.5562500000003 713.2125000000001 212.7125000000003 613.1125000000001 112.6125000000003 613.1125000000001H62.5625000000003z"/> <glyph glyph-name="twitter" unicode="&#xE020;" horiz-adv-x="1191.6666666666665" d="M1188.6636666666666 883.454A475.3796666666667 475.3796666666667 0 0 0 1048.6190000000001 843.986A250.0593333333334 250.0593333333334 0 0 1 1155.8690000000001 982.6483333333334C1108.679 953.953 1056.5793333333336 933.075 1000.9046666666666 921.8733333333334A240.24 240.24 0 0 1 822.9173333333333 1001C688.3543333333332 1001 579.1499999999999 888.745 579.1499999999999 750.2733333333333C579.1499999999999 730.6823333333334 581.2473333333332 711.568 585.4419999999999 693.2163333333333C382.7633333333333 703.703 203.06 803.374 82.7493333333333 955.24A255.7316666666667 255.7316666666667 0 0 1 49.764 829.0663333333333C49.764 742.1223333333334 92.807 665.379 158.2533333333333 620.4293333333334A238.953 238.953 0 0 0 47.6666666666667 651.6986666666667V648.6003333333333C47.6666666666667 527.098 131.7506666666667 425.7586666666666 243.386 402.7833333333333A231.9936666666667 231.9936666666667 0 0 0 179.1313333333333 393.9649999999999C163.4013333333333 393.9649999999999 148.0526666666667 395.4903333333333 133.2283333333333 398.4456666666667C164.2116666666667 298.8699999999999 254.3016666666667 226.3690000000001 361.0273333333334 224.4146666666667A480.766 480.766 0 0 0 0 120.5013333333333A677.7246666666666 677.7246666666666 0 0 1 373.802 7.9603333333333C822.4406666666667 7.9603333333333 1067.6856666666667 389.8656666666666 1067.6856666666667 721.1966666666665C1067.6856666666667 732.1123333333333 1067.4473333333333 742.9803333333332 1067.0183333333334 753.7053333333332C1114.685 789.0263333333332 1156.0596666666665 833.1656666666665 1188.6636666666666 883.454"/> <glyph glyph-name="user" unicode="&#xE021;" horiz-adv-x="871.6842105263158" d="M445.421052631579 507.6842105263157C306.5263157894737 507.6842105263157 191.5789473684211 617.8421052631579 191.5789473684211 756.7368421052631S306.5263157894737 1001 445.421052631579 1001S699.263157894737 890.8421052631578 699.263157894737 756.7368421052631S584.3157894736843 507.6842105263157 445.421052631579 507.6842105263157zM445.421052631579 948.3157894736842C335.263157894737 948.3157894736842 244.2631578947369 862.1052631578947 244.2631578947369 756.7368421052631S335.2631578947369 565.1578947368421 445.421052631579 565.1578947368421S646.5789473684212 651.3684210526314 646.5789473684212 756.7368421052631C641.7894736842106 862.1052631578947 555.578947368421 948.3157894736842 445.421052631579 948.3157894736842zM871.6842105263158 0H819C819 205.9473684210527 646.578947368421 373.5789473684212 435.8421052631578 373.5789473684212S52.6842105263157 205.9473684210527 52.6842105263157 0H-1e-13C-1e-13 234.6842105263159 196.3684210526315 426.2631578947369 435.8421052631578 426.2631578947369S871.6842105263156 234.6842105263159 871.6842105263156 0z"/> </font>
</defs>
</svg>
